osu file format v13

[General]
AudioFilename: Gekka.mp3
AudioLeadIn: 1500
PreviewTime: 50346
Countdown: 0
SampleSet: Soft
StackLeniency: 0.3
Mode: 0
LetterboxInBreaks: 0
WidescreenStoryboard: 0

[Editor]
DistanceSpacing: 1.4
BeatDivisor: 6
GridSize: 8
TimelineZoom: 1

[Metadata]
Title:Gekka (Short Size)
TitleUnicode:月花 (Short Size)
Artist:nano.RIPE
ArtistUnicode:nano.RIPE
Creator:No_Gu
Version:Insane
Source:Hataraku Maou-sama!
Tags:はたらく魔王さま! ending Flower -Umi- Umi 1PSA The Devil Is a Part-Timer!
BeatmapID:279824
BeatmapSetID:106595

[Difficulty]
HPDrainRate:7
CircleSize:4
OverallDifficulty:7
ApproachRate:8.5
SliderMultiplier:2.56
SliderTickRate:1

[Events]
//Background and Video events
0,0,"BG.jpg",0,0
Video,152,"video.avi"
//Break Periods
//Storyboard Layer 0 (Background)
//Storyboard Layer 1 (Fail)
//Storyboard Layer 2 (Pass)
//Storyboard Layer 3 (Foreground)
//Storyboard Sound Samples

[TimingPoints]
230,697.674418604651,4,2,1,70,1,0
50462,-90.9090909090909,4,2,1,50,0,1
61509,-90.9090909090909,4,2,1,50,0,0
61625,-90.9090909090909,4,2,1,50,0,1
72788,-100,4,2,1,70,0,0
84067,-100,4,2,1,5,0,0

[Colours]
Combo1 : 128,255,128
Combo2 : 255,255,128
Combo3 : 128,255,255
Combo4 : 255,128,128

[HitObjects]
56,88,230,6,0,P|112:88|152:56,1,85.3333333333334,0|0,3:0|0:0,0:0:0:0:
200,32,578,2,0,L|328:40,1,128,2|8,0:0|0:0,0:0:0:0:
488,304,1510,1,8,0:0:0:0:
416,280,1625,6,0,P|360:288|336:304,1,85.3333333333334,0|2,0:0|0:0,0:0:0:0:
280,352,1975,2,0,L|136:344,1,128,0|8,0:0|0:0,0:0:0:0:
48,176,3020,5,0,3:0:0:0:
73,142,3136,1,0,0:0:0:0:
80,100,3252,1,8,0:0:0:0:
67,60,3368,1,8,0:0:0:0:
176,256,3718,2,0,P|240:256|288:216,1,128,4|8,0:3|0:0,0:0:0:0:
456,280,4299,6,0,P|424:224|368:200,1,128,8|8,0:3|0:0,0:0:0:0:
312,136,4764,2,0,P|301:75|336:16,1,128,0|8,3:0|0:0,0:0:0:0:
192,104,5345,2,0,L|136:96,1,42.6666666666667,8|0,0:0|3:0,0:0:0:0:
24,280,5724,1,2,0:0:0:0:
24,280,5811,6,0,P|80:264|144:288,1,128,4|0,3:2|0:0,0:0:0:0:
328,352,6421,1,2,0:0:0:0:
328,352,6508,2,0,P|272:368|208:344,1,128,0|2,1:0|0:0,0:0:0:0:
72,112,7119,1,2,0:0:0:0:
72,112,7206,6,0,P|120:104|168:128,1,85.3333333333333,0|2,3:0|0:0,0:0:0:0:
200,176,7555,2,0,L|316:167,1,96,0|2,3:0|0:0,0:0:0:0:
328,200,7904,2,0,B|332:247|310:276|310:276|332:297|335:325,1,128,8|2,0:0|0:0,0:0:0:0:
25,344,8485,1,2,0:0:0:0:
87,297,8601,6,0,P|111:257|95:178,1,128,0|2,3:0|0:0,0:0:0:0:
36,78,9212,1,0,3:0:0:0:
36,78,9299,2,0,L|148:70,1,85.3333333333334,8|2,0:0|0:0,0:0:0:0:
172,86,9648,2,0,L|284:78,1,85.3333333333334,0|2,0:0|0:0,0:0:0:0:
360,256,9996,6,0,P|320:256|272:232,1,85.3333333333334,0|8,3:0|0:0,0:0:0:0:
424,192,10345,2,0,P|444:226|450:282,1,96,0|2,3:0|0:0,0:0:0:0:
336,168,10694,2,0,P|355:133|400:103,1,85.3333333333334,8|2,0:0|0:0,0:0:0:0:
472,96,11043,1,0,0:0:0:0:
392,328,11275,1,8,0:0:0:0:
320,360,11392,6,0,L|176:344,1,128,0|2,3:0|0:0,0:0:0:0:
72,136,12003,1,2,0:0:0:0:
72,136,12090,2,0,L|156:145,1,85.3333333333334,8|2,0:0|0:0,0:0:0:0:
232,112,12438,2,0,L|316:121,1,85.3333333333334,0|2,0:0|0:0,0:0:0:0:
392,88,12787,6,0,P|408:48|400:0,1,85.3333333333334,0|2,3:0|0:0,0:0:0:0:
384,168,13136,2,0,P|410:201|459:219,1,96,0|2,3:0|0:0,3:0:0:0:
496,296,13485,2,0,P|456:304|400:288,1,85.3333333333334,8|2,0:0|0:0,0:0:0:0:
304,344,13834,2,0,P|264:336|208:352,1,85.3333333333334,0|2,0:0|0:0,0:0:0:0:
144,328,14183,6,0,P|120:272|144:176,1,128,0|2,3:0|0:0,0:0:0:0:
256,24,14764,1,2,0:0:0:0:
296,96,14881,2,0,P|352:104|416:88,1,85.3333333333334,8|2,0:0|0:0,0:0:0:0:
432,112,15229,2,0,P|472:112|520:128,1,85.3333333333334,0|8,0:0|0:0,0:0:0:0:
456,288,15578,6,0,P|448:240|456:200,1,85.3333333333334,0|0,2:0|0:0,0:0:0:0:
264,240,15927,2,0,P|272:192|264:152,1,85.3333333333334,8|0,0:0|3:0,0:0:0:0:
368,136,16276,2,0,P|360:88|368:48,1,85.3333333333334,2|0,0:0|3:0,0:0:0:0:
176,88,16625,2,0,P|184:40|176:0,1,85.3333333333334,4|2,0:3|0:0,0:0:0:0:
112,160,16974,5,4,3:2:0:0:
112,160,17554,1,0,0:0:0:0:
184,216,17671,2,0,L|320:200,1,128,8|0,0:0|0:0,0:0:0:0:
472,352,18252,1,0,0:0:0:0:
400,312,18369,6,0,L|304:328,1,85.3333333333334,0|0,3:0|0:0,0:0:0:0:
240,288,18717,2,0,L|144:304,1,85.3333333333334,0|0,3:2|0:0,0:0:0:0:
80,256,19066,1,8,0:0:0:0:
176,64,19299,2,0,P|240:56|296:96,1,128,0|0,0:0|0:0,0:0:0:0:
368,120,19764,6,0,P|432:128|488:88,1,128,2|0,3:2|0:0,0:0:0:0:
296,176,20462,2,0,L|160:192,1,128,8|0,0:0|0:0,0:0:0:0:
80,312,21042,1,0,0:0:0:0:
80,312,21159,5,0,3:2:0:0:
112,128,21391,1,8,0:0:0:0:
112,128,21509,1,0,3:0:0:0:
248,256,21740,1,0,0:0:0:0:
248,256,21857,2,0,B|288:272|336:264|360:224,1,128,8|0,0:0|0:0,0:0:0:0:
448,80,22438,1,0,0:0:0:0:
448,80,22555,6,0,L|440:208,1,128,2|0,3:2|0:0,0:0:0:0:
344,328,23135,1,0,0:0:0:0:
344,328,23252,2,0,P|304:344|248:336,1,85.3333333333334,8|2,0:0|0:0,0:0:0:0:
184,304,23602,2,0,P|144:288|88:296,1,85.3333333333334,0|2,0:0|0:0,0:0:0:0:
32,328,23949,5,2,3:2:0:0:
96,112,24182,1,0,0:0:0:0:
96,112,24299,2,0,P|152:136|216:120,1,128,0|8,3:0|0:0,0:0:0:0:
360,16,24881,1,0,0:0:0:0:
355,40,24997,1,2,0:0:0:0:
351,65,25113,1,2,0:0:0:0:
347,90,25229,1,0,0:0:0:0:
343,115,25346,6,0,L|352:248,1,128,2|0,3:2|0:0,0:0:0:0:
176,344,26043,2,0,L|168:208,1,128,8|0,0:0|0:0,0:0:0:0:
72,88,26625,1,0,0:0:0:0:
72,88,26741,6,0,P|128:96|168:72,1,85.3333333333334,0|8,3:2|0:0,0:0:0:0:
232,112,27090,2,0,P|316:100|376:136,1,128,2|8,3:2|0:0,0:0:0:0:
456,296,27787,2,0,L|368:288,1,85.3333333333334,2|0,0:0|0:0,0:0:0:0:
304,336,28136,6,0,P|288:280|320:216,1,128,2|0,3:2|0:0,0:0:0:0:
184,288,28718,1,0,0:0:0:0:
184,288,28834,2,0,P|128:304|64:272,1,128,8|0,0:0|0:0,0:0:0:0:
144,128,29415,1,0,0:0:0:0:
144,128,29532,6,0,L|136:216,1,85.3333333333334,0|2,3:0|0:0,0:0:0:0:
232,136,29880,2,0,L|224:0,2,128,0|8|0,3:2|0:0|0:0,0:0:0:0:
344,264,30811,1,0,0:0:0:0:
344,264,30927,6,0,P|400:272|464:240,1,128,2|0,3:2|0:0,0:0:0:0:
424,48,31625,2,0,P|368:40|304:72,1,128,8|2,0:0|0:0,0:0:0:0:
192,200,32206,1,0,0:0:0:0:
192,200,32322,6,0,P|144:200|112:184,1,85.3333333333334,0|8,3:2|0:0,0:0:0:0:
56,256,32671,2,0,P|24:200|32:136,2,128,0|8|0,3:0|0:0|0:0,0:0:0:0:
224,336,33601,1,0,0:0:0:0:
224,336,33718,6,0,L|352:328,1,128,2|0,3:2|0:0,0:0:0:0:
392,152,34416,2,0,L|264:160,1,128,8|0,0:0|0:0,0:0:0:0:
120,88,34998,1,2,0:0:0:0:
120,88,35114,6,0,P|104:64|104:0,1,85.3333333333334,0|8,3:0|0:0,0:0:0:0:
200,120,35463,2,0,P|160:168|88:168,1,128,0|8,3:0|0:0,0:0:0:0:
296,208,36161,2,0,L|384:216,1,85.3333333333334
392,296,36509,6,0,L|265:285,1,128,2|0,3:2|0:0,0:0:0:0:
80,232,37206,2,0,L|208:216,1,128,8|0,0:0|0:0,0:0:0:0:
344,56,37788,5,8,0:0:0:0:
344,56,37904,1,0,3:0:0:0:
368,136,38136,1,0,0:0:0:0:
368,136,38253,1,8,0:0:0:0:
392,216,38485,1,0,3:0:0:0:
392,216,38601,1,2,0:0:0:0:
416,296,38834,1,8,0:0:0:0:
416,296,38950,1,0,3:0:0:0:
360,360,39183,1,0,0:0:0:0:
360,360,39299,6,0,P|288:368|224:328,1,128,4|0,3:2|0:0,0:0:0:0:
168,152,39881,2,0,P|96:144|32:184,1,128,8|0,0:0|3:0,0:0:0:0:
0,232,40346,1,8,0:0:0:0:
240,104,40578,1,0,0:0:0:0:
240,104,40694,6,0,L|256:8,1,85.3333333333334,0|0,3:0|3:0,0:0:0:0:
248,192,41276,2,0,L|272:336,1,128,8|0,0:0|3:0,0:0:0:0:
336,360,41741,1,8,0:0:0:0:
472,176,42090,6,0,P|416:144|344:152,1,128,4|0,3:2|0:0,0:0:0:0:
240,280,42671,2,0,P|184:312|112:304,1,128,8|0,0:0|3:0,0:0:0:0:
56,264,43136,1,8,0:0:0:0:
152,48,43485,6,0,L|240:56,1,85.3333333333334,0|8,3:0|0:0,0:0:0:0:
296,112,43834,2,0,P|376:120|416:88,1,128,0|8,3:0|0:0,0:0:0:0:
504,208,44415,2,0,P|512:288|480:328,1,128,8|8,0:0|0:0,0:0:0:0:
408,296,44881,6,0,P|336:288|272:320,1,128,4|0,3:2|3:0,0:0:0:0:
80,224,45578,2,0,P|152:232|208:208,1,128,8|2,0:2|0:0,0:0:0:0:
336,24,46276,6,0,P|344:64|328:112,1,85.3333333333334,0|8,3:0|0:0,0:0:0:0:
272,160,46625,2,0,L|400:152,1,128,0|8,3:0|0:0,0:0:0:0:
320,352,47323,1,2,0:0:0:0:
160,200,47671,5,0,3:0:0:0:
152,168,47788,1,8,0:0:0:0:
144,136,47904,1,8,0:0:0:0:
136,104,48020,1,8,0:0:0:0:
136,104,48369,5,8,0:0:0:0:
144,136,48485,1,0,3:0:0:0:
152,168,48602,1,0,3:0:0:0:
160,200,48718,2,0,L|184:288,1,85.3333333333334,0|2,3:0|3:2,0:0:0:0:
208,352,49067,1,0,0:0:0:0:
208,352,50462,6,0,P|248:336|312:344,1,93.8666695312501,4|2,3:2|0:0,0:0:0:0:
376,304,50811,2,0,P|416:320|480:312,1,93.8666695312501,0|2,0:2|0:0,0:0:0:0:
472,168,51160,2,0,P|432:152|368:160,1,93.8666695312501,8|0,0:2|0:0,0:0:0:0:
328,224,51509,1,2,0:0:0:0:
232,56,51741,6,0,L|168:48,1,46.933334765625,0|0,0:0|3:0,0:0:0:0:
104,216,52090,2,0,L|150:221,1,46.933334765625,8|0,0:0|3:0,0:0:0:0:
308,311,52439,1,0,0:0:0:0:
308,311,52555,2,0,P|332:271|324:215,1,93.8666695312501,10|0,0:0|0:0,0:0:0:0:
302,141,52903,2,0,P|279:100|226:79,1,93.8666695312501,2|0,0:0|0:0,0:0:0:0:
143,119,53252,6,0,L|42:112,1,93.8666695312501,2|2,3:2|0:0,0:0:0:0:
33,238,53602,2,0,L|126:244,1,93.8666695312501,0|0,0:0|3:0,0:0:0:0:
200,192,53951,2,0,P|234:126|214:56,1,140.800004296875,8|0,0:0|0:0,0:0:0:0:
312,136,54533,1,8,0:0:0:0:
312,136,54649,6,0,P|359:145|412:122,1,93.8666695312501,2|8,3:2|0:0,0:0:0:0:
464,200,54998,2,0,P|432:236|426:293,1,93.8666695312501,2|0,3:2|0:0,0:0:0:0:
336,288,55347,2,0,P|320:242|273:208,1,93.8666695312501,10|0,0:0|0:0,0:0:0:0:
208,248,55695,2,0,L|104:240,1,93.8666695312501,2|0,0:0|0:0,0:0:0:0:
96,72,56043,6,0,L|236:82,1,140.800004296875,4|2,3:2|0:0,0:0:0:0:
352,176,56625,1,0,3:0:0:0:
352,176,56741,2,0,P|384:128|376:48,1,140.800004296875,8|2,0:0|0:0,0:0:0:0:
272,216,57322,1,0,0:0:0:0:
272,216,57439,6,0,P|304:256|352:264,1,93.8666695312501,0|8,3:2|0:0,0:0:0:0:
424,232,57787,2,0,P|442:184|425:138,1,93.8666695312501,0|0,3:2|0:0,0:0:0:0:
360,88,58136,2,0,L|256:96,1,93.8666695312501,10|0,0:0|3:0,0:0:0:0:
192,56,58485,2,0,L|88:64,1,93.8666695312501,2|0,0:0|0:0,0:0:0:0:
80,248,58834,6,0,L|173:240,1,93.8666695312501,2|0,3:2|0:0,0:0:0:0:
248,208,59183,2,0,P|264:152|256:112,1,93.8666695312501,0|0,0:0|3:0,0:0:0:0:
192,56,59532,1,8,0:0:0:0:
351,126,59764,1,0,0:0:0:0:
351,126,59880,1,2,0:0:0:0:
280,288,60113,1,0,0:0:0:0:
280,288,60229,6,0,P|352:272|392:288,1,93.8666695312501,0|8,3:0|0:0,0:0:0:0:
440,320,60578,1,0,0:0:0:0:
304,152,60927,2,0,L|312:88,2,46.933334765625,8|8|0,0:0|0:0|3:0,0:0:0:0:
224,120,61276,2,0,L|128:136,1,93.8666695312501,0|0,3:0|3:0,0:0:0:0:
88,216,61625,6,0,P|88:272|112:304,1,93.8666695312501,4|2,3:2|0:0,0:0:0:0:
184,360,61974,2,0,P|238:374|275:359,1,93.8666695312501,0|2,0:0|3:2,0:0:0:0:
352,320,62322,2,0,L|496:336,1,140.800004296875,8|2,0:0|0:0,0:0:0:0:
448,208,62904,1,2,0:0:0:0:
448,208,63020,6,0,P|440:160|456:112,1,93.8666695312501,0|0,3:0|0:0,0:0:0:0:
384,72,63369,2,0,P|346:102|296:113,1,93.8666695312501,0|0,3:0|0:0,0:0:0:0:
296,192,63718,2,0,P|341:209|375:246,1,93.8666695312501,10|0,0:0|3:0,0:0:0:0:
296,288,64067,2,0,P|304:336|288:383,1,93.8666695312501,2|0,0:0|0:0,0:0:0:0:
216,328,64416,6,0,L|80:320,1,93.8666695312501,2|0,3:2|0:0,0:0:0:0:
56,192,64764,2,0,L|149:197,1,93.8666695312501,0|0,0:0|3:0,0:0:0:0:
224,152,65113,2,0,P|256:88|240:24,1,140.800004296875,8|2,0:0|0:0,0:0:0:0:
232,240,65695,1,8,0:0:0:0:
232,240,65812,5,2,3:2:0:0:
320,360,66044,1,8,0:0:0:0:
320,360,66160,1,0,3:0:0:0:
392,232,66392,1,0,0:0:0:0:
392,232,66509,2,0,L|384:136,1,93.8666695312501,8|8,0:0|0:0,0:0:0:0:
264,88,66858,2,0,L|271:181,1,93.8666695312501,0|8,3:0|0:0,0:0:0:0:
224,256,67207,6,0,P|168:288|88:272,2,140.800004296875,4|0|8,3:2|3:0|0:0,0:0:0:0:
264,88,68254,1,2,0:0:0:0:
352,184,68486,1,0,0:0:0:0:
352,184,68602,6,0,L|472:176,1,93.8666695312501,0|8,3:0|0:0,0:0:0:0:
480,288,68951,2,0,L|339:297,2,140.800004296875,0|10|10,3:0|0:0|0:0,0:0:0:0:
504,152,69881,1,0,0:0:0:0:
504,152,69998,6,0,P|504:104|480:64,1,93.8666695312501,2|0,3:2|0:0,0:0:0:0:
400,40,70347,2,0,L|256:48,1,140.800004296875,0|8,0:0|0:0,0:0:0:0:
96,128,71044,1,0,3:0:0:0:
216,224,71277,1,8,0:0:0:0:
216,224,71392,6,0,P|224:273|216:315,1,93.8666695312501,0|0,3:0|0:0,0:0:0:0:
414,273,71741,2,0,P|405:322|414:364,1,93.8666695312501,8|8,0:0|0:0,0:0:0:0:
323,116,72090,2,0,P|314:165|323:207,1,93.8666695312501,0|4,0:0|0:3,0:0:0:0:
124,66,72439,2,0,P|132:115|124:157,1,93.8666695312501,8|0,0:3|3:0,0:0:0:0:
24,272,72788,6,0,P|88:256|160:264,1,128,4|2,3:2|0:0,0:0:0:0:
296,328,73485,2,0,P|360:344|432:336,1,128,8|2,0:0|0:0,0:0:0:0:
496,224,74066,1,2,0:0:0:0:
496,224,74183,6,0,P|504:168|496:120,1,85.3333333333333,0|2,3:0|0:0,0:0:0:0:
432,88,74532,2,0,L|288:96,1,128,0|8,3:0|0:0,0:0:0:0:
248,248,75113,1,2,0:0:0:0:
248,248,75229,2,0,L|333:243,1,85.3333333333333
232,328,75578,6,0,P|176:296|168:232,1,128,2|0,3:2|0:0,0:0:0:0:
280,56,76276,2,0,P|336:88|344:152,1,128,8|0,0:0|0:0,0:0:0:0:
248,248,76857,1,8,0:0:0:0:
248,248,76973,6,0,L|152:240,1,85.3333333333333,2|8,3:2|0:0,0:0:0:0:
144,120,77323,2,0,L|271:130,1,128,2|8,3:2|0:0,0:0:0:0:
376,240,77904,1,2,0:0:0:0:
376,240,78020,1,0,0:0:0:0:
288,360,78253,1,0,0:0:0:0:
288,360,78369,6,0,P|192:368|160:352,1,128,2|0,3:2|0:0,0:0:0:0:
104,184,79067,2,0,P|200:176|232:192,1,128,8|2,0:0|0:0,0:0:0:0:
368,128,79649,1,8,0:0:0:0:
368,128,79764,6,0,L|376:40,1,85.3333333333333,2|8,3:2|0:0,0:0:0:0:
392,216,80113,2,0,L|404:348,1,128,0|8,3:0|0:0,0:0:0:0:
264,288,80810,2,0,P|216:288|184:312,1,85.3333333333333,2|0,0:0|0:0,0:0:0:0:
107,352,81159,5,2,3:2:0:0:
112,320,81275,1,0,0:0:0:0:
116,287,81392,1,8,0:0:0:0:
121,254,81508,1,6,3:2:0:0:
256,192,81857,5,8,0:0:0:0:
251,160,81973,1,0,0:0:0:0:
247,127,82090,1,0,0:0:0:0:
242,94,82206,1,8,0:0:0:0:
376,48,82438,1,2,0:0:0:0:
376,48,82555,6,0,P|432:48|464:72,1,85.3333333333333,0|8,0:0|0:0,0:0:0:0:
512,128,82904,2,0,P|528:208|496:256,1,128,0|10,3:0|0:0,0:0:0:0:
344,304,83486,1,8,0:0:0:0:
272,272,83602,2,0,P|224:272|184:304,1,85.3333333333333,0|0,3:0|0:0,0:0:0:0:
144,352,83951,5,2,0:0:0:0:
256,192,84067,12,0,88834,0:0:0:0:
