osu file format v14

[General]
AudioFilename: Flash Keeper.mp3
AudioLeadIn: 0
PreviewTime: 65481
Countdown: 0
SampleSet: Soft
StackLeniency: 0.7
Mode: 0
LetterboxInBreaks: 0
WidescreenStoryboard: 0

[Editor]
Bookmarks: 26271,35493,53368,55958,60709,66136,84949,85128,86565,96768,101981,104427,106821,125986,128539,149048,154235,159342,170992,173466,188364,189666,191262,206583,211451
DistanceSpacing: 1
BeatDivisor: 4
GridSize: 32
TimelineZoom: 1.7

[Metadata]
Title:Flash Keeper
TitleUnicode:フラッシュキーパー
Artist:nano.RIPE
ArtistUnicode:nano.RIPE
Creator:Milan-
Version:Normal
Source:
Tags:nanoripe Hoshi no Yoru no Myaku no Oto no 星の夜の脈の音の
BeatmapID:933630
BeatmapSetID:152572

[Difficulty]
HPDrainRate:4
CircleSize:3.5
OverallDifficulty:4
ApproachRate:4.6
SliderMultiplier:0.89999990463257
SliderTickRate:1

[Events]
//Background and Video events
0,0,"hot.jpg",0,0
//Break Periods
//Storyboard Layer 0 (Background)
//Storyboard Layer 1 (Fail)
//Storyboard Layer 2 (Pass)
//Storyboard Layer 3 (Foreground)
//Storyboard Sound Samples

[TimingPoints]
25269,319.148936170213,4,2,1,68,1,0
35481,-100,4,2,1,40,0,0
53354,-100,4,2,1,45,0,0
54949,-100,4,2,1,48,0,0
55907,-100,4,2,1,55,0,0
60694,-100,4,2,1,50,0,0
66120,-100,4,2,1,68,0,1
85907,310.077519379845,4,2,1,68,1,1
86527,319.148936170213,4,2,1,50,1,0
87183,319.148936170213,4,2,1,50,1,0
87821,319.148936170213,4,2,1,50,1,0
101863,-100,4,2,1,53,0,0
103778,-100,4,2,1,55,0,0
105693,-100,4,3,1,53,0,0
106650,-100,4,2,1,53,0,0
112076,-100,4,2,1,5,0,0

[Colours]
Combo1 : 219,77,101
Combo2 : 198,204,149
Combo3 : 118,108,236
Combo4 : 105,209,159

[HitObjects]
474,221,25269,6,0,L|461:315,1,89.999990463257,4|8,0:0|0:0,0:0:0:0:
380,348,25907,2,0,L|367:258,1,89.999990463257,0|8,0:0|0:0,0:0:0:0:
337,225,26386,2,0,P|296:205|198:222,1,134.999985694885,4|8,0:0|0:0,0:0:0:0:
182,251,27024,2,0,L|199:101,1,134.999985694885,4|8,0:0|0:0,0:0:0:0:
164,32,27822,6,0,P|120:43|76:40,1,89.999990463257,4|8,0:0|0:0,0:0:0:0:
4,95,28460,2,0,P|14:135|19:195,1,89.999990463257,0|8,0:0|0:0,0:0:0:0:
6,226,28939,2,0,P|23:276|99:316,1,134.999985694885,4|8,0:0|0:0,0:0:0:0:
131,294,29577,2,0,P|192:276|265:282,1,134.999985694885,4|8,0:0|0:0,0:0:0:0:
350,309,30375,6,0,P|394:308|438:298,1,89.999990463257,4|8,0:0|0:0,0:0:0:0:
489,224,31013,2,0,L|480:129,1,89.999990463257,0|8,0:0|0:0,0:0:0:0:
490,90,31492,2,0,P|456:109|362:86,1,134.999985694885,4|8,0:0|0:0,0:0:0:0:
343,51,32130,2,0,P|308:38|203:59,1,134.999985694885,4|8,0:0|0:0,0:0:0:0:
141,106,32928,5,2,0:3:0:0:
241,196,33407,1,2,0:3:0:0:
112,238,33886,1,6,0:2:0:0:
133,71,35481,6,0,L|150:159,2,89.999990463257,4|8|2,0:0|0:0|0:0,0:0:0:0:
255,127,36598,2,0,L|238:215,1,89.999990463257,2|2,0:0|0:0,0:0:0:0:
234,260,37077,1,8,0:0:0:0:
306,312,37396,2,0,L|361:324,2,44.9999952316285,0|0|8,0:0|0:0|0:0,0:0:0:0:
223,347,38034,6,0,L|122:357,2,89.999990463257,4|8|2,0:0|0:0|0:0,0:0:0:0:
289,229,39151,2,0,P|292:193|283:133,1,89.999990463257,2|2,0:0|0:0,0:0:0:0:
255,105,39630,2,0,L|154:115,2,89.999990463257,8|2|10,0:0|0:0|0:0,0:0:0:0:
336,65,40588,6,0,L|437:75,1,89.999990463257,4|8,0:0|0:0,0:0:0:0:
495,131,41226,1,2,0:0:0:0:
417,241,41705,2,0,P|377:234|333:197,1,89.999990463257,2|2,0:0|0:0,0:0:0:0:
321,163,42183,1,8,0:0:0:0:
233,185,42503,2,0,L|176:181,2,44.9999952316285,0|0|8,0:0|0:0|0:0,0:0:0:0:
255,97,43141,6,0,L|246:0,2,89.999990463257,4|8|2,0:0|0:0|0:0,0:0:0:0:
330,208,44258,2,0,L|321:297,1,89.999990463257,2|2,0:0|0:0,0:0:0:0:
300,337,44737,2,0,P|248:319|207:320,2,89.999990463257,8|2|10,0:0|0:0|0:0,0:0:0:0:
386,361,45694,6,0,P|454:349|479:331,1,89.999990463257,4|8,0:0|0:0,0:0:0:0:
478,248,46332,1,2,0:0:0:0:
363,176,46811,2,0,P|353:138|359:69,1,89.999990463257,2|2,0:0|0:0,0:0:0:0:
387,56,47290,1,8,0:0:0:0:
472,26,47609,2,0,L|512:47,2,44.9999952316285,0|0|8,0:0|0:0|0:0,0:0:0:0:
454,114,48247,6,0,P|455:158|445:202,2,89.999990463257,4|8|2,0:0|0:0|0:0,0:0:0:0:
354,22,49364,2,0,P|322:18|263:19,1,89.999990463257,2|2,0:0|0:0,0:0:0:0:
223,37,49843,2,0,P|178:38|133:33,2,89.999990463257,8|2|10,0:0|0:0|0:0,0:0:0:0:
285,102,50800,6,0,P|296:167|290:202,1,89.999990463257,4|8,0:0|0:0,0:0:0:0:
242,264,51439,1,2,0:0:0:0:
119,207,51917,2,0,P|108:272|114:307,1,89.999990463257,2|2,0:0|0:0,0:0:0:0:
136,332,52396,2,0,L|234:344,2,89.999990463257,8|0|8,0:0|0:0|0:0,0:0:0:0:
50,360,53354,6,0,P|31:335|17:266,1,89.999990463257,6|10,0:0|0:0,0:0:0:0:
34,238,53832,2,0,P|42:202|19:91,1,134.999985694885,0|8,0:0|0:0,0:0:0:0:
4,66,54471,5,4,0:0:0:0:
138,53,54949,2,0,L|196:39,2,44.9999952316285,8|8|8,0:0|0:0|0:0,0:0:0:0:
186,129,55588,1,8,0:0:0:0:
240,200,55907,6,0,P|250:248|254:304,1,89.999990463257,6|10,0:0|0:0,0:0:0:0:
333,330,56545,2,0,P|337:285|346:241,1,89.999990463257,10|10,0:0|0:0,0:0:0:0:
406,173,57183,2,0,L|501:159,2,89.999990463257,10|10|10,0:0|0:0|0:0,0:0:0:0:
317,153,58141,1,10,0:0:0:0:
252,89,58460,6,0,P|246:53|245:-4,2,89.999990463257,10|10|10,0:0|0:0|0:0,0:0:0:0:
317,153,59417,1,10,0:0:0:0:
230,178,59737,2,0,P|151:190|86:111,1,179.999980926514,10|4,0:0|0:3,0:0:0:0:
177,104,60694,6,0,L|106:269,1,179.999980926514,4|0,0:0|0:0,0:0:0:0:
53,342,61651,2,0,P|124:317|194:324,1,134.999985694885,8|0,0:0|0:0,0:0:0:0:
273,353,62449,1,8,0:0:0:0:
273,353,62609,2,0,P|317:346|354:321,1,89.999990463257,0|8,0:0|0:0,0:0:0:0:
399,244,63247,1,0,0:0:0:0:
341,172,63566,6,0,P|332:149|328:73,1,89.999990463257,4|8,0:0|0:0,0:0:0:0:
354,49,64045,2,0,L|457:37,1,89.999990463257,4|4,0:0|0:3,0:0:0:0:
484,56,64524,1,4,0:0:0:0:
176,126,65641,6,0,L|119:120,2,44.9999952316285,8|8|8,0:0|0:0|0:0,0:0:0:0:
215,147,66120,6,0,P|242:203|243:243,1,89.999990463257,4|8,0:0|0:0,0:0:0:0:
183,296,66758,2,0,L|73:301,1,89.999990463257,0|8,0:0|0:0,0:0:0:0:
53,322,67237,2,0,P|34:287|21:176,1,134.999985694885,4|10,0:0|0:0,0:0:0:0:
59,113,68034,2,0,P|77:84|94:29,1,89.999990463257,2|10,0:0|0:0,0:0:0:0:
182,45,68673,6,0,P|225:29|285:22,2,89.999990463257,4|8|0,0:0|0:0|0:0,0:0:0:0:
147,128,69630,1,8,0:0:0:0:
147,128,69790,2,0,P|161:163|171:264,1,134.999985694885,6|8,0:0|0:0,0:0:0:0:
148,297,70428,2,0,P|197:271|278:261,1,134.999985694885,2|10,0:0|0:0,0:0:0:0:
363,287,71226,6,0,P|407:292|451:285,1,89.999990463257,4|8,0:0|0:0,0:0:0:0:
406,206,71864,2,0,P|397:160|398:114,1,89.999990463257,0|8,0:0|0:0,0:0:0:0:
423,80,72343,2,0,P|348:93|276:84,1,134.999985694885,4|10,0:0|0:0,0:0:0:0:
200,68,73141,2,0,P|163:64|108:70,1,89.999990463257,2|10,0:0|0:0,0:0:0:0:
45,131,73779,6,0,L|16:226,2,89.999990463257,4|8|0,0:0|0:0|0:0,0:0:0:0:
137,155,74737,1,8,0:0:0:0:
137,155,74896,2,0,P|177:170|271:159,1,134.999985694885,6|8,0:0|0:0,0:0:0:0:
299,128,75534,2,0,P|363:109|429:122,1,134.999985694885,6|10,0:0|0:0,0:0:0:0:
461,206,76332,6,0,L|447:300,1,89.999990463257,4|8,0:0|0:0,0:0:0:0:
394,367,76971,2,0,P|366:328|358:279,1,89.999990463257,0|8,0:0|0:0,0:0:0:0:
362,242,77449,2,0,P|313:260|226:244,1,134.999985694885,4|10,0:0|0:0,0:0:0:0:
160,193,78247,2,0,L|170:103,1,89.999990463257,2|10,0:0|0:0,0:0:0:0:
241,48,78886,6,0,P|256:88|251:138,2,89.999990463257,4|8|0,0:0|0:0|0:0,0:0:0:0:
156,17,79843,1,8,0:0:0:0:
156,17,80003,2,0,P|87:50|66:109,1,134.999985694885,6|8,0:0|0:0,0:0:0:0:
76,145,80641,2,0,P|87:210|63:275,1,134.999985694885,2|10,0:0|0:0,0:0:0:0:
13,348,81439,6,0,P|55:361|107:354,1,89.999990463257,4|8,0:0|0:0,0:0:0:0:
178,315,82077,2,0,P|222:310|265:323,1,89.999990463257,0|8,0:0|0:0,0:0:0:0:
301,350,82556,2,0,P|344:335|385:247,1,134.999985694885,4|10,0:0|0:0,0:0:0:0:
354,175,83354,2,0,P|344:134|357:76,1,89.999990463257,2|10,0:0|0:0,0:0:0:0:
419,27,83992,6,0,L|521:20,2,89.999990463257,4|8|0,0:0|0:0|0:0,0:0:0:0:
332,2,84949,1,8,0:0:0:0:
260,57,85269,2,0,B|215:70|215:70|171:57|171:57|139:88|134:137,1,179.999980926514,8|8,0:0|0:3,0:0:0:0:
140,224,86217,1,8,0:3:0:0:
209,277,86527,5,4,0:0:0:0:
393,264,87183,1,8,0:0:0:0:
479,149,87661,2,0,P|388:157|257:107,1,224.999976158142,2|8,0:0|0:0,0:0:0:0:
105,27,89097,6,0,P|120:65|105:216,1,179.999980926514,4|8,0:0|0:0,0:0:0:0:
127,335,90214,2,0,P|193:288|231:149,1,224.999976158142,2|8,0:0|0:0,0:0:0:0:
215,112,91172,2,0,L|196:66,2,44.9999952316285,8|8|4,0:0|0:3|0:3,0:0:0:0:
259,110,91650,6,0,P|292:101|359:103,1,89.999990463257,4|0,0:0|0:0,0:0:0:0:
429,139,92289,2,0,L|447:237,1,89.999990463257,8|0,0:0|0:0,0:0:0:0:
472,262,92767,2,0,P|403:248|332:268,1,134.999985694885,2|0,0:0|0:0,0:0:0:0:
266,313,93565,2,0,P|191:329|167:328,1,89.999990463257,8|0,0:0|0:0,0:0:0:0:
91,304,94203,6,0,P|72:259|76:124,1,179.999980926514,4|8,0:0|0:0,0:0:0:0:
131,7,95321,2,0,P|203:87|192:206,1,224.999976158142,2|8,0:0|0:0,0:0:0:0:
175,238,96278,2,0,L|123:244,2,44.9999952316285,8|8|4,0:0|3:3|3:3,0:0:0:0:
218,248,96757,6,0,P|268:278|287:323,1,89.999990463257,4|0,0:0|0:0,0:0:0:0:
348,365,97395,2,0,P|401:367|442:349,1,89.999990463257,8|0,0:0|0:0,0:0:0:0:
467,322,97874,2,0,P|475:275|465:179,1,134.999985694885,2|0,0:0|0:0,0:0:0:0:
405,123,98672,2,0,P|389:99|376:37,1,89.999990463257,8|0,0:0|0:0,0:0:0:0:
289,16,99310,6,0,P|225:63|113:62,1,179.999980926514,4|8,0:0|0:0,0:0:0:0:
3,13,100427,2,0,P|42:77|70:237,1,224.999976158142,2|8,0:0|0:0,0:0:0:0:
39,307,101544,1,8,0:0:0:0:
128,295,101863,6,0,P|159:291|229:293,1,89.999990463257,4|0,0:0|0:0,0:0:0:0:
305,313,102501,2,0,P|349:314|394:309,1,89.999990463257,10|0,0:0|0:0,0:0:0:0:
433,332,102980,2,0,P|455:293|460:190,1,134.999985694885,0|2,0:0|0:0,0:0:0:0:
413,133,103778,6,0,L|324:124,1,89.999990463257,10|14,0:0|0:0,0:0:0:0:
237,150,104416,2,0,B|186:151|186:151|101:129,2,134.999985694885,10|10|10,0:0|0:0|0:0,0:0:0:0:
306,207,105693,6,0,P|315:242|319:303,1,89.999990463257,8|4,0:0|0:0,0:0:0:0:
338,336,106172,2,0,P|299:337|246:354,1,89.999990463257,8|4,0:0|0:0,0:0:0:0:
207,363,106650,2,0,P|190:362|151:349,1,44.9999952316285,8|4,0:0|0:1,0:0:0:0:
256,192,106890,12,0,112076,0:0:0:0:
