osu file format v14

[General]
AudioFilename: Flash Keeper.mp3
AudioLeadIn: 0
PreviewTime: 65481
Countdown: 0
SampleSet: Soft
StackLeniency: 0.5
Mode: 0
LetterboxInBreaks: 0
WidescreenStoryboard: 0

[Editor]
Bookmarks: 26271,35493,53368,55958,60709,66136,84949,85128,86565,96768,101981,104427,106821,125986,128539,149048,154235,159342,170992,173466,188364,189666,191262,206583,211451
DistanceSpacing: 1.1
BeatDivisor: 4
GridSize: 32
TimelineZoom: 2.999999

[Metadata]
Title:Flash Keeper
TitleUnicode:フラッシュキーパー
Artist:nano.RIPE
ArtistUnicode:nano.RIPE
Creator:Milan-
Version:Insane
Source:
Tags:nanoripe Hoshi no Yoru no Myaku no Oto no 星の夜の脈の音の
BeatmapID:924159
BeatmapSetID:152572

[Difficulty]
HPDrainRate:7
CircleSize:4.3
OverallDifficulty:8
ApproachRate:9
SliderMultiplier:1.59999990463257
SliderTickRate:1

[Events]
//Background and Video events
0,0,"hot.jpg",0,0
//Break Periods
//Storyboard Layer 0 (Background)
//Storyboard Layer 1 (Fail)
//Storyboard Layer 2 (Pass)
//Storyboard Layer 3 (Foreground)
//Storyboard Sound Samples

[TimingPoints]
25269,319.148936170213,4,2,1,68,1,0
35481,-166.666666666667,4,2,1,40,0,0
53354,-125,4,2,1,45,0,0
54949,-125,4,2,1,48,0,0
55907,-100,4,2,1,55,0,0
60694,-166.666666666667,4,2,1,50,0,0
61332,-125,4,2,1,50,0,0
66120,-100,4,2,1,68,0,1
69790,-90.9090909090909,4,2,1,68,0,1
70907,-100,4,2,1,68,0,1
74896,-90.9090909090909,4,2,1,68,0,1
76013,-100,4,2,1,68,0,1
80003,-90.9090909090909,4,2,1,68,0,1
81120,-100,4,2,1,68,0,1
85907,310.077519379845,4,2,1,68,1,1
86527,319.148936170213,4,2,1,50,1,0
86527,-125,4,2,1,50,0,0
87183,319.148936170213,4,2,1,50,1,0
87183,-125,4,2,1,50,0,0
87821,319.148936170213,4,2,1,50,1,0
87821,-125,4,2,1,50,0,0
101863,-125,4,2,1,53,0,0
103778,-125,4,2,1,55,0,0
104416,-125,4,2,1,55,0,0
104895,-125,4,2,1,55,0,0
105693,-100,4,3,1,53,0,0
106650,-100,4,2,1,53,0,0
112076,-100,4,2,1,5,0,0

[Colours]
Combo1 : 219,77,101
Combo2 : 198,204,149
Combo3 : 118,108,236
Combo4 : 105,209,159

[HitObjects]
88,229,25269,6,0,P|47:162|64:86,1,159.999990463257,4|8,0:0|0:0,0:0:0:0:
209,131,25747,1,0,0:0:0:0:
209,131,25907,2,0,P|172:145|132:148,1,79.9999952316285
235,47,26226,1,8,0:0:0:0:
276,187,26386,6,0,P|329:206|391:196,1,119.999992847443,4|0,0:0|0:0,0:0:0:0:
403,187,26705,1,0,0:0:0:0:
340,117,26864,1,8,0:0:0:0:
266,275,27024,2,0,P|344:290|422:275,1,159.999990463257,4|0,0:0|0:0,0:0:0:0:
496,227,27503,1,8,0:0:0:0:
512,382,27662,1,8,0:3:0:0:
512,382,27742,1,0,0:0:0:0:
512,382,27822,6,0,P|442:369|412:372,1,79.9999952316285,4|0,0:0|0:0,0:0:0:0:
345,212,28141,2,0,P|363:263|368:301,1,79.9999952316285,8|0,0:0|0:0,0:0:0:0:
192,222,28460,1,0,0:0:0:0:
266,275,28620,1,0,0:0:0:0:
186,311,28779,1,8,0:0:0:0:
272,188,28939,6,0,P|277:132|263:53,1,119.999992847443,4|0,0:0|0:0,0:0:0:0:
255,62,29258,1,0,0:0:0:0:
357,124,29417,1,8,0:0:0:0:
192,132,29577,2,0,P|132:136|27:112,1,159.999990463257,4|0,0:0|0:0,0:0:0:0:
87,44,30056,1,8,0:0:0:0:
58,214,30215,1,8,0:3:0:0:
58,214,30295,1,0,0:0:0:0:
58,214,30375,6,0,P|54:283|72:384,1,159.999990463257,4|8,0:0|0:0,0:0:0:0:
148,334,30854,1,0,0:0:0:0:
148,334,31013,2,0,P|182:319|227:315,1,79.9999952316285
144,241,31332,1,8,0:0:0:0:
235,321,31492,6,0,P|290:323|358:285,1,119.999992847443,4|0,0:0|0:0,0:0:0:0:
354,281,31811,1,0,0:0:0:0:
277,237,31971,1,8,0:0:0:0:
425,352,32130,2,0,P|452:282|417:203,1,159.999990463257,4|0,0:0|0:0,0:0:0:0:
277,237,32609,1,8,0:0:0:0:
354,281,32769,1,0,0:0:0:0:
293,147,32928,6,0,L|298:99,1,39.9999976158142,2|0,0:3|0:0,0:0:0:0:
202,263,33407,6,0,L|197:215,1,39.9999976158142,2|0,0:3|0:0,0:0:0:0:
277,343,33886,5,6,0:2:0:0:
256,192,33965,12,2,35162,0:3:0:0:
322,67,35481,6,0,P|276:54|229:62,1,95.9999913482669,4|8,0:0|0:0,0:0:0:0:
160,109,35960,1,0,0:0:0:0:
234,145,36120,1,2,0:0:0:0:
243,155,36598,5,2,0:0:0:0:
251,163,36917,5,2,0:0:0:0:
171,259,37077,2,0,P|217:246|265:243,1,95.9999913482669,8|0,0:0|0:0,0:0:0:0:
358,294,37556,1,0,0:0:0:0:
338,215,37715,2,0,P|339:197|350:165,1,47.9999956741335,8|0,0:0|0:0,0:0:0:0:
435,42,38034,5,4,0:0:0:0:
444,123,38194,1,0,0:0:0:0:
368,90,38354,2,0,P|358:71|355:30,1,47.9999956741335,8|0,0:0|0:0,0:0:0:0:
348,168,38673,1,2,0:0:0:0:
332,168,39151,5,2,0:0:0:0:
321,168,39471,5,2,0:0:0:0:
235,130,39630,2,0,P|240:154|240:178,1,47.9999956741335,8|0,0:0|0:0,0:0:0:0:
162,95,39949,2,0,P|157:119|157:143,1,47.9999956741335,2|0,0:0|0:0,0:0:0:0:
77,133,40269,2,0,P|81:156|82:180,1,47.9999956741335,10|0,0:0|0:0,0:0:0:0:
7,90,40588,5,4,0:0:0:0:
159,217,40907,2,0,P|150:234|118:260,1,47.9999956741335,8|0,0:0|0:0,0:0:0:0:
49,267,41226,2,0,P|96:262|139:280,1,95.9999913482669,2|0,0:0|0:0,0:0:0:0:
199,336,41705,1,2,0:0:0:0:
206,345,42024,5,2,0:0:0:0:
277,306,42183,2,0,P|296:258|295:209,1,95.9999913482669,8|0,0:0|0:0,0:0:0:0:
212,114,42662,1,0,0:0:0:0:
172,185,42822,2,0,P|168:221|170:243,1,47.9999956741335,8|0,0:0|0:0,0:0:0:0:
250,183,43141,5,4,0:0:0:0:
212,114,43300,1,0,0:0:0:0:
130,114,43460,2,0,P|103:115|83:120,1,47.9999956741335,8|0,0:0|0:0,0:0:0:0:
17,169,43779,1,2,0:0:0:0:
26,181,44258,5,2,0:0:0:0:
34,190,44577,5,2,0:0:0:0:
105,268,44737,2,0,P|82:271|58:266,1,47.9999956741335,8|0,0:0|0:0,0:0:0:0:
141,192,45056,1,2,0:0:0:0:
184,260,45215,1,0,0:0:0:0:
153,335,45375,2,0,P|148:369|151:396,1,47.9999956741335,10|0,0:0|0:0,0:0:0:0:
184,260,45694,6,0,P|224:237|292:233,1,95.9999913482669,4|8,0:0|0:0,0:0:0:0:
350,255,46173,1,0,0:0:0:0:
335,174,46332,1,2,0:0:0:0:
346,165,46811,5,2,0:0:0:0:
355,158,47130,5,2,0:0:0:0:
342,77,47290,1,8,0:0:0:0:
279,128,47449,2,0,P|241:132|183:115,1,95.9999913482669
94,46,47928,2,0,P|102:68|107:92,1,47.9999956741335,8|0,0:0|0:0,0:0:0:0:
33,199,48247,5,4,0:0:0:0:
111,176,48407,1,0,0:0:0:0:
180,217,48566,2,0,P|206:224|236:226,1,47.9999956741335,8|0,0:0|0:0,0:0:0:0:
185,136,48886,1,2,0:0:0:0:
190,123,49364,5,2,0:0:0:0:
194,113,49683,5,2,0:0:0:0:
261,66,49843,2,0,P|290:66|316:69,1,47.9999956741335,8|0,0:0|0:0,0:0:0:0:
374,136,50162,2,0,P|345:138|319:143,1,47.9999956741335,2|0,0:0|0:0,0:0:0:0:
258,207,50481,2,0,P|293:215|309:222,1,47.9999956741335,10|0,0:0|0:0,0:0:0:0:
396,318,50800,5,4,0:0:0:0:
396,318,51120,2,0,P|373:326|349:330,1,47.9999956741335,8|0,0:0|0:0,0:0:0:0:
268,322,51439,1,2,0:0:0:0:
256,315,51917,5,2,0:0:0:0:
245,309,52237,5,2,0:0:0:0:
166,222,52396,2,0,P|171:245|173:269,1,47.9999956741335,8|0,0:0|0:0,0:0:0:0:
93,309,52715,2,0,P|88:332|86:356,1,47.9999956741335
38,238,53034,2,0,P|35:206|36:187,1,47.9999956741335,8|0,0:0|0:0,0:0:0:0:
56,49,53354,5,6,0:0:0:0:
100,118,53513,1,0,0:0:0:0:
181,91,53673,2,0,P|194:66|201:16,1,63.9999961853028,10|0,0:0|0:0,0:0:0:0:
234,155,53992,1,2,0:0:0:0:
367,121,54151,1,0,0:0:0:0:
245,159,54311,1,8,0:0:0:0:
415,189,54471,6,0,P|422:124|417:61,1,127.999992370606,4|0,0:0|0:0,0:0:0:0:
297,76,54949,1,8,0:0:0:0:
425,57,55109,1,8,0:0:0:0:
273,2,55269,1,8,0:0:0:0:
245,159,55428,1,8,0:0:0:0:
251,169,55508,1,8,0:0:0:0:
258,179,55588,5,8,0:0:0:0:
273,162,55667,1,8,0:0:0:0:
276,139,55747,1,8,0:0:0:0:
270,117,55827,1,8,0:0:0:0:
246,101,55907,6,0,L|157:109,1,79.9999952316285,6|0,0:0|0:0,0:0:0:0:
80,184,56226,2,0,L|0:176,1,79.9999952316285,10|0,0:0|0:0,0:0:0:0:
258,120,56545,6,0,L|169:128,1,79.9999952316285,10|0,0:0|0:0,0:0:0:0:
92,203,56864,2,0,L|12:195,1,79.9999952316285,10|0,0:0|0:0,0:0:0:0:
88,9,57183,5,10,0:0:0:0:
102,95,57343,1,0,0:0:0:0:
248,86,57503,5,10,0:0:0:0:
234,172,57663,1,0,0:0:0:0:
118,181,57822,5,10,0:0:0:0:
132,267,57982,1,0,0:0:0:0:
215,258,58141,5,10,0:0:0:0:
201,344,58301,1,0,0:0:0:0:
155,194,58460,6,0,L|144:115,1,79.9999952316285,10|0,0:0|0:0,0:0:0:0:
310,204,58779,2,0,L|292:288,1,79.9999952316285,10|0,0:0|0:0,0:0:0:0:
76,183,59098,6,0,L|65:104,1,79.9999952316285,10|0,0:0|0:0,0:0:0:0:
234,172,59417,2,0,L|216:256,1,79.9999952316285,10|0,0:0|0:0,0:0:0:0:
107,345,59737,5,10,0:0:0:0:
95,258,59896,1,0,0:0:0:0:
245,199,60056,5,10,0:0:0:0:
222,284,60215,1,0,0:0:0:0:
81,172,60375,5,4,0:3:0:0:
295,267,60694,6,0,P|321:180|258:113,1,191.999982696534,4|0,0:0|0:0,0:0:0:0:
128,217,61651,6,0,P|189:229|244:199,1,127.999992370606,8|0,0:0|0:0,0:0:0:0:
177,148,62130,2,0,P|146:93|159:31,1,127.999992370606,0|8,0:0|0:0,0:0:0:0:
226,81,62609,2,0,P|171:111|109:98,1,127.999992370606,0|8,0:0|0:0,0:0:0:0:
277,19,63247,1,0,0:0:0:0:
110,98,63566,6,0,P|171:110|215:155,1,127.999992370606,4|8,0:0|0:0,0:0:0:0:
96,105,64045,6,0,P|147:68|210:70,1,127.999992370606,4|4,0:0|0:3,0:0:0:0:
82,112,64524,5,4,0:0:0:0:
256,192,64604,12,0,65481,0:0:0:0:
305,270,65641,5,10,0:0:0:0:
261,98,65800,1,8,0:0:0:0:
233,198,65960,1,8,0:0:0:0:
363,108,66120,6,0,P|417:98|477:126,1,119.999992847443,4|0,0:0|0:0,0:0:0:0:
478,135,66439,2,0,P|451:163|414:178,1,79.9999952316285,8|0,0:0|0:0,0:0:0:0:
261,98,66758,1,0,0:0:0:0:
304,173,66917,1,0,0:0:0:0:
215,177,67077,1,8,0:0:0:0:
354,97,67237,6,0,P|335:184|339:266,1,159.999990463257,4|0,0:0|0:0,0:0:0:0:
427,328,67715,2,0,P|456:322|506:322,1,79.9999952316285,10|0,0:0|0:0,0:0:0:0:
337,254,68034,2,0,P|364:243|413:234,1,79.9999952316285,2|0,0:0|0:0,0:0:0:0:
255,187,68354,2,0,P|286:165|371:143,1,119.999992847443,10|0,0:0|0:0,0:0:0:0:
374,149,68673,6,0,P|381:107|374:65,1,79.9999952316285,4|0,0:0|0:0,0:0:0:0:
308,13,68992,1,8,0:0:0:0:
262,87,69151,2,0,P|187:118|114:87,1,159.999990463257
189,39,69630,1,8,0:0:0:0:
242,189,69790,6,0,B|253:231|253:231|237:264|237:264|262:313|212:371,1,175.999994880676,6|0,0:0|0:0,0:0:0:0:
328,259,70269,1,8,0:0:0:0:
166,301,70428,2,0,B|61:264|88:329|-4:289,1,175.999994880676,2|0,0:0|0:0,0:0:0:0:
7,112,70907,2,0,P|43:158|46:218,1,119.999992847443,10|0,0:0|0:0,0:0:0:0:
37,227,71226,6,0,P|67:202|106:191,1,79.9999952316285,4|0,0:0|0:0,0:0:0:0:
221,301,71545,2,0,P|182:290|152:266,1,79.9999952316285,8|0,0:0|0:0,0:0:0:0:
257,215,71864,2,0,P|268:291|265:398,1,159.999990463257,0|8,0:0|0:0,0:0:0:0:
95,350,72343,6,0,P|94:270|105:190,1,159.999990463257,4|0,0:0|0:0,0:0:0:0:
154,37,72822,2,0,P|158:77|153:117,1,79.9999952316285,10|0,0:0|0:0,0:0:0:0:
32,220,73141,2,0,P|66:199|105:191,1,79.9999952316285,2|0,0:0|0:0,0:0:0:0:
278,264,73460,2,0,P|222:246|193:196,1,119.999992847443,10|0,0:0|0:0,0:0:0:0:
199,186,73779,6,0,P|230:256|195:325,1,159.999990463257,4|8,0:0|0:0,0:0:0:0:
109,348,74258,2,0,P|70:343|30:341,1,79.9999952316285
133,264,74577,1,0,0:0:0:0:
195,326,74737,1,8,0:0:0:0:
73,205,74896,6,0,B|61:175|65:153|65:153|110:100|79:20,1,175.999994880676,6|0,0:0|0:0,0:0:0:0:
6,84,75375,1,8,0:0:0:0:
160,156,75534,2,0,P|220:165|339:146,1,175.999994880676,6|0,0:0|0:0,0:0:0:0:
434,103,76013,2,0,P|420:141|415:181,1,79.9999952316285,10|0,0:0|0:0,0:0:0:0:
488,277,76332,6,0,P|434:262|321:283,1,159.999990463257,4|8,0:0|0:0,0:0:0:0:
254,318,76811,1,0,0:0:0:0:
141,223,76971,2,0,P|127:185|122:146,1,79.9999952316285
228,234,77290,1,8,0:0:0:0:
70,269,77449,6,0,P|53:233|39:106,1,159.999990463257,4|0,0:0|0:0,0:0:0:0:
135,0,77928,2,0,P|122:37|117:77,1,79.9999952316285,10|0,0:0|0:0,0:0:0:0:
157,164,78247,1,2,0:0:0:0:
113,87,78407,1,0,0:0:0:0:
227,62,78566,2,0,P|243:101|246:139,1,79.9999952316285,10|0,0:0|0:0,0:0:0:0:
355,211,78886,6,0,P|421:187|525:188,1,159.999990463257,4|8,0:0|0:0,0:0:0:0:
483,314,79364,2,0,P|444:304|410:284,1,79.9999952316285
355,211,79683,1,0,0:0:0:0:
327,294,79843,1,8,0:0:0:0:
442,206,80003,6,0,P|455:119|413:42,1,175.999994880676,6|0,0:0|0:0,0:0:0:0:
509,27,80481,1,8,0:0:0:0:
365,135,80641,2,0,P|278:141|196:109,1,175.999994880676,2|0,0:0|0:0,0:0:0:0:
102,46,81120,2,0,P|109:86|110:126,1,79.9999952316285,10|0,0:0|0:0,0:0:0:0:
45,235,81439,6,0,P|122:203|202:210,1,159.999990463257,4|8,0:0|0:0,0:0:0:0:
273,251,81917,1,0,0:0:0:0:
270,162,82077,2,0,P|265:123|250:75,1,79.9999952316285
196,208,82396,1,8,0:0:0:0:
345,203,82556,6,0,P|413:201|507:147,1,159.999990463257,4|0,0:0|0:0,0:0:0:0:
419,28,83034,2,0,P|403:81|398:139,1,79.9999952316285,10|0,0:0|0:0,0:0:0:0:
298,31,83354,2,0,P|296:86|306:143,1,79.9999952316285,2|0,0:0|0:0,0:0:0:0:
182,71,83673,2,0,P|195:131|236:188,1,119.999992847443,10|0,0:0|0:0,0:0:0:0:
239,185,83992,6,0,P|197:167|76:191,1,159.999990463257,4|8,0:0|0:0,0:0:0:0:
28,249,84471,2,0,P|54:264|105:269,1,79.9999952316285
186,240,84790,1,0,0:0:0:0:
101,353,84949,1,8,0:0:0:0:
124,191,85109,1,8,0:0:0:0:
264,275,85269,6,0,P|292:275|336:264,1,53.333330154419,8|8,0:0|0:0,0:0:0:0:
388,242,85481,1,8,0:0:0:0:
388,242,85588,2,0,P|360:237|319:218,1,53.333330154419,8|8,0:0|0:0,0:0:0:0:
270,188,85800,1,8,0:0:0:0:
270,188,85907,6,0,P|296:178|333:153,1,53.333330154419,8|0,0:3|0:0,0:0:0:0:
377,114,86113,1,4,0:3:0:0:
377,114,86217,2,0,P|352:100|320:68,1,53.333330154419,8|0,0:3|0:0,0:0:0:0:
284,22,86423,1,4,0:3:0:0:
284,22,86527,6,0,P|248:43|157:40,1,127.999992370606,4|0,0:0|0:0,0:0:0:0:
0,147,87183,2,0,P|62:141|120:167,1,127.999992370606,8|0,0:0|0:0,0:0:0:0:
181,224,87661,2,0,P|206:216|259:209,1,63.9999961853028,2|0,0:0|0:0,0:0:0:0:
300,316,87980,1,0,0:0:0:0:
300,316,88140,2,0,P|268:311|237:301,1,63.9999961853028
171,217,88459,2,0,P|166:185|171:89,1,127.999992370606,8|0,0:0|0:0,0:0:0:0:
170,89,88938,1,0,0:0:0:0:
268,213,89097,6,0,P|273:149|267:85,1,127.999992370606,4|0,0:0|0:0,0:0:0:0:
216,19,89576,1,0,0:0:0:0:
177,96,89736,2,0,P|132:99|104:91,2,63.9999961853028,8|0|0,0:0|0:0|0:0,0:0:0:0:
313,148,90214,2,0,P|260:152|196:191,1,127.999992370606,2|0,0:0|0:0,0:0:0:0:
159,264,90693,2,0,P|164:295|166:327,1,63.9999961853028
113,194,91012,5,8,0:0:0:0:
161,335,91172,1,8,0:0:0:0:
78,342,91331,1,8,0:3:0:0:
7,297,91491,1,4,0:3:0:0:
113,194,91650,6,0,P|170:181|253:186,1,127.999992370606,4|0,0:0|0:0,0:0:0:0:
353,300,92289,2,0,P|289:302|226:289,1,127.999992370606,8|0,0:0|0:0,0:0:0:0:
116,181,92768,2,0,P|173:168|256:173,1,127.999992370606,2|0,0:0|0:0,0:0:0:0:
366,209,93246,1,0,0:0:0:0:
288,239,93406,1,0,0:0:0:0:
366,209,93565,2,0,P|395:172|406:86,1,127.999992370606,8|0,0:0|0:0,0:0:0:0:
234,4,94204,6,0,P|239:67|275:119,1,127.999992370606,4|0,0:0|0:0,0:0:0:0:
429,204,94842,2,0,P|399:202|355:213,1,63.9999961853028,8|0,0:0|0:0,0:0:0:0:
404,282,95161,1,0,0:0:0:0:
277,196,95321,2,0,P|290:249|271:331,1,127.999992370606,2|0,0:0|0:0,0:0:0:0:
182,218,95799,2,0,P|184:176|196:145,1,63.9999961853028
321,122,96119,5,8,0:0:0:0:
185,149,96278,1,8,0:0:0:0:
366,231,96438,1,8,3:3:0:0:
366,231,96518,1,0,3:0:0:0:
366,231,96597,1,4,3:3:0:0:
366,231,96677,1,0,3:0:0:0:
366,231,96757,5,4,0:0:0:0:
176,155,97076,1,0,0:0:0:0:
383,143,97395,2,0,P|380:112|384:80,1,63.9999961853028,8|0,0:0|0:0,0:0:0:0:
432,13,97714,1,0,0:0:0:0:
300,67,97874,2,0,P|255:69|167:46,1,127.999992370606,2|0,0:0|0:0,0:0:0:0:
31,26,98353,2,0,P|63:22|95:24,1,63.9999961853028
110,176,98672,5,8,0:0:0:0:
73,101,98831,1,0,0:0:0:0:
214,43,98991,1,0,0:0:0:0:
198,124,99150,1,0,0:0:0:0:
308,231,99310,6,0,P|372:200|430:200,1,127.999992370606,4|0,0:0|0:0,0:0:0:0:
309,341,99948,2,0,P|277:340|246:332,1,63.9999961853028,8|0,0:0|0:0,0:0:0:0:
373,284,100268,1,0,0:0:0:0:
308,231,100427,2,0,P|296:186|301:103,1,127.999992370606,2|0,0:0|0:0,0:0:0:0:
387,0,100906,1,0,0:0:0:0:
381,82,101065,1,0,0:0:0:0:
301,105,101225,2,0,P|280:104|235:90,1,63.9999961853028,8|0,0:0|0:0,0:0:0:0:
85,27,101544,2,0,P|53:29|22:40,1,63.9999961853028,8|0,0:0|0:0,0:0:0:0:
156,128,101863,6,0,P|163:64|159:1,1,127.999992370606,4|0,0:0|0:0,0:0:0:0:
90,329,102502,2,0,P|95:265|88:201,1,127.999992370606,10|0,0:0|0:0,0:0:0:0:
42,132,102980,1,0,0:0:0:0:
146,225,103140,2,0,P|113:218|83:197,1,63.9999961853028,2|0,0:0|0:0,0:0:0:0:
60,50,103459,1,2,0:0:0:0:
42,132,103619,1,0,0:0:0:0:
178,24,103778,5,10,0:0:0:0:
128,127,103938,1,0,0:0:0:0:
285,30,104097,2,0,P|314:25|369:24,1,63.9999961853028,14|0,0:0|0:0,0:0:0:0:
470,176,104415,5,10,0:0:0:0:
387,166,104575,1,0,0:0:0:0:
332,102,104735,1,0,0:0:0:0:
479,165,104896,5,10,0:0:0:0:
379,181,105055,1,0,0:0:0:0:
314,257,105215,1,0,0:0:0:0:
213,136,105374,2,0,P|226:165|233:197,1,63.9999961853028,10|0,0:0|0:0,0:0:0:0:
231,296,105693,5,8,0:0:0:0:
224,310,105773,1,0,0:0:0:0:
217,324,105852,2,0,L|172:338,1,39.9999976158142,8|0,0:0|0:0,0:0:0:0:
100,357,106013,1,4,0:0:0:0:
170,228,106172,5,8,0:0:0:0:
163,242,106252,1,0,0:0:0:0:
156,256,106331,2,0,L|111:270,1,39.9999976158142,8|0,0:0|0:0,0:0:0:0:
39,289,106492,1,4,0:0:0:0:
139,159,106651,1,8,0:0:0:0:
231,296,106810,5,4,0:1:0:0:
256,192,106890,12,0,112076,0:0:0:0:
