osu file format v14

[General]
AudioFilename: Flash Keeper.mp3
AudioLeadIn: 0
PreviewTime: 65481
Countdown: 0
SampleSet: Soft
StackLeniency: 0.7
Mode: 0
LetterboxInBreaks: 0
WidescreenStoryboard: 0

[Editor]
Bookmarks: 26271,35493,53368,55958,60709,66136,84949,85128,86565,96768,101981,104427,106821,125986,128539,149048,154235,159342,170992,173466,188364,189666,191262,206583,211451
DistanceSpacing: 1.3
BeatDivisor: 4
GridSize: 32
TimelineZoom: 2.999999

[Metadata]
Title:Flash Keeper
TitleUnicode:フラッシュキーパー
Artist:nano.RIPE
ArtistUnicode:nano.RIPE
Creator:Milan-
Version:Hard
Source:
Tags:nanoripe Hoshi no Yoru no Myaku no Oto no 星の夜の脈の音の
BeatmapID:933629
BeatmapSetID:152572

[Difficulty]
HPDrainRate:6
CircleSize:4
OverallDifficulty:6
ApproachRate:7.5
SliderMultiplier:1.29999990463257
SliderTickRate:1

[Events]
//Background and Video events
0,0,"hot.jpg",0,0
//Break Periods
//Storyboard Layer 0 (Background)
//Storyboard Layer 1 (Fail)
//Storyboard Layer 2 (Pass)
//Storyboard Layer 3 (Foreground)
//Storyboard Sound Samples

[TimingPoints]
25269,319.148936170213,4,2,1,68,1,0
35481,-166.666666666667,4,2,1,40,0,0
53354,-125,4,2,1,45,0,0
54949,-125,4,2,1,48,0,0
55907,-100,4,2,1,55,0,0
60694,-166.666666666667,4,2,1,50,0,0
61332,-125,4,2,1,50,0,0
66120,-100,4,2,1,68,0,1
69790,-90.9090909090909,4,2,1,68,0,1
70907,-100,4,2,1,68,0,1
74896,-90.9090909090909,4,2,1,68,0,1
76013,-100,4,2,1,68,0,1
80003,-90.9090909090909,4,2,1,68,0,1
81120,-100,4,2,1,68,0,1
85907,310.077519379845,4,2,1,68,1,1
86527,319.148936170213,4,2,1,50,1,0
86527,-125,4,2,1,50,0,0
87183,319.148936170213,4,2,1,50,1,0
87183,-125,4,2,1,50,0,0
87821,319.148936170213,4,2,1,50,1,0
87821,-125,4,2,1,50,0,0
101863,-125,4,2,1,53,0,0
103778,-125,4,2,1,55,0,0
104416,-125,4,2,1,55,0,0
104895,-125,4,2,1,55,0,0
105693,-100,4,3,1,53,0,0
106650,-100,4,2,1,53,0,0
112076,-100,4,2,1,5,0,0

[Colours]
Combo1 : 219,77,101
Combo2 : 198,204,149
Combo3 : 118,108,236
Combo4 : 105,209,159

[HitObjects]
399,170,25269,6,0,L|410:318,2,129.999990463257,4|8|0,0:0|0:0|0:0,0:0:0:0:
355,98,26066,1,0,0:0:0:0:
317,173,26226,1,8,0:0:0:0:
236,88,26386,6,0,P|182:71|97:85,1,129.999990463257,4|0,0:0|0:0,0:0:0:0:
48,136,26864,1,8,0:0:0:0:
128,163,27024,2,0,P|147:213|145:305,1,129.999990463257,4|0,0:0|0:0,0:0:0:0:
93,353,27503,2,0,P|71:353|15:340,1,64.9999952316285,8|8,0:0|0:3,0:0:0:0:
148,288,27822,6,0,P|195:280|282:289,1,129.999990463257,4|8,0:0|0:0,0:0:0:0:
436,340,28460,2,0,P|409:357|377:367,2,64.9999952316285,0|0|8,0:0|0:0|0:0,0:0:0:0:
477,227,28939,6,0,L|463:77,1,129.999990463257,4|0,0:0|0:0,0:0:0:0:
413,30,29417,1,8,0:0:0:0:
381,108,29577,2,0,L|393:237,1,129.999990463257,4|0,0:0|0:0,0:0:0:0:
325,293,30056,2,0,P|313:262|308:231,1,64.9999952316285,8|8,0:0|0:3,0:0:0:0:
392,343,30375,6,0,P|322:332|248:338,2,129.999990463257,4|8|0,0:0|0:0|0:0,0:0:0:0:
469,309,31173,2,0,P|473:337|471:373,1,64.9999952316285,0|8,0:0|0:0,0:0:0:0:
401,258,31492,6,0,P|396:192|398:122,1,129.999990463257,4|0,0:0|0:0,0:0:0:0:
448,60,31971,1,8,0:0:0:0:
364,53,32130,2,0,P|328:51|224:61,1,129.999990463257,4|0,0:0|0:0,0:0:0:0:
157,94,32609,2,0,P|106:102|68:99,1,64.9999952316285,8|0,0:0|0:0,0:0:0:0:
167,14,32928,5,2,0:3:0:0:
263,248,33407,1,2,0:3:0:0:
234,59,33886,5,6,0:2:0:0:
256,192,33965,12,2,35162,0:3:0:0:
193,197,35481,6,0,P|165:191|114:185,1,77.9999918975834,4|8,0:0|0:0,0:0:0:0:
40,207,35960,2,0,L|52:262,1,38.9999959487917,0|2,0:0|0:0,0:0:0:0:
244,119,36598,2,0,P|250:83|278:42,1,77.9999918975834,2|2,0:0|0:0,0:0:0:0:
323,108,37077,2,0,P|359:107|407:85,1,77.9999918975834,8|0,0:0|0:0,0:0:0:0:
470,63,37556,2,0,P|491:67|511:76,2,38.9999959487917,0|8|0,0:0|0:0|0:0,0:0:0:0:
445,156,38034,6,0,L|434:210,1,38.9999959487917,4|0,0:0|0:0,0:0:0:0:
406,266,38354,2,0,P|367:245|324:241,1,77.9999918975834,8|2,0:0|0:0,0:0:0:0:
120,334,39151,2,0,P|158:327|191:308,1,77.9999918975834,2|2,0:0|0:0,0:0:0:0:
210,232,39630,2,0,L|201:147,1,77.9999918975834,8|2,0:0|0:0,0:0:0:0:
208,76,40109,2,0,L|199:36,2,38.9999959487917,0|10|0,0:0|0:0|0:0,0:0:0:0:
119,62,40588,6,0,P|118:99|103:144,2,77.9999918975834,4|8|2,0:0|0:0|0:0,0:0:0:0:
0,191,41705,2,0,P|6:229|26:272,1,77.9999918975834,2|2,0:0|0:0,0:0:0:0:
93,295,42183,2,0,L|177:285,1,77.9999918975834,8|0,0:0|0:0,0:0:0:0:
240,251,42662,1,0,0:0:0:0:
289,311,42822,2,0,L|277:364,1,38.9999959487917,8|0,0:0|0:0,0:0:0:0:
240,251,43141,6,0,L|231:212,2,38.9999959487917,4|0|8,0:0|0:0|0:0,0:0:0:0:
310,208,43620,2,0,L|318:169,1,38.9999959487917,0|2,0:0|0:0,0:0:0:0:
138,19,44258,2,0,P|153:69|179:102,1,77.9999918975834,2|2,0:0|0:0,0:0:0:0:
251,105,44737,2,0,L|345:92,1,77.9999918975834,8|2,0:0|0:0,0:0:0:0:
406,141,45215,2,0,L|458:127,2,38.9999959487917,0|10|0,0:0|0:0|0:0,0:0:0:0:
440,226,45694,6,0,L|362:215,1,77.9999918975834,4|8,0:0|0:0,0:0:0:0:
305,268,46173,2,0,P|314:288|318:304,1,38.9999959487917,0|2,0:0|0:0,0:0:0:0:
132,172,46811,2,0,P|164:216|178:249,1,77.9999918975834,2|2,0:0|0:0,0:0:0:0:
139,311,47290,1,8,0:0:0:0:
139,311,47449,2,0,P|98:315|52:315,1,77.9999918975834,0|0,0:0|0:0,0:0:0:0:
21,244,47928,2,0,L|64:235,1,38.9999959487917,8|0,0:0|0:0,0:0:0:0:
132,172,48247,6,0,L|89:163,2,38.9999959487917,4|0|8,0:0|0:0|0:0,0:0:0:0:
173,81,48726,2,0,L|134:88,1,38.9999959487917,0|2,0:0|0:0,0:0:0:0:
368,77,49364,2,0,P|332:113|319:144,1,77.9999918975834,2|2,0:0|0:0,0:0:0:0:
310,214,49843,2,0,P|291:248|262:274,1,77.9999918975834,8|2,0:0|0:0,0:0:0:0:
184,272,50322,2,0,L|173:232,2,38.9999959487917,0|10|0,0:0|0:0|0:0,0:0:0:0:
188,349,50800,5,4,0:0:0:0:
70,245,51120,2,0,L|80:282,2,38.9999959487917,8|0|2,0:0|0:0|0:0,0:0:0:0:
177,37,51917,2,0,P|186:93|205:120,1,77.9999918975834,2|2,0:0|0:0,0:0:0:0:
271,134,52396,1,8,0:0:0:0:
345,109,52556,2,0,P|410:101|434:101,1,77.9999918975834,0|0,0:0|0:0,0:0:0:0:
500,99,53034,2,0,L|493:60,1,38.9999959487917,8|0,0:0|0:0,0:0:0:0:
458,175,53354,6,0,L|455:233,2,51.9999961853028,6|0|10,0:0|0:0|0:0,0:0:0:0:
366,223,53832,2,0,L|383:277,2,51.9999961853028,0|2|0,0:0|0:0|0:0,0:0:0:0:
294,180,54311,1,8,0:0:0:0:
227,224,54471,6,0,P|241:178|242:113,1,103.999992370606,4|0,0:0|0:0,0:0:0:0:
167,155,54949,2,0,P|121:159|99:157,1,51.9999961853028,8|8,0:0|0:0,0:0:0:0:
25,120,55269,2,0,P|33:154|37:185,1,51.9999961853028,8|8,0:0|0:0,0:0:0:0:
31,254,55588,2,0,L|45:283,3,25.9999980926514,8|8|8|8,0:0|0:0|0:0|0:0,0:0:0:0:
32,296,55907,6,0,P|81:284|175:292,1,129.999990463257,6|10,0:0|0:0,0:0:0:0:
230,334,56386,1,0,0:0:0:0:
283,269,56545,2,0,L|285:182,1,64.9999952316285,10|0,0:0|0:0,0:0:0:0:
364,294,56864,2,0,L|365:358,1,64.9999952316285,10|0,0:0|0:0,0:0:0:0:
402,218,57183,6,0,P|426:170|500:131,1,129.999990463257,10|10,0:0|0:0,0:0:0:0:
490,132,57662,1,0,0:0:0:0:
412,80,57822,2,0,P|403:32|403:4,1,64.9999952316285,10|0,0:0|0:0,0:0:0:0:
326,54,58141,2,0,P|288:64|247:63,1,64.9999952316285,10|0,0:0|0:0,0:0:0:0:
149,21,58460,6,0,P|118:14|11:26,1,129.999990463257,10|10,0:0|0:0,0:0:0:0:
70,91,58939,1,0,0:0:0:0:
29,164,59098,2,0,P|32:205|41:238,1,64.9999952316285,10|0,0:0|0:0,0:0:0:0:
113,161,59417,2,0,P|146:173|186:175,1,64.9999952316285,10|0,0:0|0:0,0:0:0:0:
242,86,59737,2,0,P|197:90|173:98,2,64.9999952316285,10|0|10,0:0|0:0|0:0,0:0:0:0:
312,132,60215,2,0,L|327:201,1,64.9999952316285,0|4,0:0|0:3,0:0:0:0:
325,195,60694,6,0,P|266:196|201:272,1,155.999983795167,4|0,0:0|0:0,0:0:0:0:
365,300,61651,2,0,L|478:294,1,103.999992370606,8|0,0:0|0:0,0:0:0:0:
504,219,62130,2,0,L|391:213,1,103.999992370606,0|8,0:0|0:0,0:0:0:0:
316,207,62609,1,0,0:0:0:0:
305,40,62928,1,8,0:0:0:0:
453,114,63247,1,0,0:0:0:0:
316,207,63566,6,0,P|248:218|193:199,1,103.999992370606,4|8,0:0|0:0,0:0:0:0:
285,293,64045,2,0,P|238:309|170:302,1,103.999992370606,4|4,0:0|0:3,0:0:0:0:
328,374,64524,1,4,0:0:0:0:
328,374,65641,5,8,0:0:0:0:
285,293,65800,1,8,0:0:0:0:
316,207,65960,1,8,0:0:0:0:
296,298,66120,6,0,P|247:328|163:323,2,129.999990463257,4|8|0,0:0|0:0|0:0,0:0:0:0:
316,207,66917,2,0,P|310:172|296:132,1,64.9999952316285,0|8,0:0|0:0,0:0:0:0:
226,72,67237,6,0,P|212:122|207:216,1,129.999990463257,4|0,0:0|0:0,0:0:0:0:
229,280,67715,2,0,P|161:270|81:295,1,129.999990463257,10|2,0:0|0:0,0:0:0:0:
38,340,68194,1,0,0:0:0:0:
21,256,68354,2,0,P|21:235|29:185,1,64.9999952316285,10|0,0:0|0:0,0:0:0:0:
102,99,68673,6,0,P|114:146|127:250,1,129.999990463257,4|8,0:0|0:0,0:0:0:0:
110,309,69151,2,0,P|144:275|251:248,1,129.999990463257,0|0,0:0|0:0,0:0:0:0:
295,285,69630,1,8,0:0:0:0:
322,176,69790,6,0,P|317:136|282:14,1,142.999993873596,6|0,0:0|0:0,0:0:0:0:
208,1,70269,1,8,0:0:0:0:
225,87,70428,2,0,P|179:82|74:79,1,142.999993873596,2|0,0:0|0:0,0:0:0:0:
9,120,70907,1,10,0:0:0:0:
166,181,71226,6,0,P|209:176|309:174,2,129.999990463257,4|8|0,0:0|0:0|0:0,0:0:0:0:
100,235,72024,2,0,P|113:266|119:302,1,64.9999952316285,0|8,0:0|0:0,0:0:0:0:
196,371,72343,6,0,P|209:326|272:267,1,129.999990463257,4|0,0:0|0:0,0:0:0:0:
351,273,72822,2,0,P|397:274|491:266,1,129.999990463257,10|2,0:0|0:0,0:0:0:0:
412,194,73300,1,0,0:0:0:0:
412,194,73460,2,0,P|406:172|403:126,1,64.9999952316285,10|0,0:0|0:0,0:0:0:0:
322,48,73779,6,0,P|327:97|286:180,1,129.999990463257,4|8,0:0|0:0,0:0:0:0:
213,189,74258,2,0,P|175:188|64:180,1,129.999990463257,0|0,0:0|0:0,0:0:0:0:
14,131,74737,1,8,0:0:0:0:
142,116,74896,6,0,L|152:276,1,142.999993873596,6|0,0:0|0:0,0:0:0:0:
177,346,75375,1,8,0:0:0:0:
88,336,75534,2,0,L|55:188,1,142.999993873596,6|0,0:0|0:0,0:0:0:0:
28,116,76013,1,10,0:0:0:0:
167,20,76332,6,0,P|153:83|147:148,2,129.999990463257,4|8|0,0:0|0:0|0:0,0:0:0:0:
242,58,77130,2,0,P|255:89|261:125,1,64.9999952316285,0|8,0:0|0:0,0:0:0:0:
362,148,77449,6,0,P|341:210|340:296,1,129.999990463257,4|0,0:0|0:0,0:0:0:0:
403,326,77928,2,0,P|364:317|273:331,1,129.999990463257,10|2,0:0|0:0,0:0:0:0:
200,367,78406,1,0,0:0:0:0:
200,367,78566,2,0,P|194:345|191:299,1,64.9999952316285,10|0,0:0|0:0,0:0:0:0:
94,263,78886,6,0,P|119:198|112:129,1,129.999990463257,4|8,0:0|0:0,0:0:0:0:
146,60,79364,2,0,P|142:124|167:184,1,129.999990463257,0|0,0:0|0:0,0:0:0:0:
246,214,79843,1,8,0:0:0:0:
303,138,80003,6,0,L|295:312,1,142.999993873596,6|0,0:0|0:0,0:0:0:0:
310,372,80481,1,8,0:0:0:0:
387,321,80641,2,0,L|380:178,1,142.999993873596,2|0,0:0|0:0,0:0:0:0:
373,85,81119,1,10,0:0:0:0:
197,100,81439,6,0,P|204:164|245:213,2,129.999990463257,4|8|0,0:0|0:0|0:0,0:0:0:0:
243,28,82237,2,0,P|212:18|157:21,1,64.9999952316285,0|8,0:0|0:0,0:0:0:0:
281,100,82556,6,0,P|356:87|417:40,1,129.999990463257,4|0,0:0|0:0,0:0:0:0:
469,10,83034,2,0,P|480:61|480:153,1,129.999990463257,10|2,0:0|0:0,0:0:0:0:
439,211,83513,1,0,0:0:0:0:
439,211,83673,2,0,P|409:216|364:215,1,64.9999952316285,10|0,0:0|0:0,0:0:0:0:
255,156,83992,6,0,P|243:104|244:13,1,129.999990463257,4|8,0:0|0:0,0:0:0:0:
148,7,84471,2,0,P|159:58|159:150,1,129.999990463257,0|0,0:0|0:0,0:0:0:0:
130,214,84950,1,8,0:0:0:0:
73,151,85109,1,8,0:0:0:0:
49,232,85269,6,0,L|67:296,5,43.333330154419,8|8|8|8|8|8,0:0|0:0|0:0|0:0|0:0|0:0,0:0:0:0:
25,287,85907,2,0,L|54:340,5,43.333330154419,8|0|4|8|0|4,0:3|0:0|0:3|0:3|0:0|0:3,0:0:0:0:
22,341,86527,6,0,P|67:359|132:349,1,103.999992370606,4|0,0:0|0:0,0:0:0:0:
235,268,87183,2,0,L|222:148,1,103.999992370606,8|0,0:0|0:0,0:0:0:0:
305,151,87661,2,0,L|314:40,2,103.999992370606,2|0|0,0:0|0:0|0:0,0:0:0:0:
230,82,88459,2,0,P|181:64|113:67,1,103.999992370606,8|0,0:0|0:0,0:0:0:0:
42,204,89097,6,0,P|93:203|142:185,2,103.999992370606,4|0|8,0:0|0:0|0:0,0:0:0:0:
129,63,90055,1,0,0:0:0:0:
129,63,90214,2,0,P|180:63|229:81,2,103.999992370606,2|0|0,0:0|0:0|0:0,0:0:0:0:
58,107,91012,1,8,0:0:0:0:
131,146,91172,1,8,0:0:0:0:
163,222,91331,2,0,L|154:280,1,51.9999961853028,8|4,0:3|0:3,0:0:0:0:
240,198,91650,6,0,P|297:188|365:196,1,103.999992370606,4|0,0:0|0:0,0:0:0:0:
452,316,92289,2,0,P|400:318|349:308,1,103.999992370606,8|0,0:0|0:0,0:0:0:0:
266,317,92767,2,0,P|217:312|150:330,2,103.999992370606,2|0|0,0:0|0:0|0:0,0:0:0:0:
302,242,93565,2,0,P|303:206|292:120,1,103.999992370606,8|0,0:0|0:0,0:0:0:0:
129,139,94203,6,0,P|128:103|139:17,2,103.999992370606,4|0|8,0:0|0:0|0:0,0:0:0:0:
197,291,95161,1,0,0:0:0:0:
197,291,95321,2,0,P|156:268|90:250,2,103.999992370606,2|0|0,0:0|0:0|0:0,0:0:0:0:
260,344,96118,1,8,0:0:0:0:
327,294,96278,1,8,0:0:0:0:
409,306,96438,2,0,P|441:300|474:288,1,51.9999961853028,8|4,3:3|3:3,0:0:0:0:
380,229,96757,6,0,P|384:186|366:113,1,103.999992370606,4|0,0:0|0:0,0:0:0:0:
215,71,97395,2,0,L|96:73,1,103.999992370606,8|0,0:0|0:0,0:0:0:0:
105,155,97874,2,0,L|-10:143,2,103.999992370606,2|0|0,0:0|0:0|0:0,0:0:0:0:
180,190,98672,2,0,P|186:208|194:242,2,51.9999961853028,8|0|0,0:0|0:0|0:0,0:0:0:0:
308,84,99310,6,0,P|295:140|293:205,2,103.999992370606,4|0|8,0:0|0:0|0:0,0:0:0:0:
465,137,100267,1,0,0:0:0:0:
465,137,100427,2,0,P|477:193|479:258,2,103.999992370606,2|0|0,0:0|0:0|0:0,0:0:0:0:
399,58,101225,2,0,P|385:94|379:122,1,51.9999961853028,8|0,0:0|0:0,0:0:0:0:
283,86,101544,2,0,P|290:139|297:157,1,51.9999961853028,8|0,0:0|0:0,0:0:0:0:
205,186,101863,6,0,P|228:210|299:235,1,103.999992370606,4|0,0:0|0:0,0:0:0:0:
199,97,102501,2,0,P|149:111|110:145,1,103.999992370606,10|0,0:0|0:0,0:0:0:0:
74,220,102980,2,0,L|87:332,1,103.999992370606,0|0,0:0|0:0,0:0:0:0:
85,323,103459,1,2,0:0:0:0:
205,186,103778,6,0,L|201:251,1,51.9999961853028,10|0,0:0|0:0,0:0:0:0:
196,321,104097,1,14,0:0:0:0:
323,214,104416,6,0,L|315:160,1,51.9999961853028,10|0,0:0|0:0,0:0:0:0:
361,79,104735,1,0,0:0:0:0:
361,79,104895,2,0,L|297:79,1,51.9999961853028,10|0,0:0|0:0,0:0:0:0:
226,64,105214,1,0,0:0:0:0:
226,64,105374,2,0,L|233:115,1,51.9999961853028,10|0,0:0|0:0,0:0:0:0:
197,219,105693,5,8,0:0:0:0:
280,209,105852,2,0,L|316:214,2,32.4999976158143,8|0|4,0:0|0:0|0:0,0:0:0:0:
246,287,106172,1,8,0:0:0:0:
330,291,106331,2,0,L|363:301,2,32.4999976158143,8|0|4,0:0|0:0|0:0,0:0:0:0:
282,361,106651,1,8,0:0:0:0:
197,357,106810,5,4,0:1:0:0:
256,192,106890,12,0,112076,0:0:0:0:
