osu file format v13

[General]
AudioFilename: Fault Finder.mp3
AudioLeadIn: 2000
PreviewTime: 61747
Countdown: 0
SampleSet: Soft
StackLeniency: 0.7
Mode: 0
LetterboxInBreaks: 0
WidescreenStoryboard: 0

[Editor]
Bookmarks: 21614,41825,51906,62035,82222,92327
DistanceSpacing: 1.1
BeatDivisor: 2
GridSize: 32
TimelineZoom: 1.3

[Metadata]
Title:Fault Finder
TitleUnicode:フォルトファインダー
Artist:nano.RIPE
ArtistUnicode:nano.RIPE
Creator:Milan-
Version:Easy
Source:
Tags:Kibbleru Gaia Lantis single Toumei na Sekai 透明な世界 short version
BeatmapID:558773
BeatmapSetID:241464

[Difficulty]
HPDrainRate:2
CircleSize:3
OverallDifficulty:2
ApproachRate:3
SliderMultiplier:0.8
SliderTickRate:1

[Events]
//Background and Video events
0,0,"bgggggg.jpg",0,0
//Break Periods
//Storyboard Layer 0 (Background)
//Storyboard Layer 1 (Fail)
//Storyboard Layer 2 (Pass)
//Storyboard Layer 3 (Foreground)
//Storyboard Sound Samples

[TimingPoints]
169,315.789473684211,4,2,1,50,1,0
1432,-100,4,2,1,80,0,0
21642,-100,4,2,1,50,0,0
30800,-100,4,2,1,60,0,0
31747,-100,4,2,1,50,0,0
40590,-100,4,2,1,60,0,0
41853,-100,4,2,1,65,0,0
51958,-100,4,2,1,70,0,0
60800,-100,4,2,1,75,0,0
62063,-100,4,2,1,83,0,1
82274,-100,4,2,1,55,0,0
91116,-100,4,2,1,65,0,0

[Colours]
Combo1 : 128,128,255
Combo2 : 192,192,192
Combo3 : 128,0,255
Combo4 : 0,128,128

[HitObjects]
94,244,1432,6,0,P|163:317|197:223,1,240,4|8,0:0|0:0,0:0:0:0:
109,70,3011,1,8,0:0:0:0:
193,46,3326,2,0,P|232:44|271:53,1,80,2|8,3:2|0:0,0:0:0:0:
354,86,3958,6,0,B|372:182|372:182|425:214,1,160,2|2,3:2|3:2,0:0:0:0:
421,304,4905,2,0,P|492:273|512:199,2,160,8|8|8,0:0|0:0|0:0,0:0:0:0:
333,296,6484,6,0,P|261:267|188:296,1,160,2|2,3:2|3:2,0:0:0:0:
118,350,7432,1,8,0:0:0:0:
53,290,7747,2,0,P|23:217|52:144,1,160,2|2,3:2|3:2,0:0:0:0:
106,74,8695,1,8,0:0:0:0:
187,106,9011,6,0,L|352:106,1,160,2|2,3:2|3:2,0:0:0:0:
435,106,9958,1,8,0:0:0:0:
458,190,10274,2,0,P|426:293|324:259,1,240,2|8,0:0|0:0,0:0:0:0:
303,173,11537,6,0,P|234:99|200:193,1,240,4|8,0:0|0:0,0:0:0:0:
241,363,13116,1,8,0:0:0:0:
153,371,13431,2,0,P|77:348|57:325,1,80,2|8,3:2|3:2,0:0:0:0:
54,263,14063,6,0,B|94:167|94:167|96:111,1,160,2|2,3:2|3:2,0:0:0:0:
147,38,15010,2,0,P|71:26|14:78,2,160,8|8|8,0:0|0:0|0:0,0:0:0:0:
211,101,16589,6,0,P|283:130|356:101,1,160,2|2,3:2|3:2,0:0:0:0:
426,47,17537,1,8,0:0:0:0:
491,107,17852,2,0,P|521:180|492:253,1,160,2|2,3:2|3:2,0:0:0:0:
438,323,18800,1,8,0:0:0:0:
359,283,19116,6,0,L|199:283,1,160,2|2,3:2|3:2,0:0:0:0:
110,283,20063,1,12,0:0:0:0:
66,206,20379,2,0,P|98:103|200:137,1,240,2|4,0:0|0:3,0:0:0:0:
247,211,21642,6,0,P|310:254|385:234,1,160,4|0,0:0|3:0,0:0:0:0:
464,195,22590,2,0,P|400:151|325:171,1,160,0|0,3:0|3:0,0:0:0:0:
193,287,23853,1,0,3:0:0:0:
106,268,24169,2,0,P|85:191|106:114,1,160,2|2,1:2|3:2,0:0:0:0:
193,97,25116,1,0,3:0:0:0:
477,304,26379,5,0,3:0:0:0:
400,347,26695,2,0,P|323:362|258:318,1,160,2|0,1:2|3:0,0:0:0:0:
223,237,27642,2,0,P|158:193|81:208,1,160,0|0,3:0|3:0,0:0:0:0:
150,369,28905,1,0,3:0:0:0:
238,365,29221,2,0,P|312:343|348:275,1,160,2|2,1:2|3:2,0:0:0:0:
355,186,30169,1,0,3:0:0:0:
37,37,31432,5,4,3:3:0:0:
93,103,31747,2,0,P|125:173|92:243,1,160,4|0,0:0|3:0,0:0:0:0:
40,314,32695,2,0,P|7:243|40:173,1,160,0|0,3:0|3:0,0:0:0:0:
196,90,33958,1,0,3:0:0:0:
255,154,34274,2,0,P|329:180|403:155,1,160,2|2,1:2|3:2,0:0:0:0:
470,98,35221,1,0,3:0:0:0:
470,98,36800,6,0,L|471:177,1,80,2|0,1:2|3:0,0:0:0:0:
385,199,37432,2,0,L|383:119,1,80,0|0,3:0|3:0,0:0:0:0:
296,104,38063,2,0,L|297:183,1,80,2|0,3:2|3:0,0:0:0:0:
211,205,38695,2,0,L|209:125,1,80,2|0,3:2|3:0,0:0:0:0:
123,107,39326,2,0,L|124:298,1,160,2|2,1:2|3:2,0:0:0:0:
372,355,40905,5,4,3:2:0:0:
435,293,41221,1,4,3:2:0:0:
433,204,41537,1,0,1:0:0:0:
398,123,41853,2,0,P|324:48|199:81,1,240,4|10,3:2|0:0,0:0:0:0:
79,204,43432,5,10,0:0:0:0:
77,293,43748,1,0,3:0:0:0:
140,355,44064,1,8,0:0:0:0:
227,366,44379,2,0,P|336:282|224:202,1,320,2|2,3:2|0:0,0:0:0:0:
0,66,46590,6,0,P|75:88|151:65,1,160,8|8,0:0|0:0,0:0:0:0:
227,21,47537,1,0,0:0:0:0:
299,70,47853,2,0,L|414:180,1,160,10|10,0:0|0:0,0:0:0:0:
379,352,49116,5,8,0:0:0:0:
299,314,49432,2,0,P|221:304|159:351,1,160,2|0,3:2|0:0,0:0:0:0:
77,318,50379,2,0,P|86:240|39:178,1,160,10|10,0:0|0:0,0:0:0:0:
160,50,51642,5,12,0:0:0:0:
196,130,51958,2,0,P|256:245|317:131,1,320,4|2,0:0|0:0,0:0:0:0:
352,49,53537,6,0,P|391:49|429:63,1,80,8|2,0:0|3:2,0:0:0:0:
470,141,54169,2,0,B|470:269|470:269|470:311|437:351|383:351|383:351|311:351,1,320,8|8,0:0|0:0,0:0:0:0:
183,245,56063,6,0,L|265:245,1,80,8|2,0:0|3:2,0:0:0:0:
351,244,56695,2,0,P|391:115|256:125,1,320,8|8,0:0|0:0,0:0:0:0:
154,269,58590,6,0,P|45:251|47:141,2,240,8|4|12,0:0|0:0|0:0,0:0:0:0:
235,234,60800,2,0,B|293:212|293:212|334:226|334:226|383:203,1,160,4|8,0:3|0:0,0:0:0:0:
253,83,62063,6,0,P|180:16|164:113,1,240,4|8,0:0|0:0,0:0:0:0:
207,190,63326,2,0,P|191:286|118:220,1,240,2|8,3:2|0:0,0:0:0:0:
79,141,64590,1,2,3:2:0:0:
197,376,65537,5,8,0:0:0:0:
278,339,65853,2,0,P|316:330|355:336,2,80,2|8|2,3:2|0:0|3:2,0:0:0:0:
210,282,66800,1,8,0:0:0:0:
128,249,67116,6,0,P|43:191|127:134,1,240,4|8,0:0|0:0,0:0:0:0:
207,171,68379,2,0,P|317:162|334:52,1,240,2|8,3:2|0:0,0:0:0:0:
258,97,69642,1,2,3:2:0:0:
258,361,70590,5,8,0:0:0:0:
172,379,70905,2,0,P|111:331|117:255,1,160,2|2,3:2|3:2,0:0:0:0:
179,192,71853,1,8,0:0:0:0:
245,134,72169,6,0,P|329:192|245:249,1,240,4|8,0:0|0:0,0:0:0:0:
165,212,73432,2,0,P|54:221|36:331,1,240,2|8,3:2|0:0,0:0:0:0:
115,286,74695,1,2,3:2:0:0:
369,354,75642,6,0,P|413:290|397:214,1,160,8|8,0:0|0:0,0:0:0:0:
305,63,76905,1,8,0:0:0:0:
217,68,77221,2,0,P|184:90|162:123,1,80,4|12,0:0|0:0,0:0:0:0:
144,210,77853,2,0,P|184:207|219:188,1,80,2|8,3:2|0:0,0:0:0:0:
298,148,78484,6,0,P|398:197|379:307,1,240,2|8,3:2|0:0,0:0:0:0:
300,347,79747,2,0,P|200:298|218:188,1,240,2|8,3:2|0:0,0:0:0:0:
219,188,81958,5,4,0:3:0:0:
293,234,82274,2,0,P|369:224|402:155,1,160,6|0,0:0|0:0,0:0:0:0:
392,67,83221,2,0,L|476:20,2,80,0|0|2,0:0|0:0|0:0,0:0:0:0:
245,165,84484,5,0,0:0:0:0:
171,119,84800,2,0,P|94:128|61:197,1,160,2|0,0:0|0:0,0:0:0:0:
72,286,85747,2,0,L|-12:333,2,80,0|0|2,0:0|0:0|0:0,0:0:0:0:
219,188,87011,5,0,0:0:0:0:
272,257,87326,2,0,P|344:284|413:249,1,160,2|0,0:0|0:0,0:0:0:0:
298,114,88590,2,0,P|284:58|304:-1,2,120,2|0|0,0:0|0:0|0:0,0:0:0:0:
367,61,89853,1,2,0:0:0:0:
17,106,91116,5,4,0:0:0:0:
2,190,91432,1,4,0:0:0:0:
13,275,91747,1,4,0:0:0:0:
89,320,92063,2,0,L|168:334,1,80,4|4,0:3|0:0,0:0:0:0:
