osu file format v14

[General]
AudioFilename: 04. Beautiful ground192.mp3
AudioLeadIn: 1495
PreviewTime: 53092
Countdown: 0
SampleSet: Normal
StackLeniency: 0.7
Mode: 0
LetterboxInBreaks: 0
WidescreenStoryboard: 0

[Editor]
DistanceSpacing: 1.2
BeatDivisor: 4
GridSize: 4
TimelineZoom: 2.8

[Metadata]
Title:Beautiful ground
TitleUnicode:Beautiful ground
Artist:nano x yuyoyuppe
ArtistUnicode:ナノ×ゆよゆっぺ
Creator:theramdans
Version:Normal
Source:
Tags:nanoir A_Mystery
BeatmapID:487362
BeatmapSetID:206737

[Difficulty]
HPDrainRate:4
CircleSize:3
OverallDifficulty:4
ApproachRate:5
SliderMultiplier:1.1
SliderTickRate:1

[Events]
//Background and Video events
0,0,"BGBG.jpg",0,0
//Break Periods
2,11753,20903
2,75051,81563
2,119886,134310
//Storyboard Layer 0 (Background)
//Storyboard Layer 1 (Fail)
//Storyboard Layer 2 (Pass)
//Storyboard Layer 3 (Foreground)
//Storyboard Sound Samples

[TimingPoints]
1005,329.67032967033,4,1,1,65,1,0
1499,-100,4,2,1,55,0,0
3477,-100,4,1,1,65,0,0
4136,-100,4,2,1,55,0,0
6114,-100,4,1,1,65,0,0
6774,-100,4,2,1,55,0,0
8752,-100,4,1,1,65,0,0
22103,-100,4,2,1,50,0,0
32653,-100,4,1,1,55,0,0
43202,-100,4,2,1,50,0,0
53752,-100,4,1,1,65,0,1
72048,-100,4,1,1,65,0,0
72213,-100,4,1,1,65,0,1
72378,-100,4,2,1,60,0,0
82763,-100,4,2,1,50,0,0
93312,-100,4,1,1,55,0,0
103862,-100,4,2,1,50,0,0
114411,-100,4,1,1,55,0,0
135510,-100,4,2,0,35,0,0
145235,-100,4,2,1,35,0,0
146059,-100,4,2,1,45,0,0
154136,-100,4,2,1,5,0,0
156609,-100,4,1,1,65,0,1
177543,-100,4,1,1,65,0,0
177708,-100,4,1,1,65,0,1
177873,-100,4,1,1,60,0,0

[Colours]
Combo1 : 247,108,6
Combo2 : 6,168,176
Combo3 : 255,51,255
Combo4 : 0,255,0

[HitObjects]
105,144,1005,6,0,L|71:78,2,55,8|2|8,0:0|0:2|0:0,0:0:0:0:
192,213,1664,2,0,P|243:229|295:213,1,110,2|2,0:0|0:3,0:0:0:0:
317,104,2323,1,2,0:0:0:0:
409,45,2653,1,2,0:3:0:0:
482,127,2983,2,0,P|495:169|476:242,1,110,2|2,0:0|0:3,0:0:0:0:
457,281,3477,1,2,0:2:0:0:
419,321,3642,6,0,P|388:333|357:337,2,55,8|8|8,0:0|0:2|0:0,0:0:0:0:
361,227,4301,2,0,P|349:173|356:118,1,110,2|2,0:0|0:3,0:0:0:0:
270,49,4961,2,0,P|221:61|154:52,1,110,2|8,0:0|0:0,0:0:0:0:
66,108,5620,2,0,L|22:211,1,110,8|12,0:3|0:0,0:0:0:0:
101,288,6279,6,0,L|130:222,1,55,8|0,0:0|0:0,0:0:0:0:
143,186,6609,2,0,P|179:148|249:142,1,110,8|2,0:0|0:3,0:0:0:0:
339,108,7268,2,0,L|319:46,2,55,2|8|8,0:0|0:0|0:0,0:0:0:0:
356,160,7763,2,0,P|371:205|290:273,1,165,8|8,0:0|0:3,0:0:0:0:
197,217,8587,1,8,0:3:0:0:
118,139,8917,6,0,L|40:152,2,55,8|0|8,0:0|0:0|0:0,0:0:0:0:
166,113,9411,2,0,B|202:85|202:85|250:111|324:87,1,165,8|8,0:0|0:0,0:0:0:0:
371,100,10070,1,0,0:0:0:0:
404,143,10235,2,0,P|428:189|417:253,1,110,4|8,0:2|0:0,0:0:0:0:
380,282,10730,2,0,B|331:273|331:273|268:297,1,110,4|8,0:2|0:0,0:0:0:0:
221,308,11224,6,0,B|211:302|211:302|201:310|201:310|189:303|189:303|177:310|177:310|167:303|167:303|157:310|157:310|143:304|143:304|126:309,1,110,8|4,0:0|0:0,0:0:0:0:
144,160,22103,6,0,P|100:112|48:112,2,110,6|2|2,0:0|0:3|0:0,0:0:0:0:
181,263,23092,1,2,0:3:0:0:
262,336,23422,2,0,B|310:313|368:337|368:337|429:334|450:274,1,220,2|2,0:0|0:0,0:0:0:0:
480,168,24411,1,2,0:3:0:0:
402,90,24741,6,0,P|353:61|287:75,1,110,2|2,0:0|0:3,0:0:0:0:
204,117,25400,2,0,L|169:238,1,110,2|2,0:0|0:3,0:0:0:0:
273,268,26059,2,0,L|238:389,2,110,2|2|0,0:0|0:3|0:0,0:0:0:0:
288,214,26884,2,0,P|284:160|313:114,1,110,8|8,0:0|0:0,0:0:0:0:
359,84,27378,6,0,P|425:78|472:162,1,165,6|2,0:0|0:0,0:0:0:0:
453,262,28202,2,0,P|445:315|468:365,2,110,2|2|2,0:3|0:0|0:0,0:0:0:0:
343,252,29191,2,0,B|334:138|334:138|291:84,1,165,2|8,0:0|0:1,0:0:0:0:
261,60,29851,1,2,0:3:0:0:
211,38,30015,6,0,P|130:43|73:100,1,165,2|2,0:0|0:3,0:0:0:0:
52,209,30840,2,0,L|36:344,2,110,2|8|2,0:0|0:3|0:0,0:0:0:0:
155,170,31829,2,0,P|232:146|302:186,1,165,2|2,0:0|0:3,0:0:0:0:
312,296,32653,6,0,P|340:347|402:368,2,110,4|8|2,0:0|0:0|0:2,0:0:0:0:
372,204,33642,1,8,0:0:0:0:
304,116,33972,2,0,P|275:89|204:89,1,110,2|8,0:2|0:0,0:0:0:0:
175,192,34631,2,0,P|203:218|274:218,1,110,2|8,0:2|0:0,0:0:0:0:
378,244,35290,6,0,L|359:372,1,110,2|8,0:2|0:0,0:0:0:0:
262,305,35950,1,2,0:2:0:0:
159,342,36279,1,8,0:0:0:0:
85,259,36609,2,0,L|47:134,2,110,2|8|2,0:2|0:0|0:2,0:0:0:0:
185,213,37598,1,8,0:0:0:0:
238,116,37928,6,0,P|294:115|340:140,1,110,6|8,0:2|0:0,0:0:0:0:
359,192,38422,2,0,P|382:234|453:252,2,110,2|8|2,0:2|0:0|0:2,0:0:0:0:
439,116,39411,1,8,0:0:0:0:
345,57,39741,2,0,B|307:25|307:25|249:44|193:26,1,165,2|8,0:2|0:0,0:0:0:0:
146,55,40400,1,0,0:0:0:0:
100,84,40565,6,0,L|87:215,1,110,2|8,0:2|0:0,0:0:0:0:
93,248,41059,2,0,P|148:277|204:271,1,110,2|8,0:2|0:0,0:0:0:0:
246,177,41719,2,0,B|230:144|242:54,1,110,2|8,0:2|0:0,0:0:0:0:
348,48,42378,2,0,P|343:121|358:211,1,165,2|8,0:2|0:0,0:0:0:0:
379,319,43202,6,0,L|488:320,2,110,4|0|8,0:1|0:0|0:0,0:0:0:0:
270,344,44191,2,0,P|164:343|102:257,1,220,4|2,0:1|0:0,0:0:0:0:
37,168,45180,1,8,0:0:0:0:
73,63,45510,1,2,0:0:0:0:
177,27,45840,6,0,P|232:24|281:47,1,110,6|8,0:0|0:0,0:0:0:0:
330,70,46334,2,0,B|363:88|407:68|407:68|457:78|475:124,1,165,6|8,0:0|0:0,0:0:0:0:
482,171,46994,1,6,0:0:0:0:
478,225,47158,2,0,P|460:277|418:311,1,110,2|0,0:0|0:0,0:0:0:0:
374,344,47653,2,0,B|319:336|319:336|266:344,1,110,2|0,0:0|0:0,0:0:0:0:
204,252,48312,1,8,0:0:0:0:
204,252,48477,6,0,B|134:227|91:268|91:268|32:260|27:201,1,220,6|8,0:0|0:0,0:0:0:0:
42,94,49466,2,0,P|108:50|185:70,1,165,4|2,0:0|0:0,0:0:0:0:
229,106,50125,1,2,0:0:0:0:
338,90,50455,1,8,0:0:0:0:
438,136,50785,1,8,0:0:0:0:
435,245,51114,6,0,B|424:303|424:303|387:338,1,110,6|8,0:0|0:0,0:0:0:0:
335,357,51609,2,0,L|219:364,1,110,2|8,0:0|0:0,0:0:0:0:
171,350,52103,1,6,0:0:0:0:
138,305,52268,2,0,B|114:269|177:197|136:145,1,165,2|8,0:0|0:0,0:0:0:0:
150,36,53092,1,0,0:0:0:0:
368,35,53752,6,0,P|439:111|391:202,1,220,4|8,0:0|0:0,0:0:0:0:
294,250,54741,1,2,0:2:0:0:
294,250,54906,2,0,L|190:290,1,110,6|8,0:2|0:0,0:0:0:0:
86,257,55565,2,0,P|94:202|86:148,1,110,2|8,0:2|0:0,0:0:0:0:
161,66,56224,6,0,P|241:54|309:96,1,165,4|8,0:0|0:0,0:0:0:0:
378,182,57048,1,8,0:0:0:0:
410,227,57213,2,0,L|454:295,2,55,2|8|4,0:2|0:2|0:2,0:0:0:0:
256,289,58037,1,8,0:0:0:0:
154,245,58367,1,2,0:2:0:0:
136,136,58697,1,8,0:0:0:0:
37,183,59026,6,0,P|43:77|135:26,1,220,4|8,0:0|0:0,0:0:0:0:
243,48,60015,1,2,0:2:0:0:
243,48,60180,2,0,L|359:77,1,110,6|8,0:2|0:0,0:0:0:0:
443,133,60840,2,0,P|458:187|444:245,1,110,2|8,0:2|0:0,0:0:0:0:
349,188,61499,6,0,P|267:173|189:188,1,165,4|8,0:0|0:0,0:0:0:0:
110,266,62323,1,0,0:0:0:0:
34,185,62653,1,8,0:0:0:0:
62,78,62983,2,0,P|115:69|166:88,1,110,2|8,0:2|0:0,0:0:0:0:
276,80,63642,2,0,P|328:93|380:78,1,110,2|8,0:2|0:0,0:0:0:0:
438,170,64301,6,0,B|446:221|446:221|433:284|433:284|443:331,1,165,4|8,0:0|0:0,0:0:0:0:
334,348,65125,1,8,0:0:0:0:
268,259,65455,2,0,B|231:236|231:236|180:278|109:243,1,165,2|8,0:2|0:0,0:0:0:0:
85,141,66279,1,2,0:2:0:0:
158,58,66609,1,8,0:0:0:0:
258,103,66939,6,0,B|331:133|356:82|419:108,1,165,6|8,0:2|0:0,0:0:0:0:
461,209,67763,1,8,0:0:0:0:
480,316,68092,2,0,P|401:300|356:233,1,165,6|8,0:2|0:0,0:0:0:0:
291,143,68917,1,8,0:0:0:0:
188,101,69246,1,2,0:2:0:0:
98,37,69576,6,0,P|78:115|117:186,1,165,4|8,0:0|0:0,0:0:0:0:
211,243,70400,1,8,0:3:0:0:
306,185,70730,2,0,B|337:244|308:295|308:295|342:336,1,165,6|8,0:2|0:0,0:0:0:0:
444,300,71554,1,2,0:2:0:0:
475,195,71884,1,0,0:0:0:0:
438,91,72213,5,4,0:0:0:0:
256,192,72378,12,2,74851,0:0:0:0:
112,112,82763,6,0,L|28:32,2,110,4|8|2,0:0|0:0|0:0,0:0:0:0:
199,45,83752,1,8,0:0:0:0:
295,93,84081,2,0,P|328:156|296:252,1,165,2|2,0:0|0:0,0:0:0:0:
275,291,84741,1,2,0:0:0:0:
228,320,84906,2,0,L|118:320,1,110,2|8,0:0|0:0,0:0:0:0:
71,290,85400,5,0,0:0:0:0:
49,182,85730,1,0,0:0:0:0:
92,81,86059,2,0,P|140:54|195:50,1,110,8|0,0:0|0:0,0:0:0:0:
293,100,86719,2,0,B|322:144|322:144|297:202|319:258|319:258|282:293,1,220,2|8,0:0|0:0,0:0:0:0:
185,344,87708,1,8,0:0:0:0:
103,270,88037,6,0,P|85:219|105:169,1,110,6|2,0:0|0:0,0:0:0:0:
154,142,88532,2,0,B|227:142|227:142|259:122,1,110,8|2,0:0|0:0,0:0:0:0:
351,63,89191,2,0,P|403:49|457:62,2,110,2|2|2,0:0|0:3|0:0,0:0:0:0:
335,115,90015,2,0,P|322:169|324:224,1,110,8|2,0:0|0:0,0:0:0:0:
218,191,90675,6,0,P|214:136|227:81,1,110,2|2,0:0|0:0,0:0:0:0:
256,37,91169,2,0,L|365:27,1,110,2|2,0:0|0:0,0:0:0:0:
449,101,91829,2,0,L|471:208,1,110,4|2,0:0|0:0,0:0:0:0:
465,263,92323,1,0,0:0:0:0:
443,313,92488,2,0,P|368:343|292:315,1,165,2|12,0:0|0:0,0:0:0:0:
183,321,93312,6,0,L|68:316,2,110,4|8|2,0:0|0:0|0:2,0:0:0:0:
223,219,94301,1,8,0:0:0:0:
248,112,94631,2,0,P|344:68|430:129,1,220,2|2,0:2|0:2,0:0:0:0:
444,238,95620,1,8,0:0:0:0:
393,335,95950,6,0,P|338:344|271:336,1,110,2|8,0:2|0:0,0:0:0:0:
204,263,96609,2,0,P|149:257|95:266,1,110,2|8,0:2|0:0,0:0:0:0:
34,173,97268,1,2,0:2:0:0:
108,92,97598,1,8,0:0:0:0:
217,101,97928,2,0,B|257:82|257:82|303:106|376:78,1,165
411,119,98587,6,0,P|428:171|413:228,1,110,6|8,0:2|0:0,0:0:0:0:
379,264,99081,2,0,P|326:256|269:273,1,110,2|8,0:2|0:0,0:0:0:0:
187,341,99741,2,0,P|147:371|72:374,2,110,2|8|2,0:2|0:0|0:2,0:0:0:0:
189,286,100565,2,0,L|176:177,1,110,8|8,0:0|0:0,0:0:0:0:
178,66,101224,6,0,B|216:31|216:31|280:50|327:31,1,165,6|8,0:2|0:0,0:0:0:0:
398,115,102048,2,0,L|498:65,2,110,8|2|8,0:0|0:2|0:0,0:0:0:0:
446,213,103037,2,8,P|396:278|317:294,1,165,2|8,0:2|0:0,0:0:0:0:
253,202,103862,6,0,L|256:94,2,110,4|0|0,0:1|0:0|0:0,0:0:0:0:
197,297,104851,2,0,P|105:337|49:253,1,220,4|0,0:1|0:0,0:0:0:0:
61,143,105840,2,0,L|100:40,1,110,8|0,0:0|0:0,0:0:0:0:
210,37,106499,6,0,P|287:60|365:36,1,165,6|8,0:0|0:0,0:0:0:0:
416,132,107323,2,0,L|479:129,2,55
367,157,107818,2,0,P|318:184|265:196,1,110,6|0,0:0|0:0,0:0:0:0:
157,178,108477,1,8,0:0:0:0:
93,268,108807,1,2,0:0:0:0:
153,359,109136,6,0,B|180:326|235:324|235:324|293:361|363:330,1,220,6|8,0:0|0:0,0:0:0:0:
458,288,110125,2,0,B|496:227|432:177|465:127,1,165,6|0,0:0|0:0,0:0:0:0:
478,75,110785,1,2,0:0:0:0:
370,54,111114,1,12,0:0:0:0:
265,87,111444,1,6,0:0:0:0:
157,69,111774,6,0,L|143:188,1,110,6|8,0:0|0:0,0:0:0:0:
159,231,112268,2,0,P|192:275|244:286,1,110,2|8,0:0|0:0,0:0:0:0:
298,276,112763,1,2,0:0:0:0:
345,248,112928,2,0,L|368:115,1,110,6|8,0:0|0:0,0:0:0:0:
369,84,113422,1,8,0:0:0:0:
262,55,113752,5,12,1:2:0:0:
160,95,114081,1,12,1:2:0:0:
166,204,114411,1,4,0:0:0:0:
256,192,114576,12,4,119686,0:0:0:0:
43,125,135510,6,0,P|128:58|235:67,1,220,4|2,1:0|0:3,0:0:0:0:
317,211,136664,2,0,L|345:328,2,110,2|0|2,0:0|0:0|0:3,0:0:0:0:
208,193,137653,1,2,0:3:0:0:
140,105,137983,6,0,P|100:176|116:255,1,165,2|2,0:0|0:3,0:0:0:0:
257,340,138972,2,0,L|314:356,2,55,2|0|2,0:0|0:0|0:0,0:0:0:0:
263,65,140125,2,0,L|372:62,1,110,2|0,0:0|0:0,0:0:0:0:
451,138,140785,6,0,P|456:243|368:301,1,220,2|2,0:0|0:3,0:0:0:0:
205,331,141939,2,0,L|93:334,2,110,2|0|2,0:0|0:0|0:3,0:0:0:0:
224,222,142928,1,2,0:3:0:0:
288,133,143257,2,0,B|316:99|359:104|359:104|399:126|445:110,1,165,2|2,0:0|0:3,0:0:0:0:
503,202,144081,1,2,0:3:0:0:
450,299,144411,5,2,0:0:0:0:
343,325,144741,2,0,L|215:333,1,110,0|2,0:0|0:0,0:0:0:0:
189,299,145235,1,0,0:0:0:0:
140,273,145400,2,0,L|76:273,2,55,2|4|4,0:3|0:3|0:3,0:0:0:0:
133,162,146059,6,0,B|164:134|164:134|218:156|285:138,1,165,6|2,0:0|0:0,0:0:0:0:
329,105,146719,2,0,P|353:98|388:101,1,55,8|2,0:0|0:0,0:0:0:0:
471,164,147213,2,0,P|474:219|449:267,1,110,2|2,0:0|0:0,0:0:0:0:
408,303,147708,1,2,0:0:0:0:
304,340,148037,1,8,0:0:0:0:
202,298,148367,1,2,0:0:0:0:
107,354,148697,6,0,B|64:312|64:312|90:257|65:210,1,165
40,162,149356,2,0,P|33:135|33:107,1,55,8|2,0:0|0:0,0:0:0:0:
114,33,149851,2,0,P|167:25|218:45,1,110,2|2,0:0|0:0,0:0:0:0:
261,79,150345,1,2,0:0:0:0:
344,152,150675,1,8,0:0:0:0:
416,68,151005,1,2,0:0:0:0:
457,171,151334,6,0,B|455:205|436:226|436:226|468:275|434:337,1,165,6|2,0:0|0:0,0:0:0:0:
405,363,151994,2,0,P|379:370|346:367,1,55,8|2,0:0|0:0,0:0:0:0:
267,298,152488,2,0,P|220:269|166:267,1,110,2|2,0:0|0:0,0:0:0:0:
114,247,152983,2,0,L|95:137,1,110,0|8,0:0|0:0,0:0:0:0:
121,90,153477,1,2,0:0:0:0:
169,64,153642,2,0,L|234:56,2,55,8|8|6,0:0|0:0|0:0,0:0:0:0:
256,192,154136,12,0,155950,0:0:0:0:
376,204,156609,6,0,P|271:220|229:323,1,220,4|8,0:0|0:0,0:0:0:0:
132,261,157598,1,8,0:0:0:0:
132,261,157763,2,0,P|150:208|186:165,1,110,6|8,0:2|0:0,0:0:0:0:
250,79,158422,1,2,0:2:0:0:
312,168,158752,1,8,0:0:0:0:
250,79,159081,6,0,P|174:54|100:87,1,165,4|8,0:0|0:0,0:0:0:0:
75,194,159906,1,8,0:0:0:0:
68,248,160070,2,0,L|60:310,2,55,2|8|6,0:2|0:0|0:2,0:0:0:0:
221,188,160895,1,8,0:0:0:0:
323,149,161224,1,2,0:2:0:0:
427,184,161554,1,8,0:0:0:0:
431,294,161884,6,0,P|330:324|220:280,1,220,4|8,0:0|0:0,0:0:0:0:
128,233,162873,1,8,0:0:0:0:
128,233,163037,2,0,B|75:247|75:247|21:239,1,110,6|8,0:2|0:0,0:0:0:0:
9,130,163697,1,2,0:2:0:0:
81,47,164026,1,8,0:0:0:0:
188,70,164356,6,0,B|260:98|283:51|359:73,1,165,4|8,0:0|0:0,0:0:0:0:
449,119,165180,1,8,0:0:0:0:
423,225,165510,1,8,0:0:0:0:
317,255,165840,2,0,L|207:250,1,110,2|8,0:2|0:0,0:0:0:0:
98,267,166499,1,2,0:2:0:0:
30,182,166829,1,8,0:0:0:0:
91,91,167158,6,0,P|135:122|189:120,1,110,4|8,0:0|0:0,0:0:0:0:
241,102,167653,2,0,P|294:89|348:102,1,110,2|8,0:2|0:0,0:0:0:0:
433,169,168312,2,0,P|468:241|433:321,1,165,2|8,0:2|0:0,0:0:0:0:
328,312,169136,1,2,0:2:0:0:
223,345,169466,1,8,0:0:0:0:
116,314,169796,6,0,P|122:259|115:204,1,110,6|8,0:2|0:0,0:0:0:0:
90,156,170290,2,0,P|75:103|84:49,1,110,2|8,0:2|0:0,0:0:0:0:
193,33,170950,2,0,P|218:110|195:188,1,165,2|8,0:2|0:0,0:0:0:0:
238,289,171774,1,6,0:2:0:0:
336,338,172103,1,8,0:0:0:0:
436,293,172433,6,0,L|445:183,1,110,4|8,0:0|0:0,0:0:0:0:
432,129,172928,1,2,0:2:0:0:
336,74,173257,1,8,0:0:0:0:
227,60,173587,2,0,B|183:57|183:57|166:75|166:75|114:64|64:105,1,165,8|8,0:3|0:0,0:0:0:0:
38,200,174411,1,2,0:2:0:0:
94,294,174741,1,8,0:0:0:0:
199,264,175070,6,0,L|236:152,1,110,2|8,0:2|0:0,0:0:0:0:
280,58,175730,2,0,P|357:39|420:87,1,165,8|8,0:3|0:3,0:0:0:0:
474,243,176719,1,0,0:0:0:0:
383,305,177048,2,0,B|318:323|318:323|268:312,1,110,8|8,0:0|0:0,0:0:0:0:
177,265,177708,6,0,P|138:237|74:236,1,110,4|8,0:0|0:0,0:0:0:0:
32,134,178367,1,2,0:2:0:0:
103,50,178697,2,0,B|179:50|179:50|207:65|207:65|236:50|236:50|317:50,1,220,8|8,0:0|0:0,0:0:0:0:
365,148,179686,2,0,P|373:203|361:256,1,110,2|8,0:2|0:0,0:0:0:0:
276,325,180345,5,2,0:2:0:0:
168,300,180675,2,0,L|58:301,2,110,8|2|8,0:0|0:2|0:0,0:0:0:0:
192,192,181664,2,0,B|210:138|210:138|206:85,1,110,2|8,0:2|0:0,0:0:0:0:
316,85,182323,2,0,B|312:137|312:137|330:191,1,110,2|8,0:2|0:0,0:0:0:0:
369,293,182983,6,0,P|469:309|496:212,1,220,4|2,0:0|0:2,0:0:0:0:
427,126,183972,1,8,0:0:0:0:
340,57,184301,2,0,P|297:72|235:56,1,110,2|8,0:2|0:0,0:0:0:0:
127,75,184961,2,0,P|109:127|118:181,1,110,2|8,0:2|0:0,0:0:0:0:
149,286,185620,6,0,B|215:263|263:338|362:291,1,220,2|2,0:2|0:2,0:0:0:0:
417,195,186609,1,8,0:0:0:0:
330,126,186939,2,0,P|322:72|341:21,2,110,2|12|0,0:2|0:2|0:0,0:0:0:0:
245,197,187928,1,4,0:3:0:0:
215,91,188257,6,0,B|159:114|107:93|107:93|71:106|66:126,1,165,6|4,0:2|0:3,0:0:0:0:
107,286,189246,2,0,B|163:263|215:284|215:284|250:270|255:250,1,165,6|4,0:2|0:3,0:0:0:0:
293,212,189906,2,0,P|341:185|395:188,1,110,6|6,0:2|0:2,0:0:0:0:
489,245,190565,5,0,0:0:0:0:
470,136,190895,2,0,L|464:69,1,55,6|6,0:2|0:2,0:0:0:0:
