osu file format v14

[General]
AudioFilename: 04. Beautiful ground192.mp3
AudioLeadIn: 1495
PreviewTime: 53092
Countdown: 0
SampleSet: Normal
StackLeniency: 0.7
Mode: 0
LetterboxInBreaks: 0
WidescreenStoryboard: 0

[Editor]
DistanceSpacing: 1.3
BeatDivisor: 4
GridSize: 4
TimelineZoom: 3.275999

[Metadata]
Title:Beautiful ground
TitleUnicode:Beautiful ground
Artist:nano x yuyoyuppe
ArtistUnicode:ナノ×ゆよゆっぺ
Creator:theramdans
Version:Insane
Source:
Tags:nanoir A_Mystery
BeatmapID:510754
BeatmapSetID:206737

[Difficulty]
HPDrainRate:7
CircleSize:4
OverallDifficulty:8
ApproachRate:9
SliderMultiplier:1.85
SliderTickRate:1

[Events]
//Background and Video events
0,0,"BGBG.jpg",0,0
//Break Periods
2,119886,123701
//Storyboard Layer 0 (Background)
//Storyboard Layer 1 (Fail)
//Storyboard Layer 2 (Pass)
//Storyboard Layer 3 (Foreground)
//Storyboard Sound Samples

[TimingPoints]
1005,329.67032967033,4,1,1,65,1,0
1334,-100,4,2,1,55,0,0
4136,-100,4,2,1,55,0,0
6939,-100,4,2,1,55,0,0
9411,-100,4,1,1,65,0,0
21609,-119.047619047619,4,2,1,60,0,0
27378,-119.047619047619,4,2,1,50,0,0
32653,-100,4,1,1,55,0,0
43202,-119.047619047619,4,2,1,50,0,0
53092,-200,4,2,1,30,0,0
53752,-100,4,1,1,65,0,1
72048,-100,4,1,1,15,0,0
72213,-100,4,1,1,65,0,1
72378,-100,4,1,1,60,0,0
82763,-119.047619047619,4,2,1,50,0,0
93312,-100,4,1,1,55,0,0
103862,-119.047619047619,4,2,1,55,0,0
114411,-100,4,1,1,55,0,0
134851,-147.058823529412,4,1,1,45,0,0
135510,-147.058823529412,4,2,2,30,0,0
145235,-119.047619047619,4,2,1,35,0,0
154136,-119.047619047619,4,2,1,5,0,0
155950,-200,4,2,1,55,0,0
156609,-100,4,1,1,65,0,1
177048,-147.058823529412,4,1,1,60,0,1
177543,-147.058823529412,4,1,1,65,0,0
177708,-100,4,1,1,65,0,1
177873,-100,4,1,1,60,0,0

[Colours]
Combo1 : 247,108,6
Combo2 : 6,168,176
Combo3 : 255,51,255
Combo4 : 0,255,0

[HitObjects]
274,368,1005,6,0,P|226:356|195:324,1,92.5,8|2,0:0|0:2,0:0:0:0:
164,127,1334,1,8,0:0:0:0:
283,142,1499,2,0,P|321:220|266:288,1,185,2|2,0:3|0:2,0:0:0:0:
164,225,1994,1,2,0:3:0:0:
190,109,2158,6,0,L|374:110,1,185,2|2,0:0|0:0,0:0:0:0:
466,201,2653,1,2,0:3:0:0:
415,310,2818,2,0,B|381:345|343:350|343:350|300:320|230:347,1,185,2|2,0:0|0:0,0:0:0:0:
134,289,3312,1,2,0:3:0:0:
48,112,3477,5,8,0:3:0:0:
184,196,3642,1,8,0:0:0:0:
214,32,3806,1,8,0:2:0:0:
319,163,3972,1,8,0:0:0:0:
420,32,4136,2,0,P|448:112|413:211,1,185,2|2,0:3|0:0,0:0:0:0:
359,312,4631,5,2,0:3:0:0:
243,277,4796,1,2,0:2:0:0:
266,159,4961,2,0,B|229:144|229:144|170:155,1,92.5,2|0,0:0|0:0,0:0:0:0:
29,177,5290,1,4,0:2:0:0:
118,259,5455,1,2,0:0:0:0:
83,69,5620,5,4,0:3:0:0:
126,83,5702,1,0,0:0:0:0:
172,83,5784,1,4,0:3:0:0:
216,68,5867,1,0,0:0:0:0:
252,40,5950,1,6,0:2:0:0:
28,275,6279,6,0,B|28:344|28:344|38:365,1,92.5,8|10,0:0|0:0,0:0:0:0:
118,259,6609,1,2,0:0:0:0:
223,329,6774,2,0,B|277:349|322:314|322:314|361:309|395:339,1,185,2|2,2:3|0:0,0:0:0:0:
387,80,7268,1,8,0:0:0:0:
263,254,7433,1,8,0:0:0:0:
456,295,7598,5,8,0:0:0:0:
387,80,7763,2,0,L|184:59,1,185,8|2,0:0|0:0,0:0:0:0:
106,130,8257,2,0,P|99:176|102:222,1,92.5,8|2,0:3|0:0,0:0:0:0:
248,337,8587,2,0,P|254:291|251:245,1,92.5,8|2,0:3|0:0,0:0:0:0:
195,49,8917,5,8,0:0:0:0:
242,173,9081,1,8,0:0:0:0:
315,60,9246,1,8,0:0:0:0:
152,252,9411,2,0,P|64:246|30:165,1,185,2|2,0:2|0:2,0:0:0:0:
30,165,9823,1,0,0:0:0:0:
30,165,9906,5,0,0:0:0:0:
92,42,10070,1,4,0:2:0:0:
111,179,10235,1,0,0:0:0:0:
229,106,10400,1,4,0:2:0:0:
322,209,10565,2,0,P|365:208|409:176,1,92.5,8|4,0:3|0:2,0:0:0:0:
387,40,10895,5,8,0:0:0:0:
346,62,10977,1,8,0:0:0:0:
300,69,11059,1,8,0:3:0:0:
255,61,11142,1,8,0:3:0:0:
209,54,11224,2,0,B|183:78|183:78|160:63|160:63|110:106|30:91,1,185,8|4,0:0|0:0,0:0:0:0:
33,213,11719,5,2,0:2:0:0:
97,314,11884,1,8,0:0:0:0:
185,147,12048,2,0,P|249:209|333:182,1,185,2|2,0:2|0:2,0:0:0:0:
381,84,12543,1,8,0:0:0:0:
269,126,12708,1,0,0:0:0:0:
276,290,12873,6,0,P|322:281|362:259,1,92.5,2|2,0:2|0:2,0:0:0:0:
185,147,13202,1,8,0:0:0:0:
157,272,13367,1,0,0:0:0:0:
367,169,13532,2,0,L|462:149,1,92.5,2|2,0:2|0:2,0:0:0:0:
484,322,13862,1,8,0:0:0:0:
381,84,14026,1,0,0:0:0:0:
240,229,14191,6,0,P|230:184|239:139,1,92.5,2|2,0:2|0:2,0:0:0:0:
306,19,14521,1,8,0:0:0:0:
442,19,14686,2,0,P|467:103|408:169,1,185,2|2,0:2|0:2,0:0:0:0:
271,209,15180,1,0,0:0:0:0:
123,312,15345,1,8,0:0:0:0:
158,135,15510,5,2,0:2:0:0:
241,299,15675,1,2,0:2:0:0:
70,228,15840,1,8,0:0:0:0:
235,143,16005,1,8,0:3:0:0:
254,130,16087,1,0,0:0:0:0:
272,118,16169,2,0,P|316:104|362:108,1,92.5,8|2,0:3|0:2,0:0:0:0:
472,155,16499,2,0,L|489:262,1,92.5,8|2,0:0|0:2,0:0:0:0:
326,191,16829,5,4,0:0:0:0:
238,50,16994,1,2,0:2:0:0:
393,50,17158,1,8,0:0:0:0:
326,191,17323,2,0,P|360:285|441:304,1,185,2|2,0:2|0:2,0:0:0:0:
419,215,17818,1,8,0:0:0:0:
341,365,17983,1,0,0:0:0:0:
250,125,18147,5,2,0:2:0:0:
147,86,18312,1,2,0:2:0:0:
312,223,18477,1,8,0:0:0:0:
141,187,18642,1,0,0:0:0:0:
312,223,18807,2,0,B|340:260|340:260|350:306,1,92.5,2|2,0:2|0:2,0:0:0:0:
141,187,19136,2,0,B|113:150|113:150|104:105,1,92.5,8|2,0:0|0:2,0:0:0:0:
178,9,19466,6,0,L|259:52,1,92.5,0|0,0:2|0:2,0:0:0:0:
324,154,19796,1,8,0:0:0:0:
289,270,19961,2,0,P|221:324|146:281,1,185,2|2,0:2|0:2,0:0:0:0:
149,65,20455,1,0,0:0:0:0:
318,32,20620,2,0,B|267:56|219:29|219:29|238:73|212:110,1,185,8|2,0:0|0:2,0:0:0:0:
289,270,21114,5,8,0:0:0:0:
210,360,21279,2,0,L|101:356,1,92.5,6|0,0:2|0:0,0:0:0:0:
13,170,21609,1,4,0:3:0:0:
129,272,21774,1,4,0:3:0:0:
109,117,21939,1,4,0:3:0:0:
240,43,22103,6,0,L|322:56,1,77.6999976287842,4|0,0:0|0:0,0:0:0:0:
408,99,22433,1,2,0:0:0:0:
408,99,22598,2,0,P|414:206|512:279,1,233.099992886353,0|2,0:0|0:3,0:0:0:0:
436,349,23257,1,0,0:0:0:0:
503,194,23422,2,0,P|480:166|478:121,1,77.6999976287842,2|0,0:0|0:0,0:0:0:0:
425,38,23752,2,0,P|388:24|350:30,1,77.6999976287842,2|0,0:3|0:0,0:0:0:0:
250,45,24081,2,0,B|216:37|193:54|193:54|172:47|172:47|143:62|100:50,1,155.399995257568,2|2,0:0|0:3,0:0:0:0:
54,199,24576,5,8,0:0:0:0:
54,199,24741,2,0,B|91:303|91:303|132:321,1,155.399995257568,2|2,0:0|0:3,0:0:0:0:
285,353,25235,1,0,0:0:0:0:
290,197,25400,2,0,B|318:162|318:162|372:189|428:155,1,155.399995257568,2|2,0:0|0:3,0:0:0:0:
364,306,25895,1,0,0:0:0:0:
494,218,26059,6,0,L|444:64,1,155.399995257568,2|2,0:0|0:3,0:0:0:0:
343,41,26554,1,0,0:0:0:0:
232,94,26719,1,2,0:0:0:0:
119,46,26884,2,0,P|80:46|47:66,1,77.6999976287842,8|2,0:0|0:0,0:0:0:0:
15,178,27213,1,8,0:0:0:0:
41,292,27378,6,0,P|112:318|172:275,1,155.399995257568,6|2,0:0|0:0,0:0:0:0:
160,174,27873,2,0,P|196:241|272:260,1,155.399995257568,0|2,0:0|0:3,0:0:0:0:
347,342,28367,1,8,0:0:0:0:
446,286,28532,2,0,B|458:254|458:254|427:202|467:139,1,155.399995257568,2|2,0:0|0:0,0:0:0:0:
405,59,29026,1,8,0:0:0:0:
332,199,29191,1,0,0:0:0:0:
278,50,29356,5,2,0:0:0:0:
219,165,29521,1,8,0:0:0:0:
83,78,29686,1,2,0:0:0:0:
35,233,29851,1,8,0:0:0:0:
193,238,30015,6,0,L|219:165,1,77.6999976287842,2|0,0:0|0:0,0:0:0:0:
193,341,30345,1,8,0:0:0:0:
295,334,30510,2,0,P|263:264|193:238,1,155.399995257568,2|2,0:0|0:0,0:0:0:0:
193,341,31005,1,8,0:0:0:0:
338,240,31169,2,0,P|356:274|366:311,1,77.6999976287842,2|4,0:0|0:1,0:0:0:0:
193,238,31499,1,2,0:0:0:0:
439,118,31664,1,8,0:0:0:0:
249,39,31829,1,2,0:2:0:0:
74,62,31994,5,8,0:3:0:0:
75,96,32076,1,8,0:3:0:0:
75,130,32158,1,8,0:3:0:0:
75,165,32241,1,0,0:0:0:0:
104,195,32323,5,8,0:0:0:0:
146,203,32406,1,0,0:0:0:0:
187,194,32488,1,8,0:0:0:0:
217,165,32570,1,0,0:0:0:0:
253,130,32653,6,0,P|299:129|339:151,1,92.5,4|0,0:0|0:0,0:0:0:0:
374,313,32983,1,8,0:0:0:0:
271,374,33147,2,0,B|218:359|182:387|182:387|138:387|112:335,1,185,2|2,0:2|0:2,0:0:0:0:
58,214,33642,2,0,P|58:164|84:123,1,92.5,8|0,0:0|0:0,0:0:0:0:
145,27,33972,1,2,0:2:0:0:
179,230,34136,1,2,0:2:0:0:
213,110,34301,2,0,P|254:90|281:53,1,92.5,8|0,0:0|0:0,0:0:0:0:
407,39,34631,2,0,P|480:88|481:177,1,185,2|8,0:2|0:0,0:0:0:0:
300,223,35125,5,0,0:0:0:0:
300,223,35208,1,0,0:0:0:0:
300,223,35290,2,0,P|240:156|150:160,1,185,0|8,0:0|0:0,0:0:0:0:
47,222,35785,1,0,0:0:0:0:
159,77,35950,2,0,P|201:73|255:83,1,92.5
202,248,36279,1,2,0:2:0:0:
337,126,36444,1,8,0:0:0:0:
488,128,36609,6,0,B|475:221,1,92.5,2|2,0:2|0:2,0:0:0:0:
416,321,36939,2,0,P|376:340|331:333,1,92.5,8|0,0:0|0:0,0:0:0:0:
200,228,37267,1,2,0:2:0:0:
285,143,37433,1,2,0:2:0:0:
228,343,37598,1,8,0:0:0:0:
136,266,37763,1,8,0:0:0:0:
136,266,37845,1,0,0:0:0:0:
136,266,37928,6,0,B|84:211|181:147|139:93,1,185,6|8,0:2|0:0,0:0:0:0:
253,51,38422,2,0,L|439:60,1,185,2|2,0:2|0:2,0:0:0:0:
475,176,38917,1,8,0:0:0:0:
440,290,39081,2,0,P|352:270|278:321,1,185,2|2,0:2|0:2,0:0:0:0:
163,286,39576,1,8,0:0:0:0:
54,234,39741,2,0,B|80:201|80:162|80:162|133:166|171:116,1,185,2|2,0:2|0:2,0:0:0:0:
288,142,40235,1,8,0:0:0:0:
295,328,40400,5,2,0:2:0:0:
295,328,40483,1,0,0:0:0:0:
295,328,40565,2,0,B|409:325|409:325|468:277,1,185,0|8,0:0|0:0,0:0:0:0:
500,165,41059,2,0,P|417:132|334:169,1,185,2|2,0:2|0:2,0:0:0:0:
216,198,41554,1,8,0:0:0:0:
147,101,41719,2,0,L|52:97,1,92.5,0|8,0:0|0:0,0:0:0:0:
25,214,42048,1,2,0:2:0:0:
147,101,42213,1,8,0:0:0:0:
182,262,42378,1,2,0:2:0:0:
251,90,42543,5,4,0:2:0:0:
308,265,42708,1,4,0:2:0:0:
365,90,42873,1,0,0:0:0:0:
216,198,43037,1,4,0:2:0:0:
400,197,43202,6,0,P|481:243|395:279,1,233.099992886353,4|2,0:0|0:0,0:0:0:0:
308,148,43862,1,8,0:0:0:0:
308,265,44026,1,2,0:0:0:0:
216,198,44191,2,0,B|196:151|196:151|194:98|272:64,1,155.399995257568,6|0,0:0|0:0,0:0:0:0:
121,129,44686,5,2,0:0:0:0:
60,51,44851,2,0,P|33:79|23:116,1,77.6999976287842,2|0,0:0|0:0,0:0:0:0:
33,251,45180,1,8,0:0:0:0:
232,217,45510,1,0,0:0:0:0:
311,30,45840,6,0,P|381:61|408:132,1,155.399995257568,6|2,0:0|0:0,0:0:0:0:
312,254,46334,2,0,B|267:269|215:251|215:251|193:276|155:283,1,155.399995257568,2|2,0:0|0:0,0:0:0:0:
204,374,46829,1,4,0:0:0:0:
156,204,46994,1,0,0:0:0:0:
172,52,47158,6,0,B|191:24|241:28|241:28|267:59|311:52,1,155.399995257568,2|2,0:0|0:0,0:0:0:0:
433,101,47653,2,0,B|456:175|456:175|436:250,1,155.399995257568,2|0,0:0|0:0,0:0:0:0:
378,366,48147,1,8,0:0:0:0:
312,254,48312,1,8,0:0:0:0:
193,342,48477,6,0,B|151:333|151:333|95:361|10:342|-11:222|55:181,1,310.799990515137,4|8,0:0|0:0,0:0:0:0:
112,251,49301,1,2,0:0:0:0:
223,139,49466,2,0,B|301:160|301:160|383:145,1,155.399995257568,6|2,0:0|0:0,0:0:0:0:
450,79,49961,1,2,0:0:0:0:
353,54,50125,2,0,B|306:62|306:62|275:54,1,77.6999976287842
120,52,50455,2,0,P|111:89|114:127,1,77.6999976287842,8|0,0:0|0:0,0:0:0:0:
247,211,50785,2,0,P|256:173|252:134,1,77.6999976287842,8|0,0:0|0:0,0:0:0:0:
350,115,51114,6,0,P|360:192|341:267,1,155.399995257568,6|8,0:0|0:0,0:0:0:0:
205,345,51609,1,2,0:0:0:0:
247,211,51774,1,8,0:0:0:0:
205,345,51939,1,2,0:0:0:0:
101,252,52103,1,6,0:0:0:0:
87,69,52268,6,0,L|103:145,1,77.6999976287842,6|0,0:0|0:0,0:0:0:0:
184,265,52598,1,8,0:0:0:0:
255,96,52763,2,0,L|339:114,1,77.6999976287842,0|2,0:0|0:0,0:0:0:0:
444,70,53092,1,8,0:3:0:0:
444,70,53257,6,0,P|447:107|441:163,1,92.5,8|0,0:3|0:0,0:0:0:0:
413,279,53752,1,4,0:0:0:0:
318,354,53917,6,0,B|257:330|218:382|136:352,1,185,2|2,0:2|0:2,0:0:0:0:
40,278,54411,2,0,B|40:245|68:225|68:225|50:177|50:177|79:158|84:100,1,185,8|8,0:0|0:0,0:0:0:0:
229,55,54906,2,0,B|229:88|201:108|201:108|219:156|219:156|186:177|181:215,1,185,6|2,0:2|0:2,0:0:0:0:
237,326,55400,1,8,0:0:0:0:
132,131,55565,2,0,P|106:168|95:213,1,92.5,2|8,0:2|0:0,0:0:0:0:
261,223,55895,1,2,0:2:0:0:
155,49,56059,1,8,0:0:0:0:
280,134,56224,6,0,P|344:195|328:284,1,185,4|2,0:1|0:2,0:0:0:0:
403,145,56719,2,0,P|371:104|320:73,1,92.5,2|0,0:2|0:0,0:0:0:0:
217,81,57048,2,0,B|164:89|164:89|118:77,1,92.5,8|0,0:0|0:0,0:0:0:0:
55,210,57378,1,8,0:0:0:0:
194,157,57543,2,0,B|264:146|264:146|291:197|359:197,1,185,6|2,0:2|0:2,0:0:0:0:
446,164,57955,1,2,0:2:0:0:
446,164,58037,6,0,P|454:107|435:63,1,92.5,8|0,0:0|0:0,0:0:0:0:
330,28,58367,2,0,L|229:23,1,92.5,2|2,0:2|0:2,0:0:0:0:
193,158,58697,1,8,0:0:0:0:
359,197,58862,1,2,0:2:0:0:
229,305,59026,6,0,P|142:325|64:278,1,185,4|2,0:0|0:2,0:0:0:0:
75,156,59521,1,2,0:2:0:0:
152,63,59686,2,0,B|187:59|218:71|218:71|250:50|284:87|341:63,1,185,8|8,0:0|0:0,0:0:0:0:
445,214,60180,2,0,B|400:245|349:225|349:225|327:268|270:274,1,185,6|2,0:2|0:2,0:0:0:0:
260,106,60675,2,0,P|262:152|279:195,1,92.5,2|0,0:2|0:0,0:0:0:0:
467,286,61005,2,0,P|423:302|377:303,1,92.5,8|2,0:0|0:2,0:0:0:0:
389,151,61334,1,8,0:0:0:0:
260,106,61499,6,0,P|172:98|126:173,1,185,4|8,0:0|0:0,0:0:0:0:
90,67,61994,2,0,P|127:33|178:20,1,92.5
212,176,62323,1,8,0:0:0:0:
303,44,62488,1,2,0:2:0:0:
420,154,62653,1,8,0:0:0:0:
325,301,62818,1,0,0:0:0:0:
111,234,62983,6,0,P|68:247|34:278,1,92.5,6|0,0:2|0:2,0:0:0:0:
213,300,63312,2,0,P|227:344|258:378,1,92.5,6|0,0:2|0:2,0:0:0:0:
116,331,63642,1,6,0:2:0:0:
52,171,63807,1,2,0:2:0:0:
189,68,63972,2,0,B|244:72|244:72|290:49,1,92.5,6|0,0:2|0:0,0:0:0:0:
460,121,64301,6,0,P|444:204|339:238,1,185,4|8,0:0|0:0,0:0:0:0:
316,128,64796,2,0,B|263:142|227:114|227:114|157:110|132:147,1,185,2|2,0:2|0:2,0:0:0:0:
119,256,65290,1,8,0:0:0:0:
228,306,65455,2,0,B|278:313|311:278|311:278|351:314|408:294,1,185,2|2,0:2|0:2,0:0:0:0:
354,115,65950,2,0,P|339:71|354:28,1,92.5,8|2,0:0|0:2,0:0:0:0:
471,169,66279,2,0,P|485:212|470:254,1,92.5,2|2,0:2|0:2,0:0:0:0:
385,341,66609,1,8,0:0:0:0:
286,271,66774,1,0,0:0:0:0:
101,287,66939,6,0,B|52:265|52:265|88:190|29:182|63:140,1,185,4|8,0:2|0:0,0:0:0:0:
138,46,67433,2,0,B|186:65|238:38|238:38|268:67|260:118,1,185,2|2,0:2|0:2,0:0:0:0:
218,226,67928,1,8,0:0:0:0:
279,328,68092,2,0,P|346:385|431:361,1,185,4|2,0:2|0:2,0:0:0:0:
458,243,68587,2,0,P|413:219|362:222,1,92.5,8|2,0:0|0:2,0:0:0:0:
279,328,68917,1,2,0:2:0:0:
171,177,69081,1,2,0:2:0:0:
29,270,69246,2,0,L|48:365,1,92.5,8|0,0:0|0:0,0:0:0:0:
76,176,69576,6,0,P|120:99|218:96,1,185,4|8,0:0|0:0,0:0:0:0:
291,169,70070,1,8,0:0:0:0:
368,261,70235,2,0,B|402:228|402:228|413:181,1,92.5,8|2,0:3|0:2,0:0:0:0:
291,169,70565,1,0,0:0:0:0:
274,353,70730,2,0,P|194:310|110:341,1,185,2|2,0:2|0:2,0:0:0:0:
34,247,71224,1,8,0:0:0:0:
152,103,71389,5,8,0:3:0:0:
152,103,71471,1,0,0:0:0:0:
152,103,71554,2,0,B|193:124|241:106,1,92.5,8|8,0:3|0:3,0:0:0:0:
338,31,71884,1,0,0:0:0:0:
423,333,72213,5,4,0:0:0:0:
312,284,72378,1,2,0:2:0:0:
208,344,72543,1,8,0:0:0:0:
45,203,72708,2,0,B|106:220|144:183|144:183|184:171|229:208,1,185,2|2,0:2|0:2,0:0:0:0:
312,284,73202,1,8,0:0:0:0:
208,344,73367,1,0,0:0:0:0:
228,120,73532,6,0,P|184:106|139:108,1,92.5,2|2,0:2|0:2,0:0:0:0:
235,269,73862,1,8,0:0:0:0:
448,163,74026,1,0,0:0:0:0:
300,93,74190,1,2,0:2:0:0:
388,328,74355,1,2,0:2:0:0:
235,269,74521,2,0,P|189:267|148:288,1,92.5,8|2,0:0|0:2,0:0:0:0:
82,185,74851,5,2,0:2:0:0:
208,344,75015,1,2,0:2:0:0:
265,197,75180,1,8,0:0:0:0:
265,197,75345,2,0,B|294:192|324:206|324:206|359:193|359:193|396:217|444:210,1,185,2|2,0:2|0:2,0:0:0:0:
489,321,75840,1,2,0:2:0:0:
330,130,76005,2,0,P|290:122|231:133,1,92.5,8|0,0:2|0:0,0:0:0:0:
158,219,76334,1,2,0:2:0:0:
72,134,76499,1,8,0:0:0:0:
36,313,76664,5,8,0:3:0:0:
61,328,76746,1,0,0:0:0:0:
88,341,76829,2,0,P|135:349|178:338,1,92.5,8|2,0:3|0:2,0:0:0:0:
265,197,77158,1,8,0:0:0:0:
371,255,77323,1,2,0:2:0:0:
404,53,77488,6,0,B|421:108|421:108|414:158,1,92.5,4|2,0:0|0:2,0:0:0:0:
371,255,77818,1,8,0:0:0:0:
246,344,77983,2,0,B|274:305|274:305|281:220|204:204,1,185,2|2,0:2|0:2,0:0:0:0:
126,322,78477,1,8,0:0:0:0:
47,206,78642,1,0,0:0:0:0:
217,136,78807,2,0,P|261:149|299:175,1,92.5,2|2,0:2|0:2,0:0:0:0:
351,283,79136,5,8,0:0:0:0:
439,201,79301,1,2,0:2:0:0:
393,51,79466,2,0,P|439:55|473:86,1,92.5,2|2,0:2|0:2,0:0:0:0:
351,283,79796,2,0,L|303:373,1,92.5,8|2,0:2|0:2,0:0:0:0:
299,175,80125,5,0,0:2:0:0:
206,265,80290,1,2,0:2:0:0:
217,136,80455,1,8,0:0:0:0:
217,136,80620,2,0,B|161:124|145:73|145:73|60:73,1,185,2|2,0:2|0:2,0:0:0:0:
226,53,81114,1,0,0:0:0:0:
299,175,81279,1,8,0:0:0:0:
106,152,81444,6,0,P|144:186|186:206,1,92.5,2|2,0:2|0:2,0:0:0:0:
226,53,81774,1,8,0:0:0:0:
299,175,81939,1,6,0:2:0:0:
435,214,82103,2,0,B|487:193|487:193|506:162,1,92.5,8|8,0:3|0:3,0:0:0:0:
328,70,82433,1,8,0:0:0:0:
328,70,82598,5,8,0:0:0:0:
504,51,82763,1,4,0:0:0:0:
435,214,82928,1,2,0:0:0:0:
328,70,83092,1,2,0:0:0:0:
328,70,83257,2,0,B|237:44|184:105|98:72,1,233.099992886353,2|2,0:0|0:3,0:0:0:0:
34,215,83917,1,2,0:0:0:0:
34,215,84081,6,0,P|108:235|182:216,1,155.399995257568,2|2,0:0|0:3,0:0:0:0:
315,227,84576,1,0,0:0:0:0:
492,163,84741,1,8,0:0:0:0:
418,177,84906,2,0,B|427:219|463:232|463:232|472:261|469:318,1,155.399995257568,2|2,0:0|0:0,0:3:0:0:
377,355,85400,6,0,L|293:347,1,77.6999976287842,2|0,0:0|0:0,0:0:0:0:
205,223,85730,2,0,L|282:230,1,77.6999976287842
320,65,86059,2,0,P|331:102|331:141,1,77.6999976287842,8|2,0:0|0:0,0:0:0:0:
205,223,86389,1,0,0:0:0:0:
88,139,86554,1,2,0:0:0:0:
88,139,86719,6,0,L|58:217,1,77.6999976287842,2|2,0:0|0:0,0:0:0:0:
169,324,87048,2,0,L|199:246,1,77.6999976287842,2|2,0:0|0:0,0:0:0:0:
285,152,87378,1,8,0:0:0:0:
436,258,87543,1,2,0:0:0:0:
414,127,87708,1,8,0:0:0:0:
307,281,87873,1,2,0:0:0:0:
185,233,88037,6,0,B|126:237|115:280|115:280|135:349,1,155.399995257568,6|2,0:0|0:3,0:0:0:0:
234,348,88532,1,0,0:0:0:0:
168,165,88697,2,0,P|129:171|96:190,1,77.6999976287842,8|2,0:0|0:0,0:0:0:0:
46,69,89026,1,2,0:0:0:0:
46,69,89191,2,0,P|109:24|185:27,1,155.399995257568,2|2,0:0|0:0,0:0:0:0:
312,216,89686,2,0,P|326:180|331:142,1,77.6999976287842,2|2,0:0|0:0,0:0:0:0:
283,54,90015,5,8,0:0:0:0:
213,237,90180,1,0,0:0:0:0:
83,160,90345,1,2,0:0:0:0:
187,50,90510,1,2,0:0:0:0:
187,50,90592,1,0,0:0:0:0:
187,50,90675,6,0,P|255:15|327:38,1,155.399995257568,2|0,0:0|0:0,0:0:0:0:
419,79,91169,1,2,0:0:0:0:
446,176,91334,2,0,L|429:252,1,77.6999976287842,8|2,0:0|0:0,0:0:0:0:
347,312,91664,1,2,0:0:0:0:
286,229,91829,6,0,P|241:172|172:195,1,155.399995257568,6|2,0:0|0:0,0:0:0:0:
194,96,92323,2,0,P|233:90|285:109,1,77.6999976287842,8|2,0:0|0:0,0:0:0:0:
203,287,92653,1,6,0:2:0:0:
62,346,92818,1,6,0:2:0:0:
214,366,92983,2,0,P|250:350|276:321,1,77.6999976287842,6|0,0:0|0:0,0:0:0:0:
333,216,93312,5,4,0:2:0:0:
386,108,93477,1,2,0:2:0:0:
291,33,93642,1,2,0:2:0:0:
176,68,93807,2,0,B|157:109|92:98|92:98|51:121|50:171,1,185,2|2,0:2|0:2,0:0:0:0:
170,166,94301,2,0,P|215:140|243:93,1,92.5,8|0,0:0|0:0,0:0:0:0:
291,225,94631,5,2,0:2:0:0:
466,255,94795,1,2,0:2:0:0:
365,327,94960,1,8,0:0:0:0:
395,153,95125,1,0,0:0:0:0:
259,29,95290,2,0,P|207:45|72:29,1,185,2|8,0:2|0:0,0:0:0:0:
34,144,95785,1,8,0:0:0:0:
34,144,95867,1,8,0:0:0:0:
34,144,95950,6,0,L|52:235,1,92.5,6|0,0:2|0:0,0:0:0:0:
164,339,96279,2,0,P|208:342|256:312,1,92.5,8|0,0:0|0:0,0:0:0:0:
208,139,96609,2,0,P|164:136|116:166,1,92.5,2|0,0:2|0:0,0:0:0:0:
295,213,96939,6,0,L|387:221,1,92.5,8|0,0:2|0:0,0:0:0:0:
367,38,97268,2,0,L|274:29,1,92.5,2|0,0:2|0:0,0:0:0:0:
113,196,97598,2,0,P|100:247|119:297,1,92.5,8|0,0:0|0:0,0:0:0:0:
298,292,97928,2,0,P|311:241|292:191,1,92.5
270,87,98257,1,8,0:0:0:0:
158,40,98422,1,2,0:2:0:0:
65,201,98587,6,0,P|132:259|220:242,1,185,4|8,0:2|0:0,0:0:0:0:
338,216,99081,2,0,P|383:266|369:385,2,185,2|8|2,0:2|0:0|0:2,0:0:0:0:
316,97,99905,1,2,0:2:0:0:
196,109,100070,2,0,B|165:140|158:177|158:177|129:178|129:178|121:224|77:246,1,185,2|2,0:2|0:2,0:0:0:0:
100,360,100565,1,8,0:0:0:0:
220,345,100730,2,0,B|269:317|269:317|395:343,1,185,2|0,0:2|0:0,0:0:0:0:
432,162,101224,6,0,P|344:139|270:190,1,185,4|8,0:2|0:0,0:0:0:0:
302,72,101719,2,0,P|393:67|479:100,1,185,2|0,0:2|0:0,0:0:0:0:
383,321,102378,1,2,0:2:0:0:
383,321,102543,2,0,B|313:322|313:322|294:335,1,92.5,8|0,0:0|0:0,0:0:0:0:
145,223,102873,2,0,B|215:222|215:222|233:208,1,92.5,8|0,0:0|0:0,0:0:0:0:
331,53,103202,5,4,0:2:0:0:
305,235,103367,1,4,0:2:0:0:
433,102,103532,1,0,0:0:0:0:
252,134,103697,1,4,0:2:0:0:
416,213,103862,6,0,P|385:320|272:348,1,233.099992886353,6|2,0:0|0:0,0:0:0:0:
187,299,104521,2,0,L|173:223,1,77.6999976287842,8|2,0:0|0:0,0:0:0:0:
263,173,104851,2,0,B|299:208|351:194|351:194|325:236|339:249,1,155.399995257568,6|2,0:0|0:0,0:0:0:0:
323,119,105345,5,2,0:0:0:0:
419,313,105510,2,0,P|427:275|415:238,1,77.6999976287842
263,173,105840,1,8,0:0:0:0:
76,248,106169,1,0,0:0:0:0:
0,61,106499,6,0,B|38:43|38:43|42:114|101:136,1,155.399995257568,6|8,0:0|0:0,0:0:0:0:
196,130,106994,2,0,P|125:160|109:231,1,155.399995257568,6|8,0:0|0:0,0:0:0:0:
261,298,107488,1,6,0:0:0:0:
187,210,107653,1,0,0:0:0:0:
361,162,107818,6,0,P|358:201|340:235,1,77.6999976287842,2|2,0:0|0:0,0:0:0:0:
196,130,108147,2,0,P|198:91|217:57,1,77.6999976287842,2|0,0:0|0:0,0:0:0:0:
316,34,108477,2,0,B|358:47|358:47|405:39,1,77.6999976287842,8|2,0:0|0:0,0:0:0:0:
494,132,108807,1,8,0:0:0:0:
463,265,108972,1,2,0:0:0:0:
328,262,109136,6,0,P|273:212|200:225,2,155.399995257568,4|2|8,0:0|0:0|0:0,0:0:0:0:
250,291,109961,1,2,0:0:0:0:
331,159,110125,2,0,P|258:136|182:151,1,155.399995257568,6|0,0:0|0:0,0:0:0:0:
90,180,110620,1,2,0:0:0:0:
31,97,110785,1,2,0:0:0:0:
110,34,110950,1,0,0:0:0:0:
262,57,111114,2,0,B|304:65|304:65|337:56,1,77.6999976287842,8|0,0:0|0:0,0:0:0:0:
462,152,111444,2,0,B|429:143|429:143|387:151,1,77.6999976287842,8|0,0:0|0:0,0:0:0:0:
256,238,111774,6,0,B|221:232|196:246|196:246|184:232|184:232|147:244|96:240,1,155.399995257568,6|8,0:0|0:0,0:0:0:0:
20,288,112268,2,0,P|32:340|51:364,1,77.6999976287842,0|2,0:0|0:0,0:0:0:0:
144,335,112598,1,2,0:0:0:0:
242,357,112763,1,8,0:0:0:0:
368,262,112928,6,0,P|409:199|401:123,1,155.399995257568,6|6,0:0|0:0,0:0:0:0:
363,29,113422,2,0,B|324:44|324:44|278:41,1,77.6999976287842,6|0,0:0|0:0,0:0:0:0:
164,64,113752,5,8,0:0:0:0:
133,81,113834,1,0,0:0:0:0:
98,86,113916,1,8,0:0:0:0:
63,79,113999,1,0,0:0:0:0:
22,102,114081,5,8,0:0:0:0:
0,143,114164,1,0,0:0:0:0:
5,189,114246,1,8,0:0:0:0:
24,230,114328,1,0,0:0:0:0:
75,251,114411,5,4,0:0:0:0:
256,192,114576,12,4,119686,0:0:0:0:
170,53,124301,5,8,0:0:0:0:
124,55,124383,1,8,0:0:0:0:
86,81,124465,1,8,0:3:0:0:
69,123,124548,1,8,0:3:0:0:
77,167,124630,1,8,0:0:0:0:
225,359,124961,5,4,0:0:0:0:
299,265,125125,1,2,0:2:0:0:
391,342,125290,2,0,P|437:341|474:312,1,92.5,2|0,0:2|0:2,0:0:0:0:
444,83,125620,2,0,P|410:153|473:226,1,185,8|2,0:0|0:2,0:0:0:0:
351,215,126114,2,0,P|337:136|384:40,1,185,2|0,0:2|0:0,0:0:0:0:
489,149,126609,5,2,0:2:0:0:
272,197,126774,2,0,B|258:153|272:98|272:98|232:117|187:99,1,185
94,173,127268,1,0,0:0:0:0:
72,291,127433,1,0,0:0:0:0:
166,371,127598,6,0,L|258:357,1,92.5,2|2,0:2|0:2,0:0:0:0:
378,347,127928,1,8,0:0:0:0:
462,261,128092,1,2,0:2:0:0:
367,130,128257,2,0,P|412:121|452:142,1,92.5,8|2,0:0|0:2,0:0:0:0:
380,286,128587,1,2,0:2:0:0:
317,185,128752,6,0,B|286:189|260:172|260:172|251:197|251:197|208:163|155:189,1,185,8|2,0:0|0:2,0:0:0:0:
48,237,129246,1,2,0:2:0:0:
199,261,129411,1,0,0:0:0:0:
51,160,129576,1,8,0:0:0:0:
51,160,129658,1,2,0:2:0:0:
51,160,129741,1,2,0:2:0:0:
48,237,129906,1,8,0:0:0:0:
112,337,130070,1,8,0:0:0:0:
272,228,130235,6,0,P|291:269|278:317,1,92.5,4|2,0:0|0:2,0:0:0:0:
185,125,130565,1,8,0:0:0:0:
163,282,130730,1,2,0:2:0:0:
68,154,130895,2,0,P|55:110|71:67,1,92.5,2|2,0:2|0:2,0:0:0:0:
248,186,131224,1,0,0:0:0:0:
188,39,131389,1,8,0:0:0:0:
311,83,131554,6,0,L|408:68,1,92.5,2|2,0:2|0:2,0:0:0:0:
489,153,131884,1,8,0:0:0:0:
345,216,132048,1,2,0:2:0:0:
511,322,132213,2,0,P|477:353|432:363,1,92.5,2|2,0:2|0:2,0:0:0:0:
345,216,132543,1,0,0:0:0:0:
253,363,132708,6,0,B|234:318|193:305|193:305|220:266|191:209,1,185,4|2,0:0|0:2,0:0:0:0:
244,102,133202,2,0,B|204:109|173:88|173:88|147:102|147:102|106:76|65:93,1,185,8|2,0:0|0:2,0:0:0:0:
4,193,133697,1,2,0:2:0:0:
17,312,133862,1,8,0:0:0:0:
117,376,134026,2,0,P|193:332|191:244,1,185
16,109,134521,2,0,L|113:105,1,92.5,4|2,0:2|0:2,0:0:0:0:
181,47,134851,5,8,0:0:0:0:
180,67,134933,1,0,0:0:0:0:
181,88,135015,1,8,0:0:0:0:
182,108,135098,1,0,0:0:0:0:
183,128,135180,1,8,0:0:0:0:
185,149,135263,1,0,0:0:0:0:
186,169,135345,1,8,0:0:0:0:
187,190,135427,1,0,0:0:0:0:
190,211,135510,6,0,P|297:266|400:204,1,251.600001535645,4|2,0:0|0:3,0:0:0:0:
261,14,136499,1,0,0:0:0:0:
214,82,136664,2,0,B|162:99|89:89,2,125.800000767822,0|0|2,0:0|0:0|0:3,0:0:0:0:
316,209,137653,1,2,0:3:0:0:
93,326,137983,6,0,P|144:296|146:236,1,125.800000767822
169,112,138477,2,0,L|317:80,1,125.800000767822,0|2,0:0|0:3,0:0:0:0:
406,32,138972,1,0,0:0:0:0:
508,106,139136,1,0,0:0:0:0:
430,205,139301,1,2,0:0:0:0:
373,316,139466,6,0,L|323:384,1,62.9000003839111
221,313,139796,2,0,L|145:320,1,62.9000003839111
72,227,140125,2,0,P|61:168|23:109,1,125.800000767822
257,38,140785,6,0,P|375:70|420:182,1,251.600001535645,2|2,0:0|0:3,0:0:0:0:
285,302,141774,1,0,0:0:0:0:
285,302,141939,2,0,P|231:278|155:302,1,125.800000767822
46,58,142598,2,0,P|100:82|168:59,1,125.800000767822,2|0,0:3|0:3,0:0:0:0:
378,214,143257,6,0,L|406:341,1,125.800000767822,2|2,0:0|0:3,0:0:0:0:
316,337,143752,2,0,B|323:308|323:308|300:213,1,125.800000767822,2|2,0:3|0:3,0:0:0:0:
204,79,144411,1,0,0:0:0:0:
203,80,144741,2,0,B|181:130|233:156|199:201,1,125.800000767822,0|2,0:0|0:3,0:0:0:0:
200,369,145235,5,8,0:3:0:0:
199,201,145400,1,8,0:0:0:0:
102,337,145565,1,8,0:0:0:0:
260,285,145730,1,8,0:3:0:0:
102,234,145895,1,8,0:3:0:0:
31,96,146059,6,0,P|77:61|166:83,1,155.399995257568,4|2,0:0|0:0,0:0:0:0:
246,145,146554,1,2,0:0:0:0:
339,105,146719,1,8,0:0:0:0:
415,171,146884,1,2,0:0:0:0:
220,222,147213,6,0,B|106:235|106:235|63:295,1,155.399995257568
25,352,147708,1,2,0:0:0:0:
9,151,148037,1,8,0:0:0:0:
196,75,148367,1,2,0:0:0:0:
386,141,148697,6,0,P|408:204|363:277,1,155.399995257568,4|2,0:0|0:0,0:0:0:0:
268,307,149191,1,2,0:0:0:0:
176,263,149356,2,0,L|87:273,1,77.6999976287842,8|2,0:0|0:0,0:0:0:0:
84,69,149851,6,0,P|148:55|234:80,1,155.399995257568,2|2,0:0|0:0,0:0:0:0:
281,168,150345,1,2,0:0:0:0:
319,201,150675,2,0,B|399:215|399:215|467:187,1,155.399995257568,8|0,0:0|0:0,0:0:0:0:
346,348,151334,6,0,B|273:377|255:325|194:354,1,155.399995257568,4|2,0:0|0:0,0:0:0:0:
95,330,151829,2,0,P|73:298|74:259,1,77.6999976287842,2|8,0:0|0:0,0:0:0:0:
131,176,152158,1,2,0:0:0:0:
222,132,152323,1,2,0:0:0:0:
312,177,152488,1,2,0:0:0:0:
312,177,152818,1,2,0:0:0:0:
308,278,152983,6,0,P|240:314|166:298,1,155.399995257568,0|8,0:0|0:0,0:0:0:0:
129,204,153477,1,2,0:0:0:0:
103,20,153642,1,8,0:0:0:0:
24,124,153807,1,8,0:0:0:0:
209,98,153972,5,6,0:0:0:0:
256,192,154136,12,0,155620,0:0:0:0:
274,228,155950,5,8,0:0:0:0:
274,228,156114,2,0,P|242:195|198:184,1,92.5,8|0,0:0|0:0,0:0:0:0:
220,353,156609,5,4,0:0:0:0:
220,353,156774,2,0,B|255:314|317:310|317:310|353:331|390:319,1,185,2|2,0:2|0:2,0:0:0:0:
298,240,157268,2,0,P|211:267|145:331,1,185,8|8,0:0|0:0,0:0:0:0:
47,236,157763,2,0,P|66:195|68:149,1,92.5,6|0,0:2|0:0,0:0:0:0:
142,54,158092,1,0,0:0:0:0:
249,108,158257,1,2,0:2:0:0:
349,42,158422,2,0,L|354:147,1,92.5,2|8,0:2|0:0,0:0:0:0:
491,260,158752,2,0,L|487:167,1,92.5,2|8,0:2|0:0,0:0:0:0:
346,287,159081,6,0,B|316:298|316:298|294:287|294:287|225:318|170:285,1,185,4|8,0:1|0:0,0:0:0:0:
52,258,159576,2,0,B|67:223|51:187|51:187|77:167|77:167|50:135|72:92,1,185,0|8,0:0|0:0,0:0:0:0:
174,156,160070,1,2,0:2:0:0:
281,102,160235,1,8,0:2:0:0:
174,156,160400,6,0,L|198:340,1,185,6|2,0:2|0:2,0:0:0:0:
291,339,160812,1,2,0:2:0:0:
291,339,160895,2,0,B|350:334|350:334|378:316,1,92.5,8|0,0:0|0:0,0:0:0:0:
481,250,161224,2,0,B|487:203|487:203|473:159,1,92.5,2|0,0:2|0:0,0:0:0:0:
353,140,161554,2,0,B|347:187|347:187|361:231,1,92.5,8|0,0:0|0:0,0:0:0:0:
293,56,161884,6,0,B|225:98|165:24|114:56,1,185,4|2,0:0|0:2,0:0:0:0:
75,170,162378,1,2,0:2:0:0:
75,170,162543,2,0,B|127:164|158:187|158:187|183:178|183:178|215:197|275:176,1,185,8|8,0:0|0:0,0:0:0:0:
389,57,163037,2,0,P|471:83|467:169,1,185,6|2,0:2|0:2,0:0:0:0:
396,267,163532,1,8,0:0:0:0:
291,209,163697,2,0,B|242:191|242:191|189:205,1,92.5,0|8,0:0|0:0,0:0:0:0:
104,44,164026,2,0,B|153:62|153:62|206:48,1,92.5,0|8,0:0|0:0,0:0:0:0:
73,195,164356,6,0,P|59:284|113:356,1,185,4|8,0:0|0:0,0:0:0:0:
219,299,164851,2,0,B|265:281|296:299|296:299|319:286|319:286|354:298|400:276,1,185,2|8,0:2|0:0,0:0:0:0:
490,153,165345,2,0,P|445:147|401:159,1,92.5,0|2,0:0|0:2,0:0:0:0:
264,191,165675,1,0,0:0:0:0:
248,51,165840,6,0,L|152:62,1,92.5,4|0,0:2|0:0,0:0:0:0:
32,199,166169,2,0,L|123:188,1,92.5,4|0,0:2|0:0,0:0:0:0:
308,215,166499,2,0,P|311:169|297:125,1,92.5,4|0,0:2|0:0,0:0:0:0:
138,29,166829,2,0,P|134:74|148:118,1,92.5,4|0,0:2|0:0,0:0:0:0:
71,287,167158,6,0,B|103:320|156:312|156:312|185:336|245:326,1,185,4|8,0:0|0:0,0:0:0:0:
205,211,167653,2,0,P|183:124|238:52,1,185,2|2,0:2|0:2,0:0:0:0:
353,24,168147,1,8,0:0:0:0:
445,186,168312,2,0,B|443:224|423:252|423:252|446:290|446:290|414:322|422:356,1,185,6|2,0:2|0:2,0:0:0:0:
236,338,168807,6,0,B|202:329|202:329|144:334,1,92.5,8|0,0:0|0:0,0:0:0:0:
128,150,169136,2,0,B|162:159|162:159|219:153,1,92.5,2|0,0:2|0:0,0:0:0:0:
259,38,169466,1,8,0:0:0:0:
406,150,169631,1,2,0:2:0:0:
406,150,169713,1,0,0:0:0:0:
406,150,169796,6,0,P|434:235|399:318,1,185,6|8,0:2|0:0,0:0:0:0:
278,303,170290,2,0,B|255:268|207:267|207:267|161:305|107:285,1,185,2|2,0:2|0:2,0:0:0:0:
146,147,170785,1,8,0:0:0:0:
43,83,170950,2,0,B|88:85|124:50|124:50|150:65|150:65|178:45|215:51,1,185,6|2,0:2|0:2,0:0:0:0:
322,97,171444,1,8,0:0:0:0:
438,65,171609,5,0,0:0:0:0:
391,176,171774,2,0,L|400:283,1,92.5,2|2,0:2|0:2,0:0:0:0:
293,327,172103,1,8,0:0:0:0:
260,145,172268,1,2,0:2:0:0:
260,145,172351,1,0,0:0:0:0:
260,145,172433,6,0,P|201:80|115:99,1,185,4|8,0:0|0:0,0:0:0:0:
48,199,172928,1,2,0:2:0:0:
90,310,173092,2,0,P|132:320|192:308,1,92.5,2|2,0:2|0:2,0:0:0:0:
245,210,173422,1,8,0:0:0:0:
168,116,173587,2,0,B|202:87|245:89|245:89|287:112|343:93,1,185,2|2,0:2|0:2,0:0:0:0:
447,165,174081,5,8,0:0:0:0:
421,282,174246,1,0,0:0:0:0:
310,330,174411,2,0,P|266:327|217:299,1,92.5,2|2,0:2|0:2,0:0:0:0:
261,123,174741,2,0,P|304:125|354:154,1,92.5,8|2,0:2|0:2,0:0:0:0:
425,56,175070,5,2,0:2:0:0:
308,26,175235,1,0,0:0:0:0:
189,49,175400,2,0,B|142:64|142:64|99:57,1,92.5,8|0,0:3|0:0,0:0:0:0:
50,170,175730,1,0,0:0:0:0:
116,270,175895,1,8,0:3:0:0:
212,200,176059,1,4,0:3:0:0:
333,217,176224,2,0,P|352:303|293:393,1,185,6|0,0:2|0:0,0:0:0:0:
418,337,176719,2,0,P|426:286|417:241,1,92.5,8|2,0:0|0:2,0:0:0:0:
389,166,177048,5,8,0:0:0:0:
365,148,177130,1,0,0:0:0:0:
334,140,177212,1,8,0:0:0:0:
304,146,177295,1,0,0:0:0:0:
267,164,177377,5,8,0:0:0:0:
289,198,177460,1,0,0:0:0:0:
299,237,177542,1,8,0:0:0:0:
290,276,177624,1,0,0:0:0:0:
261,300,177708,6,0,P|217:295|191:259,1,92.5,4|2,0:0|0:2,0:0:0:0:
376,246,178037,1,8,0:0:0:0:
316,71,178202,2,0,P|232:107|186:186,1,185,2|2,0:2|0:2,0:0:0:0:
174,65,178697,2,0,P|208:35|255:16,1,92.5,8|0,0:0|0:0,0:0:0:0:
333,217,179026,1,2,0:2:0:0:
186,185,179191,1,2,0:2:0:0:
396,263,179356,6,0,P|359:290|313:291,1,92.5,8|0,0:2|0:2,0:0:0:0:
135,237,179686,2,0,P|114:198|120:153,1,92.5,2|2,0:2|0:2,0:0:0:0:
279,177,180015,1,8,0:0:0:0:
221,359,180180,1,2,0:2:0:0:
135,237,180345,6,0,B|83:257|83:257|46:255,1,92.5,2|2,0:2|0:2,0:0:0:0:
16,51,180675,1,8,0:0:0:0:
16,51,180840,2,0,B|79:81|141:50|141:50|164:100,1,185,2|2,0:2|0:2,0:0:0:0:
248,266,181334,1,0,0:0:0:0:
248,266,181499,2,0,P|209:288|163:284,1,92.5,8|0,0:0|0:2,0:0:0:0:
234,128,181829,1,2,0:2:0:0:
312,219,181994,6,0,B|404:218,1,92.5,8|8,0:0|0:3,0:0:0:0:
482,166,182241,1,0,0:0:0:0:
482,166,182323,2,0,B|478:110|478:110|496:73,1,92.5,8|2,0:3|0:2,0:0:0:0:
374,95,182653,1,8,0:0:0:0:
267,38,182818,1,0,0:0:0:0:
134,175,182983,6,0,B|79:175|79:175|35:193,1,92.5,4|2,0:0|0:2,0:0:0:0:
65,307,183312,1,8,0:0:0:0:
69,104,183477,2,0,L|258:104,1,185,2|2,0:2|0:2,0:0:0:0:
299,216,183972,1,8,0:0:0:0:
230,30,184136,1,0,0:0:0:0:
337,143,184301,2,0,P|342:98|330:54,1,92.5,2|2,0:2|0:2,0:0:0:0:
299,216,184631,5,8,0:0:0:0:
470,237,184796,1,0,0:0:0:0:
355,363,184961,2,0,P|347:317|353:272,1,92.5,2|2,0:2|0:2,0:0:0:0:
259,150,185290,1,8,0:0:0:0:
144,252,185455,1,2,0:2:0:0:
62,62,185620,6,0,B|56:129|56:129|61:153,1,92.5,2|2,0:2|0:2,0:0:0:0:
144,252,185950,1,8,0:0:0:0:
257,310,186114,2,0,B|304:296|319:254|319:254|369:281|418:254,1,185,2|2,0:2|0:2,0:0:0:0:
248,236,186609,1,0,0:0:0:0:
368,186,186774,1,8,0:0:0:0:
436,324,186939,2,0,P|392:338|340:336,1,92.5,2|2,0:2|0:2,0:0:0:0:
248,236,187268,1,12,0:2:0:0:
139,82,187433,5,8,0:3:0:0:
139,112,187515,1,0,0:0:0:0:
139,142,187598,2,0,L|138:234,1,92.5,8|2,0:3|0:2,0:0:0:0:
56,279,187928,1,4,0:3:0:0:
222,279,188092,1,4,0:3:0:0:
313,129,188257,5,6,0:2:0:0:
416,237,188422,1,0,0:0:0:0:
477,101,188587,1,0,0:0:0:0:
323,139,188752,5,4,0:3:0:0:
405,264,188917,1,0,0:0:0:0:
489,140,189082,1,0,0:0:0:0:
331,152,189246,5,8,0:0:0:0:
390,289,189411,1,4,0:3:0:0:
494,182,189576,1,4,0:3:0:0:
403,103,189741,5,4,0:2:0:0:
316,265,189906,1,6,0:2:0:0:
167,159,190070,1,2,0:2:0:0:
167,310,190235,2,0,P|86:344|21:285,1,185,6|4,0:2|0:2,0:0:0:0:
20,136,190730,1,0,0:0:0:0:
100,263,190895,5,6,0:2:0:0:
325,108,191059,1,6,0:2:0:0:
