osu file format v14

[General]
AudioFilename: 04. Beautiful ground192.mp3
AudioLeadIn: 1495
PreviewTime: 53092
Countdown: 0
SampleSet: Normal
StackLeniency: 0.7
Mode: 0
LetterboxInBreaks: 0
WidescreenStoryboard: 0

[Editor]
DistanceSpacing: 1.2
BeatDivisor: 4
GridSize: 4
TimelineZoom: 2.7

[Metadata]
Title:Beautiful ground
TitleUnicode:Beautiful ground
Artist:nano x yuyoyuppe
ArtistUnicode:ナノ×ゆよゆっぺ
Creator:theramdans
Version:Hard
Source:
Tags:nanoir A_Mystery
BeatmapID:495782
BeatmapSetID:206737

[Difficulty]
HPDrainRate:5
CircleSize:4
OverallDifficulty:6
ApproachRate:8
SliderMultiplier:1.5
SliderTickRate:1

[Events]
//Background and Video events
0,0,"BGBG.jpg",0,0
//Break Periods
2,75051,81848
2,119886,123551
//Storyboard Layer 0 (Background)
//Storyboard Layer 1 (Fail)
//Storyboard Layer 2 (Pass)
//Storyboard Layer 3 (Foreground)
//Storyboard Sound Samples

[TimingPoints]
1005,329.67032967033,4,1,1,65,1,0
1499,-100,4,2,1,55,0,0
3477,-100,4,1,1,65,0,0
4136,-100,4,2,1,55,0,0
6114,-100,4,1,1,65,0,0
6774,-100,4,2,1,55,0,0
8752,-100,4,1,1,65,0,0
22103,-100,4,2,1,50,0,0
32653,-100,4,1,1,55,0,0
43202,-100,4,2,1,50,0,0
53752,-100,4,1,1,65,0,1
72048,-100,4,1,1,65,0,0
72213,-100,4,1,1,65,0,1
72378,-100,4,2,1,60,0,0
82763,-100,4,2,1,50,0,0
93312,-100,4,1,1,55,0,0
103862,-100,4,2,1,50,0,0
114411,-100,4,1,1,55,0,0
135510,-142.857142857143,4,2,0,30,0,0
145235,-111.111111111111,4,2,1,35,0,0
146059,-111.111111111111,4,2,1,45,0,0
154136,-111.111111111111,4,2,1,5,0,0
155950,-111.111111111111,4,1,1,55,0,0
156609,-100,4,1,1,65,0,1
177543,-100,4,1,1,65,0,0
177708,-100,4,1,1,65,0,1
177873,-100,4,1,1,60,0,0

[Colours]
Combo1 : 247,108,6
Combo2 : 6,168,176
Combo3 : 255,51,255
Combo4 : 0,255,0

[HitObjects]
30,207,1005,5,8,0:0:0:0:
85,126,1169,1,2,0:2:0:0:
179,155,1334,1,8,0:0:0:0:
245,83,1499,6,0,P|311:112|376:80,1,150,2|2,0:0|0:0,0:0:0:0:
464,102,1994,1,2,0:3:0:0:
495,185,2158,1,0,0:0:0:0:
475,272,2323,2,0,P|439:282|402:275,1,75,2|0,0:0|0:0,0:0:0:0:
352,199,2653,2,0,P|316:188|279:195,1,75,2|0,0:3|0:0,0:0:0:0:
241,277,2983,2,0,B|199:293|199:293|159:287,1,75,2|0,0:0|0:0,0:0:0:0:
79,294,3312,1,2,0:3:0:0:
133,186,3477,5,8,0:0:0:0:
30,144,3642,2,0,P|54:115|90:107,1,75,8|8,0:0|0:0,0:0:0:0:
133,186,3972,1,8,0:0:0:0:
186,114,4136,2,0,B|222:98|222:98|271:121|331:96,1,150,2|2,0:0|0:0,0:0:0:0:
408,52,4631,2,0,P|445:54|480:67,1,75,2|0,0:3|0:0,0:0:0:0:
501,156,4961,1,2,0:0:0:0:
461,237,5125,1,0,0:0:0:0:
377,202,5290,2,0,P|338:199|302:214,1,75,6|0,0:2|0:0,0:0:0:0:
333,298,5620,2,0,L|344:340,4,37.5,6|4|4|4|6,0:0|0:3|0:3|0:3|0:0,0:0:0:0:
178,149,6279,6,0,P|214:144|244:122,2,75,8|2|8,0:0|0:2|0:0,0:0:0:0:
118,217,6774,2,0,B|57:180|57:180|40:103,1,150,2|2,0:0|0:0,0:0:0:0:
75,20,7268,1,8,0:0:0:0:
159,50,7433,1,8,0:0:0:0:
244,21,7598,1,8,0:0:0:0:
319,71,7763,2,0,P|351:134|421:128,1,150,8|0,0:0|0:3,0:0:0:0:
474,201,8257,2,0,L|466:284,1,75,8|0,0:3|0:0,0:0:0:0:
382,309,8587,2,0,L|389:234,1,75,8|0,0:3|0:0,0:0:0:0:
280,161,8917,5,8,0:0:0:0:
201,117,9081,1,2,0:2:0:0:
136,180,9246,1,8,0:0:0:0:
170,263,9411,2,0,B|193:299|230:305|230:305|259:275|297:280,1,150,2|2,0:2|0:2,0:0:0:0:
387,285,9906,1,8,0:0:0:0:
463,238,10070,1,12,0:2:0:0:
475,148,10235,6,0,P|480:85|470:63,2,75,2|2|8,0:2|0:2|0:0,0:0:0:0:
392,111,10730,2,0,P|355:102|319:109,1,75,2|8,0:2|0:3,0:0:0:0:
283,191,11059,1,8,0:3:0:0:
200,228,11224,2,0,B|170:243|170:243|155:228|155:228|116:246|61:230,1,150,8|4,0:2|0:1,0:0:0:0:
32,144,11719,5,2,0:2:0:0:
88,76,11884,1,8,0:0:0:0:
176,60,12048,2,0,B|204:72|232:60|232:60|268:84|268:84|290:73|316:80,1,150,2|2,0:2|0:2,0:0:0:0:
380,144,12543,1,8,0:0:0:0:
465,168,12708,2,0,P|412:224|339:224,1,150,2|2,0:2|0:2,0:0:0:0:
380,144,13202,5,8,0:0:0:0:
324,72,13367,1,0,0:0:0:0:
249,122,13532,2,0,B|206:137|206:137|160:134,1,75,2|2,0:2|0:2,0:0:0:0:
97,90,13862,2,0,B|67:88|67:88|24:103,1,75,8|0,0:2|0:0,0:0:0:0:
34,192,14191,5,2,0:2:0:0:
101,251,14356,1,2,0:2:0:0:
171,194,14521,1,8,0:0:0:0:
245,144,14686,2,0,P|255:216|206:276,1,150,2|2,0:2|0:2,0:0:0:0:
215,363,15180,5,2,0:2:0:0:
290,313,15345,2,0,P|328:248|338:174,1,150,8|2,0:2|0:2,0:0:0:0:
311,88,15840,1,8,0:0:0:0:
393,51,16005,2,0,L|452:44,2,37.5,8|0|8,0:3|0:0|0:3,0:0:0:0:
311,88,16334,1,2,0:2:0:0:
238,35,16499,2,0,P|222:68|223:105,1,75,8|2,0:0|0:2,0:0:0:0:
278,176,16829,6,0,P|246:193|209:194,2,75,4|2|8,0:0|0:2|0:0,0:0:0:0:
344,237,17323,2,0,B|369:256|404:247|404:247|383:290|401:331,1,150,2|2,0:2|0:2,0:0:0:0:
483,293,17818,1,8,0:0:0:0:
496,203,17983,1,2,0:2:0:0:
418,158,18147,2,0,P|383:172|347:163,1,75,2|2,0:2|0:2,0:0:0:0:
280,102,18477,6,0,P|245:87|209:96,1,75,8|0,0:0|0:0,0:0:0:0:
157,170,18807,2,0,L|162:262,1,75,2|2,0:2|0:2,0:0:0:0:
145,333,19136,1,8,0:0:0:0:
62,368,19301,1,2,0:2:0:0:
30,283,19466,6,0,L|25:208,1,75,2|2,0:2|0:2,0:0:0:0:
34,117,19796,1,8,0:0:0:0:
99,54,19961,2,0,B|162:86|185:35|245:59,1,150,2|2,0:2|0:2,0:0:0:0:
300,129,20455,1,2,0:2:0:0:
381,165,20620,6,0,P|324:211|252:203,1,150,8|2,0:0|0:2,0:0:0:0:
199,275,21114,1,8,0:0:0:0:
127,330,21279,2,0,P|106:259|155:194,1,150,4|8,0:0|0:3,0:0:0:0:
166,110,21774,1,8,0:3:0:0:
222,39,21939,1,8,0:3:0:0:
83,74,22103,6,0,L|25:25,2,75,4|0|2,0:0|0:2|0:0,0:0:0:0:
166,110,22598,2,0,B|192:69|237:72|237:72|309:105|374:60,1,225,2|2,0:0|0:3,0:0:0:0:
381,151,23257,2,0,P|408:140|452:104,2,75,0|2|0,0:0|0:0|0:0,0:0:0:0:
293,175,23752,2,0,P|259:163|222:167,1,75,2|0,0:3|0:0,0:0:0:0:
131,153,24081,2,0,B|84:187|84:187|92:237|61:273,1,150,2|2,0:0|0:3,0:0:0:0:
115,346,24576,1,8,0:0:0:0:
204,332,24741,6,0,P|276:345|342:312,1,150,2|2,0:0|0:3,0:0:0:0:
416,261,25235,1,0,0:0:0:0:
474,193,25400,2,0,P|403:174|340:212,1,150,2|2,0:0|0:3,0:0:0:0:
265,154,25895,1,0,0:0:0:0:
190,105,26059,2,0,P|115:104|47:73,2,150,2|2|2,0:0|0:3|0:0,0:0:0:0:
275,73,26884,2,0,P|345:91|385:153,1,150,8|8,0:2|0:2,0:0:0:0:
472,179,27378,6,0,P|399:179|351:234,1,150,6|2,0:0|0:0,0:0:0:0:
292,302,27873,2,0,L|138:315,1,150,0|2,0:0|0:0,0:0:0:0:
55,291,28367,1,8,0:0:0:0:
29,204,28532,2,0,P|31:130|85:81,1,150,0|2,0:0|0:0,0:0:0:0:
169,49,29026,1,8,0:0:0:0:
242,98,29191,2,0,P|313:121|384:101,1,150,2|8,0:0|0:0,0:0:0:0:
474,113,29686,1,2,0:0:0:0:
491,202,29851,1,8,0:0:0:0:
443,278,30015,6,0,P|377:300|313:259,1,150,2|8,0:0|0:0,0:0:0:0:
247,196,30510,2,0,B|222:169|182:171|182:171|154:192|105:187,1,150
20,160,31005,1,8,0:0:0:0:
59,79,31169,1,0,0:0:0:0:
147,70,31334,2,0,P|222:65|289:96,1,150,6|8,0:0|0:0,0:0:0:0:
353,158,31829,1,0,0:0:0:0:
418,223,31994,2,0,L|476:216,4,37.5,4|4|4|4|8,0:3|0:3|0:3|0:3|0:0,0:0:0:0:
330,242,32488,1,0,0:0:0:0:
227,173,32653,6,0,L|156:195,1,75,6|0,0:2|0:0,0:0:0:0:
64,194,32983,1,8,0:0:0:0:
76,106,33147,2,0,P|134:62|204:79,1,150,2|2,0:2|0:2,0:0:0:0:
293,96,33642,1,8,0:0:0:0:
365,42,33807,1,0,0:0:0:0:
436,97,33972,6,0,P|440:134|437:171,1,75,2|0,0:2|0:2,0:2:0:0:
406,256,34301,2,0,P|367:270|326:267,1,75,8|0,0:0|0:0,0:0:0:0:
264,211,34631,2,0,P|195:227|132:281,1,150,2|8,0:2|0:0,0:0:0:0:
75,344,35125,1,2,0:2:0:0:
97,208,35290,6,0,P|156:163|227:142,1,150,2|8,0:2|0:0,0:0:0:0:
307,98,35785,1,2,0:2:0:0:
229,51,35950,2,0,B|192:57|153:36|153:36|113:57|128:109,1,150,2|8,0:2|0:0,0:0:0:0:
144,183,36444,1,8,0:2:0:0:
155,272,36609,2,0,L|9:323,2,150,2|8|2,0:2|0:0|0:2,0:0:0:0:
245,274,37433,1,2,0:2:0:0:
317,327,37598,1,8,0:0:0:0:
404,303,37763,1,2,0:2:0:0:
457,229,37928,6,0,P|467:156|451:83,1,150,6|8,0:2|0:0,0:0:0:0:
361,82,38422,2,0,P|352:120|370:237,1,150,2|8,0:2|0:0,0:0:0:0:
305,296,38917,1,8,0:0:0:0:
217,314,39081,2,0,B|159:302|128:336|69:314,2,150,2|2|8,0:2|0:2|0:0,0:0:0:0:
305,296,39906,2,0,P|362:309|391:316,2,75,2|2|8,0:2|0:2|0:0,0:0:0:0:
243,230,40400,1,2,0:2:0:0:
160,194,40565,6,0,B|130:171|130:171|70:192|14:173,1,150,6|8,0:2|0:0,0:0:0:0:
20,84,41059,2,0,P|93:88|159:53,1,150,2|2,0:2|0:2,0:0:0:0:
249,47,41554,1,8,0:2:0:0:
314,109,41719,2,0,P|333:68|331:30,2,75,2|8|2,0:2|0:0|0:2,0:0:0:0:
340,195,42213,5,8,0:0:0:0:
300,276,42378,1,0,0:0:0:0:
216,245,42543,2,0,L|139:264,1,75,4|0,0:2|0:0,0:0:0:0:
78,186,42873,2,0,L|150:168,1,75,4|0,0:2|0:0,0:0:0:0:
238,145,43202,6,0,P|334:190|414:120,1,225,6|0,0:0|0:0,0:0:0:0:
484,177,43862,2,0,P|448:229|436:237,1,75,8|2,0:0|0:0,0:0:0:0:
352,261,44191,2,0,B|314:269|287:261|287:261|254:284|254:284|237:277|210:284,1,150,6|0,0:0|0:0,0:0:0:0:
148,218,44686,1,2,0:0:0:0:
215,158,44851,2,0,P|208:114|224:79,1,75,2|0,0:0|0:0,0:0:0:0:
145,33,45180,2,0,P|72:29|25:85,1,150,10|0,0:0|0:0,0:0:0:0:
33,265,45840,6,0,B|66:243|66:243|115:262|174:243,1,150,6|2,0:0|0:0,0:0:0:0:
226,170,46334,2,0,P|262:224|241:305,1,150,2|0,0:0|0:0,0:0:0:0:
340,199,46829,2,0,P|328:164|302:131,1,75,4|0,0:0|0:0,0:0:0:0:
387,96,47158,2,0,B|419:129|426:177|426:177|465:177|496:202,1,150,2|4,0:0|0:3,0:0:0:0:
445,274,47653,2,0,P|383:314|310:308,1,150,2|0,0:0|0:0,0:0:0:0:
228,271,48147,1,8,0:0:0:0:
199,185,48312,1,8,0:0:0:0:
253,114,48477,6,0,P|179:100|118:147,2,150,6|2|8,0:0|0:0|0:0,0:0:0:0:
332,69,49301,1,0,0:0:0:0:
412,108,49466,2,0,B|432:153|387:216|411:255,1,150,6|2,0:0|0:0,0:0:0:0:
335,305,49961,1,2,0:0:0:0:
335,305,50125,2,0,B|257:336|257:336|192:317,1,150,2|12,0:0|0:0,0:0:0:0:
125,257,50620,1,0,0:0:0:0:
92,173,50785,2,0,B|54:166|54:166|20:181,1,75,6|0,0:0|0:0,0:0:0:0:
92,173,51114,6,0,P|160:141|234:142,1,150,6|8,0:0|0:0,0:0:0:0:
312,97,51609,2,0,P|319:161|260:228,1,150,2|8,0:0|0:0,0:0:0:0:
189,268,52103,1,8,0:0:0:0:
238,343,52268,2,0,B|317:335|317:335|402:353,1,150,6|8,0:0|0:0,0:0:0:0:
408,261,52763,2,0,L|334:245,1,75,8|2,0:0|0:0,0:0:0:0:
287,168,53092,1,8,0:3:0:0:
307,80,53257,1,8,0:3:0:0:
128,281,53752,6,0,P|35:234|64:134,1,225,4|2,0:0|0:2,0:0:0:0:
105,53,54411,2,0,P|179:64|249:39,1,150,8|2,0:0|0:2,0:0:0:0:
339,42,54906,2,0,B|379:102|379:102|356:143|379:182,1,150,6|2,0:2|0:2,0:0:0:0:
360,265,55400,1,8,0:2:0:0:
286,212,55565,2,0,B|276:174|231:161|231:161|217:90,1,150,2|2,0:2|0:2,0:0:0:0:
130,67,56059,1,8,0:0:0:0:
66,130,56224,6,0,B|46:179|97:223|74:284,1,150,4|0,0:1|0:0,0:0:0:0:
152,324,56719,2,0,P|225:359|287:327,1,150,2|8,0:2|0:0,0:0:0:0:
311,246,57213,1,2,0:2:0:0:
256,174,57378,1,2,0:2:0:0:
166,188,57543,2,0,P|123:186|15:190,1,150,6|2,0:2|0:2,0:0:0:0:
28,100,58037,2,0,P|71:96|101:96,1,75,8|0,0:0|0:0,0:0:0:0:
102,277,58367,2,0,P|65:280|28:280,2,75,8|2|8,0:0|0:2|0:0,0:0:0:0:
59,196,58862,1,2,0:2:0:0:
136,151,59026,6,0,B|180:117|238:158|238:158|306:156|312:80,1,225,4|2,0:0|0:2,0:0:0:0:
396,54,59686,2,0,P|400:96|396:132,1,75,8|2,0:0|0:2,0:0:0:0:
387,218,60015,1,8,0:0:0:0:
363,304,60180,2,0,P|289:317|215:309,1,150,6|8,0:2|0:0,0:0:0:0:
129,281,60675,1,0,0:0:0:0:
56,227,60840,2,0,B|43:151|43:151|78:73,1,150,2|8,0:2|0:0,0:0:0:0:
162,87,61334,1,2,0:2:0:0:
235,36,61499,6,0,B|265:92|232:139|232:139|248:178,1,150,4|2,0:1|0:2,0:0:0:0:
336,192,61994,2,0,P|410:187|471:228,2,150,8|2|8,0:0|0:2|0:0,0:0:0:0:
296,273,62818,1,2,0:2:0:0:
210,301,62983,2,0,L|58:313,1,150,6|8,0:2|0:0,0:0:0:0:
48,132,63642,1,6,0:2:0:0:
210,54,63972,1,4,0:2:0:0:
176,230,64301,6,0,P|233:273|303:254,1,150,4|8,0:0|0:0,0:0:0:0:
336,169,64796,2,0,B|354:154|395:151|395:151|427:175|478:165,1,150,2|2,0:2|0:2,0:0:0:0:
449,79,65290,1,8,0:0:0:0:
366,42,65455,2,0,B|309:28|283:67|214:43,1,150,2|2,0:2|0:2,0:0:0:0:
144,96,65950,2,0,P|123:166|61:206,2,150,8|2|8,0:0|0:2|0:0,0:0:0:0:
214,152,66774,1,0,0:0:0:0:
284,209,66939,6,0,L|296:362,1,150,6|8,0:2|0:0,0:0:0:0:
385,349,67433,2,0,P|409:279|385:209,1,150,2|8,0:2|0:0,0:0:0:0:
335,133,67928,1,0,0:0:0:0:
271,70,68092,2,0,B|238:115|238:115|186:92|131:115|131:115|92:68,1,225,2|8,0:2|0:0,0:0:0:0:
46,147,68752,1,2,0:2:0:0:
43,236,68917,2,0,P|40:274|48:310,1,75,2|2,0:2|0:2,0:0:0:0:
123,345,69246,1,8,0:0:0:0:
210,323,69411,1,2,0:2:0:0:
222,235,69576,6,0,P|272:187|359:183,1,150,4|8,0:0|0:0,0:0:0:0:
433,213,70070,2,0,P|481:263|485:350,2,150,2|8|0,0:2|0:3|0:0,0:0:0:0:
376,51,71059,1,0,0:0:0:0:
376,51,71224,2,0,L|452:47,1,75,12|0,0:2|0:0,0:0:0:0:
480,124,71554,2,0,L|405:127,1,75,12|0,0:2|0:0,0:0:0:0:
334,184,71884,1,0,0:0:0:0:
165,120,72213,5,4,0:0:0:0:
256,192,72378,12,2,74851,0:0:0:0:
360,135,82598,6,0,L|424:85,2,75,2|4|2,0:3|0:1|0:2,0:0:0:0:
299,201,83092,1,2,0:3:0:0:
209,206,83257,2,0,P|138:197|84:134,1,150,2|2,0:0|0:0,0:0:0:0:
45,317,83917,1,2,0:3:0:0:
45,317,84081,6,0,B|135:328|135:328|192:364,1,150,2|2,0:0|0:0,0:0:0:0:
275,360,84576,1,2,0:3:0:0:
361,334,84741,1,0,0:0:0:0:
404,255,84906,1,0,0:0:0:0:
244,172,85235,1,2,0:3:0:0:
244,172,85400,6,0,P|241:97|275:32,2,150,2|0|8,0:0|0:0|0:0,0:0:0:0:
420,209,86389,1,2,0:0:0:0:
266,303,86719,2,0,L|110:319,2,150,2|2|8,0:0|0:0|0:0,0:0:0:0:
344,259,87543,1,2,0:0:0:0:
420,209,87708,2,0,L|415:132,1,75,8|2,0:0|0:0,0:0:0:0:
335,95,88037,6,0,P|261:86|187:97,1,150,6|2,0:0|0:3,0:0:0:0:
121,35,88532,2,0,P|153:101|136:172,1,150,0|2,0:0|0:0,0:0:0:0:
56,213,89026,1,2,0:0:0:0:
48,302,89191,2,0,B|82:304|106:287|106:287|162:274|205:309,1,150,2|2,0:0|0:0,0:0:0:0:
264,244,89686,1,2,0:0:0:0:
281,155,89851,1,0,0:0:0:0:
244,73,90015,2,0,L|173:36,2,75,8|2|2,0:0|0:2|0:2,0:0:0:0:
334,63,90510,1,2,0:3:0:0:
416,29,90675,6,0,P|445:97|429:169,1,150,0|2,0:0|0:0,0:0:0:0:
495,231,91169,2,0,P|426:202|354:217,1,150,2|0,0:0|0:0,0:0:0:0:
281,164,91664,1,2,0:3:0:0:
216,100,91829,6,0,B|187:130|191:173|191:173|150:173|128:200,1,150,6|2,0:0|0:0,0:0:0:0:
192,262,92323,1,8,0:0:0:0:
170,349,92488,1,2,0:0:0:0:
255,376,92653,2,0,P|300:381|329:370,1,75,12|2,0:0|0:0,0:0:0:0:
287,289,92983,1,6,0:0:0:0:
336,213,93147,1,0,0:0:0:0:
440,275,93312,5,4,0:0:0:0:
440,275,93477,2,0,P|488:216|473:142,1,150,2|8,0:2|0:0,0:0:0:0:
428,70,93972,2,0,B|391:43|350:46|350:46|324:77|281:73,1,150,2|2,0:2|0:2,0:0:0:0:
205,48,94466,1,0,0:0:0:0:
119,20,94631,2,0,P|110:58|122:98,1,75,2|2,0:2|0:2,0:0:0:0:
184,198,94961,2,0,P|193:160|181:120,1,75,8|2,0:2|0:2,0:0:0:0:
92,214,95290,2,0,B|141:265|141:265|219:287,1,150,2|8,0:2|0:0,0:0:0:0:
288,229,95785,1,2,0:2:0:0:
371,273,95950,6,0,P|376:201|328:145,1,150,6|8,0:2|0:0,0:0:0:0:
245,112,96444,1,2,0:2:0:0:
270,25,96609,2,0,B|350:45|350:45|416:31,1,150,2|8,0:2|0:0,0:0:0:0:
471,102,97103,1,2,0:2:0:0:
466,191,97268,2,0,B|445:234|445:234|466:278|432:347,2,150,2|8|2,0:2|0:0|0:2,0:0:0:0:
380,161,98092,1,2,0:2:0:0:
352,83,98257,2,0,P|321:103|301:135,1,75,8|2,0:0|0:2,0:0:0:0:
304,19,98587,6,0,P|247:67|217:134,1,150,6|8,0:2|0:0,0:0:0:0:
269,207,99081,2,0,B|215:234|171:209|171:209|128:232,2,150,2|8|2,0:2|0:0|0:2,0:0:0:0:
335,145,99906,1,0,0:0:0:0:
422,162,100070,1,2,0:2:0:0:
422,162,100235,2,0,B|426:311,1,150,2|8,0:2|0:0,0:0:0:0:
343,346,100730,1,2,0:2:0:0:
264,302,100895,1,2,0:2:0:0:
176,321,101059,1,2,0:2:0:0:
176,321,101224,6,0,P|109:358|40:342,1,150,6|8,0:2|0:0,0:0:0:0:
98,265,101719,2,0,P|102:221|181:159,1,150,2|2,0:2|0:2,0:0:0:0:
266,133,102213,1,8,0:0:0:0:
349,96,102378,2,0,L|344:16,2,75,2|8|2,0:2|0:0|0:2,0:0:0:0:
384,179,102873,1,8,0:0:0:0:
469,204,103037,1,2,0:2:0:0:
469,204,103120,1,2,0:2:0:0:
469,204,103202,2,0,B|446:253|409:261|409:261|397:296|404:324,1,150,8|4,0:0|0:0,0:0:0:0:
315,342,103697,1,0,0:0:0:0:
224,339,103862,6,0,B|149:314|100:348|100:348|41:352|8:298,1,225,4|2,0:0|0:0,0:0:0:0:
27,220,104521,1,8,0:0:0:0:
85,151,104686,1,2,0:0:0:0:
36,75,104851,2,0,P|108:67|168:116,1,150,6|2,0:0|0:0,0:0:0:0:
254,131,105345,5,2,0:0:0:0:
344,134,105510,2,0,P|335:168|306:207,1,75,2|0,0:0|0:0,0:0:0:0:
310,291,105840,2,0,B|259:308|220:291|220:291|194:299|181:331,1,150,8|2,0:0|0:0,0:0:0:0:
92,313,106334,1,0,0:0:0:0:
11,272,106499,6,0,L|39:115,1,150,6|0,0:0|0:0,0:0:0:0:
66,38,106994,2,0,P|137:17|201:51,1,150,6|0,0:0|0:0,0:0:0:0:
185,139,107488,1,6,0:0:0:0:
258,190,107653,1,2,0:0:0:0:
268,100,107818,6,0,P|341:87|409:117,1,150,6|2,0:0|0:0,0:0:0:0:
449,196,108312,1,0,0:0:0:0:
387,261,108477,2,0,P|314:273|251:235,1,150,8|8,0:0|0:0,0:0:0:0:
201,159,108972,1,8,0:0:0:0:
117,192,109136,6,0,P|51:226|25:295,2,150,6|2|8,0:0|0:0|0:0,0:0:0:0:
175,261,109961,1,0,0:0:0:0:
261,239,110125,2,0,B|312:239|312:239|350:257|350:257|408:257,2,150,6|0|2,0:0|0:0|0:0,0:0:0:0:
179,111,111114,1,6,0:0:0:0:
179,111,111444,1,12,0:0:0:0:
352,61,111774,6,0,B|371:87|405:88|405:88|435:56|486:63,1,150,6|8,0:0|0:0,0:0:0:0:
471,151,112268,2,0,P|479:224|447:291,1,150,2|8,0:0|0:0,0:0:0:0:
362,322,112763,1,8,0:0:0:0:
275,297,112928,2,0,B|223:268|223:268|189:303|132:291,1,150,6|6,0:0|0:0,0:0:0:0:
161,204,113422,2,0,L|205:137,1,75,6|0,0:0|0:0,0:0:0:0:
289,118,113752,6,0,L|289:79,3,37.5,8|4|4|0,0:0|0:3|0:3|0:0,0:0:0:0:
330,160,114081,2,0,L|327:196,3,37.5,8|4|4|0,0:0|0:3|0:3|0:0,0:0:0:0:
380,126,114411,1,4,0:0:0:0:
256,192,114576,12,4,119686,0:0:0:0:
162,305,124301,6,0,L|197:321,4,37.5,8|0|8|0|8,0:3|0:0|0:3|0:0|0:0,0:0:0:0:
59,155,124961,6,0,P|40:104|40:83,2,75,4|0|8,0:0|0:0|0:0,0:0:0:0:
144,126,125455,1,2,0:2:0:0:
181,44,125620,2,0,B|227:33|227:33|273:49|333:34,1,150,2|8,0:2|0:0,0:0:0:0:
406,60,126114,2,0,B|383:92|383:92|383:168|383:168|406:199,1,150,2|2,0:2|0:2,0:0:0:0:
329,247,126609,1,8,0:0:0:0:
329,247,126774,2,0,B|352:279|352:279|352:355|352:355|331:382,1,150,2|2,0:2|0:2,0:0:0:0:
424,354,127268,2,0,L|423:280,1,75,8|0,0:0|0:0,0:0:0:0:
279,316,127598,6,0,P|236:330|201:328,2,75,2|0|8,0:2|0:0|0:0,0:0:0:0:
272,226,128092,1,0,0:0:0:0:
206,164,128257,2,0,P|143:202|127:273,1,150,2|8,0:2|0:0,0:0:0:0:
37,261,128752,2,0,P|49:189|6:130,1,150,2|8,0:2|0:0,0:0:0:0:
35,44,129246,1,8,0:0:0:0:
116,81,129411,1,0,0:0:0:0:
189,30,129576,2,0,P|225:23|262:31,1,75,8|0,0:0|0:0,0:0:0:0:
297,114,129906,2,0,P|293:153|305:193,1,75,8|0,0:0|0:0,0:0:0:0:
390,206,130235,5,6,0:2:0:0:
433,285,130400,1,0,0:0:0:0:
396,367,130565,2,0,P|360:377|323:373,1,75,8|0,0:0|0:0,0:0:0:0:
267,301,130895,2,0,P|231:291|194:294,1,75,2|2,0:2|0:2,0:0:0:0:
115,339,131224,1,8,0:0:0:0:
92,251,131389,1,0,0:0:0:0:
75,162,131554,6,0,B|35:157|35:157|1:163,2,75,2|0|8,0:2|0:0|0:0,0:0:0:0:
158,196,132048,1,0,0:0:0:0:
211,123,132213,2,0,P|164:67|92:74,1,150,2|8,0:2|0:0,0:0:0:0:
75,162,132708,2,0,B|52:219|76:262|76:262|23:301,1,150,6|0,0:2|0:0,0:0:0:0:
97,357,133202,6,0,B|134:329|134:329|168:364|229:359,1,150,8|2,0:0|0:2,0:0:0:0:
312,324,133697,1,2,0:2:0:0:
354,244,133862,1,8,0:0:0:0:
294,179,134026,2,0,B|322:109|268:78|291:33,1,150,8|2,0:0|0:2,0:0:0:0:
291,33,134521,1,8,0:0:0:0:
380,16,134686,1,0,0:0:0:0:
452,72,134851,6,0,L|488:82,3,37.5,12|4|4|0,0:2|0:3|0:3|0:0,0:0:0:0:
420,123,135180,2,0,L|384:113,3,37.5,12|4|4|0,0:2|0:3|0:3|0:0,0:0:0:0:
441,159,135510,6,0,B|403:227|443:278|443:278|381:283|378:336,1,209.999993591309,0|2,0:0|0:3,0:0:0:0:
334,204,136499,1,0,0:0:0:0:
334,204,136664,2,0,P|343:167|323:99,1,104.999996795654,2|2,0:0|0:3,0:0:0:0:
220,34,137323,2,0,L|101:29,1,104.999996795654,2|2,0:0|0:3,0:0:0:0:
180,137,137983,2,0,B|191:207|191:207|213:240,1,104.999996795654
253,281,138477,5,2,0:3:0:0:
79,350,138972,2,0,L|29:371,2,52.4999983978272,0|0|2,0:0|0:0|0:0,0:0:0:0:
30,38,140125,2,0,P|82:34|134:39,1,104.999996795654,0|2,0:0|0:3,0:0:0:0:
257,75,140785,6,0,L|361:45,2,104.999996795654,2|0|2,0:0|0:0|0:3,0:0:0:0:
246,200,141774,1,0,0:0:0:0:
246,200,141939,2,0,B|276:226|276:226|349:226,2,104.999996795654,2|0|2,0:0|0:0|0:3,0:0:0:0:
149,119,142928,1,2,0:3:0:0:
62,209,143257,6,0,P|56:261|60:313,1,104.999996795654,2|2,0:0|0:3,0:0:0:0:
120,332,143752,1,2,0:0:0:0:
370,356,144411,1,0,0:0:0:0:
370,356,144741,2,0,L|388:251,1,104.999996795654,0|0,0:0|0:0,0:0:0:0:
393,171,145235,5,2,0:0:0:0:
370,87,145400,1,8,0:0:0:0:
303,30,145565,1,8,0:0:0:0:
215,28,145730,2,0,L|135:36,1,67.4999979400635,8|8,0:3|0:3,0:0:0:0:
96,96,146059,6,0,P|92:164|115:227,1,134.999995880127,6|2,0:0|0:0,0:0:0:0:
163,292,146554,2,0,L|303:315,2,134.999995880127,2|0|2,0:0|0:0|0:0,0:0:0:0:
187,214,147378,1,2,0:0:0:0:
229,144,147543,1,2,0:0:0:0:
309,135,147708,2,0,P|372:159|435:140,2,134.999995880127,0|8|0,0:0|0:0|0:0,0:0:0:0:
136,120,148697,6,0,P|144:186|188:236,1,134.999995880127,2|2,0:0|0:0,0:0:0:0:
259,275,149191,1,2,0:3:0:0:
337,255,149356,1,8,0:0:0:0:
395,198,149521,2,0,L|366:136,1,67.4999979400635,2|0,0:0|0:0,0:0:0:0:
319,53,149851,2,0,P|255:72|192:50,1,134.999995880127,2|2,0:0|0:0,0:0:0:0:
112,66,150345,2,0,P|82:125|91:191,1,134.999995880127,0|8,0:0|0:0,0:0:0:0:
247,235,151005,1,2,0:0:0:0:
387,154,151334,6,0,B|364:188|364:188|388:231|356:292,1,134.999995880127,6|2,0:0|0:0,0:0:0:0:
303,334,151829,2,0,P|245:347|163:326,2,134.999995880127,2|2|2,0:0|0:3|0:0,0:0:0:0:
279,173,152818,1,2,0:0:0:0:
279,173,152983,1,2,0:3:0:0:
122,134,153312,2,0,P|113:98|119:65,1,67.4999979400635,8|2,0:0|0:0,0:0:0:0:
196,145,153642,2,0,P|205:181|199:214,1,67.4999979400635,8|2,0:0|0:0,0:0:0:0:
158,353,153972,5,6,0:0:0:0:
256,192,154136,12,0,155620,0:0:0:0:
254,192,155950,5,8,0:0:0:0:
254,66,156114,1,8,0:0:0:0:
254,66,156609,6,0,P|360:76|404:174,1,225,4|2,0:0|0:2,0:0:0:0:
392,264,157268,2,0,B|231:293,1,150,8|8,0:0|0:0,0:0:0:0:
169,239,157763,2,0,P|96:237|47:290,2,150,6|2|8,0:2|0:2|0:0,0:0:0:0:
254,211,158587,1,8,0:0:0:0:
267,121,158752,2,0,P|248:80|225:61,1,75,2|8,0:2|0:0,0:0:0:0:
138,41,159081,6,0,B|100:85|106:144|106:144|77:170,1,150,4|8,0:1|0:0,0:0:0:0:
62,259,159576,2,0,P|102:320|174:328,1,150,2|8,0:2|0:0,0:0:0:0:
263,318,160070,1,2,0:2:0:0:
316,245,160235,1,8,0:0:0:0:
342,158,160400,2,0,B|376:144|376:144|422:183|482:165,1,150,6|2,0:2|0:2,0:0:0:0:
507,252,160895,6,0,L|493:333,1,75,8|2,0:0|0:2,0:0:0:0:
413,365,161224,2,0,P|376:364|345:343,1,75,8|2,0:2|0:2,0:0:0:0:
295,267,161554,1,8,0:0:0:0:
308,178,161719,1,2,0:2:0:0:
221,151,161884,6,0,P|114:143|58:234,1,225,4|2,0:0|0:2,0:2:0:0:
83,321,162543,2,0,B|132:294|158:350|235:317,1,150,8|8,0:0|0:0,0:0:0:0:
316,296,163037,2,0,P|335:223|324:150,2,150,6|0|2,0:2|0:0|0:2,0:0:0:0:
235,255,163862,1,8,0:0:0:0:
161,304,164026,2,0,B|133:256|161:208|161:208|127:170,1,150,2|0,0:2|0:1,0:0:0:0:
106,84,164521,5,6,0:2:0:0:
178,28,164686,1,2,0:2:0:0:
267,39,164851,2,0,L|430:53,2,150,8|2|8,0:0|0:2|0:0,0:0:0:0:
236,123,165675,1,2,0:2:0:0:
149,148,165840,2,0,L|0:160,2,150,6|8|6,0:2|0:0|0:2,0:0:0:0:
239,303,166829,1,4,0:2:0:0:
409,247,167158,6,0,P|396:174|344:121,1,150,4|8,0:1|0:0,0:0:0:0:
264,78,167653,2,0,L|110:95,2,150,2|8|6,0:2|0:0|0:2,0:0:0:0:
267,168,168477,1,2,0:2:0:0:
250,257,168642,1,2,0:2:0:0:
174,306,168807,2,0,P|127:318|94:314,1,75,8|0,0:2|0:0,0:0:0:0:
42,247,169136,2,0,P|39:209|52:173,1,75,2|0,0:2|0:0,0:0:0:0:
105,102,169466,2,0,B|162:104|162:104|177:113,1,75,8|0,0:2|0:0,0:0:0:0:
257,72,169796,6,0,P|322:42|386:76,1,150,6|8,0:2|0:0,0:0:0:0:
387,159,170290,2,0,P|321:189|257:156,1,150,2|8,0:2|0:0,0:0:0:0:
177,113,170785,1,2,0:2:0:0:
118,45,170950,2,0,P|90:112|118:180,1,150,6|2,0:2|0:2,0:0:0:0:
181,273,171444,2,0,B|252:291|252:291|323:264,2,150,8|2|8,0:2|0:2|0:0,0:2:0:0:
187,183,172268,1,0,0:0:0:0:
269,146,172433,6,0,B|300:126|300:126|359:141|413:128,1,150,4|8,0:0|0:0,0:0:0:0:
412,45,172928,2,0,B|359:32|300:47|300:47|269:27,1,150,2|8,0:2|0:0,0:0:0:0:
196,80,173422,1,2,0:2:0:0:
105,76,173587,2,0,P|44:115|34:187,1,150,6|8,0:2|0:0,0:0:0:0:
66,272,174081,2,0,B|92:312|125:317|125:317|155:295|208:305,1,150,2|2,0:2|0:2,0:0:0:0:
285,294,174576,1,2,0:2:0:0:
342,225,174741,2,0,P|365:154|339:85,1,150,8|2,0:0|0:2,0:0:0:0:
266,33,175235,5,2,0:2:0:0:
193,86,175400,2,0,B|122:116|96:65|46:85,1,150,8|8,0:0|0:0,0:0:0:0:
16,170,175895,1,8,0:3:0:0:
16,170,176059,1,8,0:3:0:0:
3,258,176224,2,0,P|74:242|106:177,1,150,4|2,0:2|0:2,0:0:0:0:
167,110,176719,2,0,P|207:120|238:112,1,75
368,205,177048,6,0,L|393:233,3,37.5,12|0|2|0,0:2|0:2|0:2|0:0,0:0:0:0:
368,145,177378,2,0,L|396:120,3,37.5,12|0|2|0,0:2|0:2|0:2|0:0,0:0:0:0:
312,169,177708,6,0,L|237:169,1,75,4|2,0:0|0:2,0:0:0:0:
167,112,178037,1,8,0:0:0:0:
167,112,178202,2,0,P|151:184|191:245,1,150,2|2,0:2|0:2,0:0:0:0:
258,304,178697,2,0,P|293:294|329:303,1,75,8|0,0:0|0:0,0:0:0:0:
417,324,179026,1,2,0:2:0:0:
488,269,179191,5,2,0:2:0:0:
476,180,179356,1,8,0:0:0:0:
416,112,179521,2,0,L|404:32,2,75,0|2|2,0:0|0:2|0:2,0:0:0:0:
332,140,180015,1,8,0:0:0:0:
244,128,180180,1,2,0:2:0:0:
192,52,180345,6,0,B|140:56|140:56|112:40,1,75,2|2,0:2|0:2,0:0:0:0:
40,88,180675,1,8,0:0:0:0:
40,88,180840,2,0,B|12:156|72:172|36:240,1,150,0|2,0:0|0:2,0:0:0:0:
100,300,181334,1,2,0:2:0:0:
171,352,181499,2,0,P|183:279|132:216,1,150,8|2,0:0|0:2,0:0:0:0:
120,132,181994,5,8,0:0:0:0:
176,60,182158,2,0,L|172:12,2,37.5,8|0|8,0:3|0:0|0:3,0:0:0:0:
232,132,182488,1,2,0:2:0:0:
320,144,182653,1,8,0:0:0:0:
404,108,182818,1,2,0:2:0:0:
428,196,182983,6,0,L|444:272,1,75,6|2,0:2|0:2,0:0:0:0:
372,320,183312,1,8,0:0:0:0:
292,280,183477,2,0,B|240:260|224:304|144:272,1,150,2|2,0:2|0:2,0:0:0:0:
84,208,183972,1,8,0:0:0:0:
84,208,184136,1,0,0:0:0:0:
16,147,184301,6,0,P|46:126|82:116,1,75,2|2,0:2|0:2,0:0:0:0:
156,168,184631,1,8,0:0:0:0:
84,208,184796,1,0,0:0:0:0:
160,256,184961,2,0,B|196:264|196:264|236:256,1,75,2|2,0:2|0:2,0:0:0:0:
320,224,185290,1,8,0:0:0:0:
356,148,185455,1,2,0:2:0:0:
424,92,185620,6,0,P|428:64|416:4,2,75,2|2|8,0:2|0:2|0:0,0:0:0:0:
356,148,186114,2,0,P|341:219|383:279,1,150,0|2,0:0|0:2,0:0:0:0:
304,324,186609,1,2,0:2:0:0:
304,324,186774,2,0,P|261:263|256:189,1,150,8|2,0:0|0:2,0:0:0:0:
176,148,187268,1,12,0:2:0:0:
204,62,187433,6,0,P|132:69|87:128,1,150,8|4,0:3|0:3,0:0:0:0:
92,220,187928,1,4,0:3:0:0:
116,308,188092,1,4,0:3:0:0:
200,340,188257,6,0,P|244:348|272:340,1,75,6|0,0:2|0:0,0:0:0:0:
324,264,188587,1,0,0:0:0:0:
408,232,188752,2,0,P|452:224|480:232,2,75,4|0|0,0:3|0:0|0:0,0:0:0:0:
324,264,189246,1,6,0:2:0:0:
258,203,189411,6,0,B|204:200|184:152|184:152|129:152,1,150,0|8,0:0|0:0,0:0:0:0:
117,62,189906,2,0,L|197:62,1,75,6|0,0:2|0:0,0:0:0:0:
269,110,190235,1,6,0:2:0:0:
354,81,190400,1,0,0:0:0:0:
405,154,190565,2,0,P|413:202|401:228,1,75
348,297,190895,5,6,0:2:0:0:
348,297,191059,1,6,0:2:0:0:
