osu file format v14

[General]
AudioFilename: 04. Beautiful ground192.mp3
AudioLeadIn: 1495
PreviewTime: 53092
Countdown: 0
SampleSet: Normal
StackLeniency: 0.7
Mode: 0
LetterboxInBreaks: 0
WidescreenStoryboard: 0

[Editor]
DistanceSpacing: 1.1
BeatDivisor: 4
GridSize: 4
TimelineZoom: 2.000001

[Metadata]
Title:Beautiful ground
TitleUnicode:Beautiful ground
Artist:nano x yuyoyuppe
ArtistUnicode:ナノ×ゆよゆっぺ
Creator:theramdans
Version:Easy
Source:
Tags:nanoir A_Mystery
BeatmapID:487361
BeatmapSetID:206737

[Difficulty]
HPDrainRate:2
CircleSize:3
OverallDifficulty:2
ApproachRate:3
SliderMultiplier:0.8
SliderTickRate:1

[Events]
//Background and Video events
0,0,"BGBG.jpg",0,0
//Break Periods
2,11753,20663
2,75051,81323
2,119886,134070
//Storyboard Layer 0 (Background)
//Storyboard Layer 1 (Fail)
//Storyboard Layer 2 (Pass)
//Storyboard Layer 3 (Foreground)
//Storyboard Sound Samples

[TimingPoints]
1005,329.67032967033,4,1,1,65,1,0
1499,-100,4,2,1,55,0,0
3477,-100,4,1,1,65,0,0
4136,-100,4,2,1,55,0,0
6114,-100,4,1,1,65,0,0
6774,-100,4,2,1,55,0,0
8752,-100,4,1,1,65,0,0
22103,-100,4,2,1,50,0,0
32653,-100,4,1,1,55,0,0
43202,-100,4,2,1,50,0,0
53752,-100,4,1,1,65,0,1
72048,-100,4,1,1,65,0,0
72213,-100,4,1,1,65,0,1
72378,-100,4,2,1,60,0,0
82763,-100,4,2,1,50,0,0
93312,-100,4,1,1,55,0,0
103862,-100,4,2,1,50,0,0
114411,-100,4,1,1,55,0,0
135510,-100,4,2,0,30,0,0
145235,-100,4,2,1,35,0,0
146059,-100,4,2,1,45,0,0
154136,-100,4,2,1,5,0,0
156609,-100,4,1,1,65,0,1
177543,-100,4,1,1,65,0,0
177708,-100,4,1,1,65,0,1
177873,-100,4,1,1,60,0,0

[Colours]
Combo1 : 247,108,6
Combo2 : 6,168,176
Combo3 : 255,51,255
Combo4 : 0,255,0

[HitObjects]
434,149,1005,2,0,P|397:161|354:155,1,80,8|8,0:0|0:0,0:0:0:0:
300,222,1664,2,0,P|268:293|291:368,2,160,2|2|0,0:0|0:0|0:0,0:0:0:0:
242,155,3312,1,2,0:3:0:0:
163,194,3642,6,0,P|119:187|92:159,1,80,8|8,0:0|0:0,0:0:0:0:
70,78,4301,2,0,L|135:31,1,80,2|2,0:2|0:3,0:0:0:0:
223,24,4961,2,0,P|278:42|315:89,2,120,2|2|4,0:0|0:0|0:0,0:0:0:0:
184,103,6279,6,0,B|189:153|189:153|216:178,1,80,8|8,0:0|0:0,0:0:0:0:
295,199,6939,2,0,B|334:192|334:192|378:198,1,80,2|2,0:0|0:3,0:0:0:0:
383,285,7598,2,0,B|337:279|337:279|282:299|282:299|239:250|157:278,1,240,2|8,0:0|0:3,0:0:0:0:
75,245,8917,6,0,B|61:202|61:202|66:158,1,80,2|8,0:2|0:0,0:0:0:0:
113,94,9576,2,0,P|152:99|185:121,1,80,2|8,0:2|0:0,0:0:0:0:
267,152,10235,2,0,L|347:124,2,80,6|0|8,0:2|0:0|0:3,0:0:0:0:
246,237,11224,2,0,P|263:272|294:296,1,80,8|4,0:0|0:0,0:0:0:0:
449,103,22103,6,0,B|424:67|371:81|371:81|345:55|298:62,1,160,6|2,0:0|0:3,0:0:0:0:
127,71,23422,2,0,L|33:65,2,80,2|2|2,0:0|0:0|0:3,0:0:0:0:
117,245,24741,6,0,P|166:304|243:300,1,160,2|2,0:0|0:3,0:0:0:0:
392,206,26059,2,0,L|487:209,2,80,2|2|2,0:0|0:0|0:3,0:0:0:0:
268,84,27378,6,0,P|222:45|164:47,1,120,6|2,0:0|0:0,0:0:0:0:
100,108,28202,1,2,0:3:0:0:
108,196,28532,2,0,B|110:236|147:256|147:256|187:235|229:250,1,160,2|2,0:0|0:3,0:0:0:0:
444,212,30015,6,0,L|457:92,2,120,0|2|2,0:0|0:0|0:3,0:0:0:0:
376,268,31334,2,0,P|298:274|243:220,1,160,6|8,0:0|0:3,0:0:0:0:
116,101,32653,6,0,P|77:111|28:100,2,80,6|8|2,0:2|0:0|0:2,0:0:0:0:
191,55,33642,1,8,0:0:0:0:
275,78,33972,2,0,L|307:242,1,160,2|2,0:2|0:2,0:0:0:0:
269,315,34961,1,8,0:0:0:0:
182,329,35290,6,0,P|126:324|53:238,2,160,2|2|2,0:2|0:2|0:2,0:0:0:0:
269,315,36939,2,0,L|352:319,1,80,8|2,0:0|0:2,0:0:0:0:
425,275,37598,1,8,0:0:0:0:
492,329,37928,6,0,P|510:273|492:218,1,120,6|2,0:2|0:2,0:0:0:0:
434,151,38752,1,8,0:0:0:0:
345,159,39081,2,0,P|269:149|235:80,1,160,2|2,0:2|0:2,0:0:0:0:
45,192,40565,6,0,P|29:248|51:303,1,120,2|2,0:2|0:2,0:0:0:0:
131,340,41389,1,8,0:0:0:0:
191,275,41719,2,0,B|242:256|285:300|348:279,1,160,2|8,0:2|0:2,0:0:0:0:
445,188,42873,1,8,0:1:0:0:
501,121,43202,6,0,B|462:97|427:104|427:104|368:22|314:76|289:16,1,240,4|4,0:1|2:1,0:0:0:0:
121,66,44851,1,2,0:0:0:0:
40,101,45180,2,0,L|43:188,1,80,8|2,0:0|0:0,0:0:0:0:
72,264,45840,6,0,P|143:291|199:240,1,160,6|6,0:0|0:0,0:0:0:0:
204,153,46829,1,2,0:0:0:0:
244,73,47158,2,0,P|351:28|456:76,1,240,6|8,0:0|0:0,0:0:0:0:
473,163,48477,6,0,B|493:232|437:277|437:277|383:258|334:302,2,240,6|6|6,0:0|0:0|0:0,0:0:0:0:
457,77,50785,1,6,0:0:0:0:
378,116,51114,6,0,P|319:113|273:76,1,120,6|2,0:0|0:0,0:0:0:0:
188,48,51939,2,0,B|151:175|151:175|116:180|88:220,1,200,6|2,0:0|0:0,0:0:0:0:
168,264,53092,1,8,0:3:0:0:
308,156,53752,6,0,P|379:183|392:258,1,160,4|8,0:0|0:0,0:0:0:0:
313,363,54906,2,0,L|230:376,2,80,6|8|2,0:2|0:0|0:2,0:0:0:0:
320,275,55895,1,8,0:0:0:0:
287,193,56224,6,0,B|253:157|253:157|182:158,1,120,4|8,0:0|0:0,0:0:0:0:
70,230,57213,2,0,P|51:264|51:304,1,80,2|6,0:2|0:2,0:0:0:0:
172,357,58037,1,8,0:0:0:0:
252,320,58367,2,0,L|331:315,1,80,2|8,0:2|0:0,0:0:0:0:
409,356,59026,6,0,P|414:283|350:230,1,160,4|8,0:0|0:0,0:0:0:0:
294,101,60180,2,0,L|300:20,2,80,6|8|2,0:2|0:0|0:2,0:0:0:0:
227,159,61169,1,8,0:0:0:0:
154,209,61499,6,0,P|202:243|261:241,1,120,4|8,0:0|0:0,0:0:0:0:
320,306,62323,2,0,P|357:293|397:296,1,80,8|8,0:0|0:0,0:0:0:0:
465,241,62983,2,0,B|447:205|447:205|486:161|464:87,1,160,2|8,0:2|0:0,0:0:0:0:
294,50,64301,6,0,L|166:40,1,120,4|2,0:0|0:2,0:0:0:0:
93,74,65125,1,8,0:0:0:0:
35,139,65455,2,0,P|47:235|128:288,1,200
207,327,66609,1,8,0:0:0:0:
286,289,66939,6,0,P|345:289|397:261,1,120,6|2,0:2|0:2,0:0:0:0:
410,174,67763,1,8,0:0:0:0:
377,92,68092,2,0,B|355:56|303:49|303:49|253:78|193:49,1,200
110,69,69246,1,8,0:0:0:0:
64,144,69576,6,0,P|82:199|140:238,1,120,4|2,0:0|0:2,0:0:0:0:
219,237,70400,2,0,L|310:233,1,80,8|4,0:3|0:0,0:0:0:0:
392,140,71224,2,0,L|472:144,2,80,2|8|0,0:2|0:0|0:0,0:0:0:0:
308,112,72213,5,4,0:0:0:0:
256,192,72378,12,2,74851,0:0:0:0:
29,173,82763,6,0,P|85:120|162:132,1,160,6|8,0:0|0:0,0:0:0:0:
314,44,84081,2,0,P|346:113|308:180,1,160,2|8,0:0|0:0,0:0:0:0:
257,349,85400,6,0,L|416:338,2,160,2|8|2,0:0|0:0|0:3,0:0:0:0:
172,324,87048,2,0,P|132:324|100:301,1,80,2|8,0:0|0:2,0:0:0:0:
77,216,87708,1,8,0:0:0:0:
96,130,88037,6,0,L|197:64,1,120,6|2,0:0|0:0,0:0:0:0:
280,92,88862,1,2,0:3:0:0:
363,64,89191,2,0,P|412:147|383:240,1,200,2|8,0:0|0:0,0:0:0:0:
234,334,90675,6,0,B|178:349|178:349|117:343,1,120,2|2,0:0|0:0,0:0:0:0:
68,268,91499,1,2,0:3:0:0:
63,180,91829,2,0,P|116:100|211:104,1,200,6|4,0:0|0:1,0:0:0:0:
283,155,92983,1,8,0:0:0:0:
303,240,93312,6,0,L|310:334,2,80,4|8|2,0:0|0:0|0:2,0:0:0:0:
326,65,94631,2,0,B|367:42|367:42|418:63|477:42,1,160,2|8,0:2|0:0,0:0:0:0:
457,216,95950,6,0,P|488:285|462:373,2,160,2|8|2,0:2|0:0|0:2,0:0:0:0:
392,155,97598,2,0,P|353:156|317:172,1,80,2|8,0:2|0:0,0:0:0:0:
286,255,98257,1,8,0:0:0:0:
197,252,98587,6,0,L|68:272,1,120,6|2,0:2|0:2,0:0:0:0:
42,189,99411,1,8,0:0:0:0:
63,102,99741,2,0,P|158:86|236:145,1,200,2|8,0:2|0:0,0:0:0:0:
400,81,101224,6,0,L|415:203,1,120,2|2,0:2|0:2,0:0:0:0:
412,288,102048,1,8,0:0:0:0:
324,297,102378,2,0,P|284:300|247:316,1,80,2|8,0:2|0:0,0:0:0:0:
160,300,103037,2,0,P|133:247|138:188,1,120,6|0,0:2|0:0,0:0:0:0:
222,162,103862,6,0,B|234:86|151:50|151:50|111:85|61:68,1,240,4|4,1:0|0:1,0:0:0:0:
41,243,105510,1,2,0:0:0:0:
89,316,105840,2,0,P|128:317|166:304,1,80,8|2,0:0|0:0,0:0:0:0:
226,239,106499,6,0,L|388:244,1,160,6|8,0:0|0:0,0:0:0:0:
475,252,107488,2,0,P|481:290|465:335,2,80,6|2|8,0:0|0:0|0:0,0:0:0:0:
455,166,108477,2,0,L|367:162,1,80,2|8,0:0|0:0,0:0:0:0:
310,100,109136,6,0,P|240:68|167:95,1,160,6|8,0:0|0:0,0:0:0:0:
106,159,110125,2,0,B|137:202|137:202|102:258|137:301,1,160,6|2,0:0|0:0,0:0:0:0:
207,354,111114,2,0,L|295:344,1,80,8|8,0:0|0:0,0:0:0:0:
340,274,111774,6,0,B|370:248|370:248|409:260|460:247,1,120,6|2,0:0|0:0,0:0:0:0:
495,174,112598,2,0,L|468:55,1,120,2|8,0:0|0:0,0:0:0:0:
383,32,113422,2,0,P|344:25|306:37,2,80,8|8|8,0:0|0:0|0:0,0:0:0:0:
349,115,114411,5,4,0:0:0:0:
256,192,114576,12,4,119686,0:0:0:0:
459,93,135510,6,0,P|413:135|315:124,1,160,4|2,0:0|0:3,0:0:0:0:
210,54,136664,2,0,P|97:36|36:132,1,240,2|2,0:0|0:3,0:0:0:0:
93,199,137983,6,0,B|149:218|164:186|221:206,1,120,2|2,0:0|0:3,0:0:0:0:
307,293,138972,2,0,B|350:305|377:291|377:291|416:327,1,120
476,159,140125,2,0,P|502:117|505:83,1,80,2|0,0:0|0:0,0:0:0:0:
416,90,140785,6,0,P|363:148|352:226,1,160,2|2,0:0|0:3,0:0:0:0:
352,358,141939,2,0,P|240:371|184:272,1,240,2|2,0:0|0:3,0:0:0:0:
196,184,143257,6,0,P|211:127|247:80,1,120,0|2,0:0|0:3,0:0:0:0:
414,137,144411,2,0,L|494:135,2,80,0|2|2,0:0|0:3|0:0,0:0:0:0:
399,50,145400,2,0,B|358:34|321:46,1,80,8|8,0:3|0:3,0:0:0:0:
275,121,146059,6,0,B|247:169|287:193|271:239,1,120,6|2,0:0|0:3,0:0:0:0:
226,313,146884,1,0,0:0:0:0:
139,299,147213,2,0,P|99:211|139:123,1,200,2|8,0:0|0:0,0:3:0:0:
211,72,148367,1,2,0:3:0:0:
298,79,148697,6,0,L|417:93,1,120,2|2,0:0|0:3,2:0:0:0:
447,176,149521,1,0,0:0:0:0:
416,258,149851,2,0,P|329:296|258:233,1,200,2|8,0:0|0:0,0:0:0:0:
349,83,151334,6,0,B|319:56|319:56|236:55,1,120,6|2,0:0|0:3,0:0:0:0:
154,80,152158,1,0,0:0:0:0:
127,163,152488,2,0,B|97:204|97:204|62:194|25:211,1,120,0|2,0:0|0:3,0:0:0:0:
69,289,153312,2,0,P|102:309|141:303,1,80,8|8,0:0|0:0,0:0:0:0:
219,262,153972,1,6,0:0:0:0:
256,192,154136,12,0,155290,0:0:0:0:
448,114,156609,6,0,P|393:57|308:68,1,160,4|8,0:0|0:0,0:0:0:0:
185,61,157763,2,0,L|99:28,2,80,6|8|2,0:2|0:0|0:2,0:0:0:0:
219,141,158752,1,8,0:0:0:0:
142,184,159081,6,0,P|186:222|245:224,1,120,4|8,0:0|0:0,0:0:0:0:
375,199,160070,2,0,L|378:109,1,80,2|4,0:2|0:2,0:0:0:0:
283,26,160895,1,8,0:0:0:0:
195,35,161224,2,0,P|156:39|116:69,1,80,2|8,0:2|0:0,0:0:0:0:
51,115,161884,6,0,P|12:180|42:251,1,160,4|8,0:0|0:0,0:0:0:0:
143,337,163037,2,0,L|234:346,2,80,6|2|8,0:2|0:2|0:0,0:0:0:0:
141,249,164026,1,2,0:2:0:0:
172,166,164356,6,0,B|221:181|260:164|260:164|289:196,1,120,4|8,0:0|0:0,0:0:0:0:
357,228,165180,1,2,0:2:0:0:
394,307,165510,2,0,L|482:302,2,80,8|6|8,0:0|0:2|0:0,0:0:0:0:
317,350,166499,2,0,L|237:354,1,80,4|4,0:2|0:2,0:0:0:0:
160,311,167158,6,0,P|151:251|166:194,1,120,4|2,0:0|0:2,0:0:0:0:
216,121,167983,1,8,0:0:0:0:
292,77,168312,2,0,P|349:64|406:81,1,120,2|8,0:2|0:0,0:0:0:0:
424,167,169136,2,0,L|430:258,1,80,2|8,0:2|0:0,0:0:0:0:
407,332,169796,6,0,P|349:348|292:335,1,120,6|2,0:2|0:2,0:0:0:0:
256,254,170620,1,8,0:0:0:0:
168,248,170950,2,0,B|108:265|108:265|37:248,1,120,2|8,0:2|0:0,0:0:0:0:
30,166,171774,2,0,P|24:126|39:90,1,80
112,40,172433,6,0,B|171:22|171:22|242:39,1,120,4|2,0:0|0:2,0:0:0:0:
279,107,173257,1,8,0:2:0:0:
253,191,173587,2,0,B|230:248|255:308,1,120,8|8,0:3|0:0,0:0:0:0:
335,342,174411,2,0,B|377:352|418:342,1,80,8|8,0:3|0:0,0:0:0:0:
459,267,175070,6,0,L|457:98,1,160,2|2,0:2|0:2,0:0:0:0:
403,37,176059,2,0,P|334:71|264:38,1,160,8|0,0:3|0:0,0:0:0:0:
187,81,177048,2,0,B|163:92|163:92|106:92,1,80,8|8,0:0|0:0,0:0:0:0:
70,171,177708,6,0,P|78:247|147:281,1,160,4|2,0:0|0:2,0:0:0:0:
234,277,178697,1,8,0:0:0:0:
291,210,179026,2,0,B|325:198|357:211|357:211|385:189|385:189|409:197|445:190,1,160,2|2,0:2|0:2,0:0:0:0:
362,33,180345,6,0,P|439:25|499:74,2,160,2|0|2,0:2|0:0|0:2,0:0:0:0:
277,57,181994,1,8,0:0:0:0:
213,118,182323,2,0,L|214:204,1,80,2|8,0:2|0:0,0:0:0:0:
187,282,182983,6,0,P|125:326|51:304,1,160,4|2,0:0|0:2,0:0:0:0:
24,220,183972,1,8,0:0:0:0:
62,137,184301,2,0,B|96:125|128:138|128:138|156:116|156:116|180:124|216:117,1,160,2|2,0:2|0:2,0:0:0:0:
293,273,185620,6,0,P|359:286|439:234,1,160,2|2,0:2|0:2,0:0:0:0:
407,156,186609,1,8,0:0:0:0:
339,99,186939,2,0,L|340:9,2,80,2|12|2,0:2|0:2|0:2,0:0:0:0:
232,238,188257,6,0,L|110:283,1,120,6|4,0:2|0:3,0:0:0:0:
55,163,189246,2,0,L|167:121,1,120,6|4,0:2|0:3,0:0:0:0:
289,71,190235,2,0,B|360:99|404:50|404:50|455:47|473:70,1,200,6|6,0:2|0:2,0:0:0:0:
