osu file format v14

[General]
AudioFilename: 04. Beautiful ground192.mp3
AudioLeadIn: 1495
PreviewTime: 53092
Countdown: 0
SampleSet: Soft
StackLeniency: 0.7
Mode: 0
LetterboxInBreaks: 0
WidescreenStoryboard: 0

[Editor]
DistanceSpacing: 1.6
BeatDivisor: 4
GridSize: 4
TimelineZoom: 4.739998

[Metadata]
Title:Beautiful ground
TitleUnicode:Beautiful ground
Artist:nano x yuyoyuppe
ArtistUnicode:ナノ×ゆよゆっぺ
Creator:theramdans
Version:A Mystery's Insane
Source:
Tags:nanoir A_Mystery
BeatmapID:764839
BeatmapSetID:206737

[Difficulty]
HPDrainRate:7
CircleSize:4
OverallDifficulty:8.5
ApproachRate:9.2
SliderMultiplier:1.85
SliderTickRate:1

[Events]
//Background and Video events
0,0,"BGBG.jpg",0,0
//Break Periods
2,135710,144665
//Storyboard Layer 0 (Background)
//Storyboard Layer 1 (Fail)
//Storyboard Layer 2 (Pass)
//Storyboard Layer 3 (Foreground)
//Storyboard Sound Samples

[TimingPoints]
1005,329.67032967033,4,2,1,65,1,0
6197,-100,4,2,1,5,0,0
6279,-100,4,2,1,65,0,0
8917,-100,4,2,1,75,0,0
11224,-83.3333333333333,4,2,1,65,0,0
11472,-83.3333333333333,4,2,1,5,0,0
11554,-100,4,2,1,70,0,0
43120,-100,4,2,1,5,0,0
43202,-111.111111111111,4,2,1,70,0,0
52515,-111.111111111111,4,2,1,5,0,0
52598,-111.111111111111,4,2,1,70,0,0
53752,-95.2380952380952,4,2,1,75,0,1
72048,-100,4,2,1,15,0,0
72213,-100,4,2,1,75,0,1
72378,-100,4,2,1,70,0,0
103779,-100,4,2,1,5,0,0
103862,-111.111111111111,4,2,1,70,0,0
114411,-100,4,2,1,75,0,0
146059,-125,4,2,1,60,0,0
156609,-95.2380952380952,4,2,1,75,0,1
177131,-95.2380952380952,4,2,1,45,0,1
177378,-95.2380952380952,4,2,1,55,0,1
177543,-100,4,2,1,75,0,0
177708,-100,4,2,1,75,0,1
177873,-100,4,2,1,70,0,0
190812,-100,4,2,1,5,0,0
190895,-100,4,2,1,70,0,0

[Colours]
Combo1 : 247,108,6
Combo2 : 6,168,176
Combo3 : 255,51,255
Combo4 : 0,255,0

[HitObjects]
157,36,1005,5,10,0:0:0:0:
340,114,1169,2,0,P|347:158|350:213,1,92.5,10|2,0:0|0:0,0:0:0:0:
251,276,1499,2,0,P|245:225|244:171,1,92.5,0|2,0:0|0:0,0:0:0:0:
156,114,1829,1,0,0:0:0:0:
156,114,1994,2,0,P|149:167|143:228,1,92.5,2|0,0:0|0:0,0:0:0:0:
210,348,2323,5,2,0:0:0:0:
336,312,2488,2,0,P|349:260|333:202,1,92.5,0|2,0:0|0:0,0:0:0:0:
216,136,2818,1,0,0:0:0:0:
216,136,2983,2,0,P|203:188|219:246,2,92.5,2|0|2,0:0|0:0|0:0,0:0:0:0:
362,193,3477,5,10,0:0:0:0:
284,27,3642,1,10,0:0:0:0:
437,163,3807,1,10,0:0:0:0:
279,106,3972,2,0,L|287:198,1,92.5,10|0,0:0|0:0,0:0:0:0:
336,311,4301,1,2,0:0:0:0:
159,262,4466,2,0,P|196:245|262:268,2,92.5
264,349,4961,6,0,P|308:359|350:341,1,92.5,2|0,0:0|0:0,0:0:0:0:
402,160,5290,1,12,0:0:0:0:
476,250,5455,1,2,0:0:0:0:
315,184,5620,1,8,0:0:0:0:
313,133,5702,1,8,0:0:0:0:
339,91,5784,1,4,3:0:0:0:
385,69,5867,1,4,3:0:0:0:
434,75,5950,2,0,B|465:124|465:124|440:171|478:236,1,138.75,6|0,0:0|0:0,0:0:0:0:
476,250,6279,5,10,0:0:0:0:
349,349,6444,2,0,B|249:338,1,92.5,10|2,0:0|0:0,0:0:0:0:
262,217,6774,2,0,B|362:206,1,92.5,0|2,0:0|0:0,0:0:0:0:
457,145,7103,1,0,0:0:0:0:
319,188,7268,1,10,0:0:0:0:
378,45,7433,1,10,0:0:0:0:
390,268,7598,5,10,0:0:0:0:
362,122,7763,2,0,P|313:107|265:128,1,92.5,10|2,0:0|0:0,0:0:0:0:
217,232,8092,2,0,P|266:247|314:226,2,92.5,0|2|0,0:0|0:0|0:0,0:0:0:0:
123,171,8587,2,0,L|111:281,1,92.5,2|0,0:0|0:0,0:0:0:0:
230,100,8917,5,10,0:0:0:0:
245,301,9081,1,10,0:0:0:0:
328,80,9246,1,10,0:0:0:0:
204,209,9411,1,10,0:0:0:0:
228,205,9741,5,2,0:0:0:0:
228,205,9823,1,2,0:0:0:0:
228,205,9906,1,12,0:0:0:0:
421,216,10070,1,12,0:0:0:0:
189,302,10235,1,12,0:0:0:0:
335,165,10400,1,12,0:0:0:0:
241,36,10565,1,2,0:0:0:0:
241,36,10647,1,2,0:0:0:0:
241,36,10730,1,12,0:0:0:0:
143,176,10895,5,8,3:0:0:0:
152,221,10977,1,8,3:0:0:0:
161,266,11059,1,4,3:0:0:0:
171,311,11142,1,4,3:0:0:0:
180,357,11224,2,0,B|221:338|221:338|266:352|266:352|299:328|357:334,1,166.499994918823,6|0,0:0|0:0,0:0:0:0:
416,339,11554,6,0,P|443:294|436:238,1,92.5,6|2,0:0|0:0,0:0:0:0:
336,77,11884,1,8,0:0:0:0:
396,200,12048,2,0,P|453:210|490:193,1,92.5,2|0,0:0|0:0,0:0:0:0:
432,67,12378,1,2,0:0:0:0:
386,232,12543,1,8,0:0:0:0:
336,77,12708,6,0,B|291:74|291:74|247:90,1,92.5,2|0,0:0|0:0,0:0:0:0:
189,216,13037,1,2,0:0:0:0:
383,204,13202,2,0,P|321:158|276:164,1,92.5,8|2,0:0|0:0,0:0:0:0:
298,296,13532,1,0,0:0:0:0:
391,193,13697,1,2,0:0:0:0:
224,293,13862,2,0,L|241:392,1,92.5,8|2,0:0|0:0,0:0:0:0:
277,137,14191,6,0,P|205:128|171:153,1,92.5,2|2,0:0|0:0,0:0:0:0:
133,307,14521,1,8,0:0:0:0:
232,212,14686,1,0,0:0:0:0:
184,365,14851,1,2,0:0:0:0:
151,207,15015,2,0,L|173:107,1,92.5,2|0,0:0|0:0,0:0:0:0:
255,282,15345,6,0,P|205:320|92:255,1,185,8|2,0:0|0:0,0:0:0:0:
127,75,15840,1,8,0:0:0:0:
186,240,16005,1,2,0:0:0:0:
186,240,16087,1,2,0:0:0:0:
186,240,16169,1,2,0:0:0:0:
213,105,16334,1,2,0:0:0:0:
81,265,16499,2,0,B|73:312|73:312|90:371,1,92.5,8|0,0:0|0:0,0:0:0:0:
289,353,16829,6,0,B|301:309|301:309|293:262,1,92.5,6|2,0:0|0:0,0:0:0:0:
198,69,17158,1,8,0:0:0:0:
281,219,17323,2,0,P|345:229|389:198,1,92.5,2|0,0:0|0:0,0:0:0:0:
433,94,17653,1,2,0:0:0:0:
226,169,17818,2,0,P|209:198|220:262,1,92.5,8|2,0:0|0:0,0:0:0:0:
326,146,18147,5,0,0:0:0:0:
189,68,18312,1,2,0:0:0:0:
139,273,18477,2,0,P|172:322|235:333,1,92.5,8|2,0:0|0:0,0:0:0:0:
392,232,18807,1,2,0:0:0:0:
305,340,18972,1,2,0:0:0:0:
326,146,19136,2,0,P|379:121|424:129,1,92.5,8|0,0:0|0:0,0:0:0:0:
423,338,19466,5,2,0:0:0:0:
300,272,19631,1,2,0:0:0:0:
439,198,19796,2,0,B|485:211|485:211|528:265,1,92.5,8|0,0:0|0:0,0:0:0:0:
360,302,20125,1,2,0:0:0:0:
256,138,20290,2,0,L|262:247,1,92.5,2|0,0:0|0:0,0:0:0:0:
155,60,20620,6,0,L|133:249,1,185,8|2,0:0|0:0,0:0:0:0:
327,349,21114,1,12,0:0:0:0:
171,175,21279,2,0,P|112:169|61:271,1,185,2|4,0:0|3:0,0:0:0:0:
256,248,21774,1,10,0:0:0:0:
302,90,21939,1,4,3:0:0:0:
351,298,22103,5,6,0:0:0:0:
351,298,22268,2,0,P|297:352|254:359,1,92.5,0|2,0:0|0:0,0:0:0:0:
166,280,22598,2,0,P|125:301|98:338,1,92.5
192,381,22928,1,0,0:0:0:0:
256,248,23092,2,0,L|244:128,1,92.5,2|0,0:0|0:0,0:0:0:0:
94,39,23422,5,2,0:0:0:0:
202,91,23587,1,0,0:0:0:0:
100,156,23752,1,2,0:0:0:0:
185,0,23917,1,0,0:0:0:0:
248,172,24081,2,0,B|259:223|259:223|296:274,1,92.5,2|0,0:0|0:0,0:0:0:0:
399,279,24411,1,2,0:0:0:0:
216,290,24576,1,8,0:0:0:0:
408,175,24741,6,0,P|458:191|496:243,1,92.5,2|0,0:0|0:0,0:0:0:0:
389,384,25070,2,0,P|339:368|301:316,1,92.5,2|0,0:0|0:0,0:0:0:0:
249,199,25400,2,0,L|268:91,1,92.5,2|0,0:0|0:0,0:0:0:0:
362,36,25730,2,0,L|378:127,1,92.5,2|0,0:0|0:0,0:0:0:0:
171,129,26059,6,0,P|125:92|111:33,1,92.5,2|0,0:0|0:0,0:0:0:0:
252,131,26389,2,0,P|232:185|175:211,1,92.5,2|0,0:0|0:0,0:0:0:0:
213,46,26719,1,2,0:0:0:0:
343,154,26884,2,0,L|366:39,1,92.5,8|2,0:0|0:0,0:0:0:0:
435,219,27213,1,8,0:0:0:0:
271,48,27378,6,0,P|212:35|157:58,1,92.5,6|0,0:0|0:0,0:0:0:0:
81,152,27708,1,2,0:0:0:0:
222,134,27873,2,0,L|208:251,1,92.5,0|2,0:0|0:0,0:0:0:0:
311,291,28202,1,0,0:0:0:0:
129,221,28367,1,8,0:0:0:0:
145,349,28532,1,0,0:0:0:0:
292,177,28697,5,2,0:0:0:0:
413,245,28862,2,0,L|422:361,1,92.5,0|8,0:0|0:0,0:0:0:0:
286,248,29191,2,0,L|293:155,1,92.5,0|2,0:0|0:0,0:0:0:0:
441,48,29521,1,8,0:0:0:0:
326,86,29686,1,2,0:0:0:0:
509,143,29851,1,8,0:0:0:0:
303,73,30015,6,0,B|254:77|254:77|198:103,1,92.5,2|0,0:0|0:0,0:0:0:0:
221,292,30345,1,8,0:0:0:0:
332,176,30510,2,0,P|270:160|215:187,1,92.5,0|2,0:0|0:0,0:0:0:0:
351,320,30840,2,0,P|312:269|258:254,1,92.5,0|8,0:0|0:0,0:0:0:0:
148,280,31169,1,0,0:0:0:0:
351,320,31334,5,6,0:0:0:0:
237,360,31499,1,0,0:0:0:0:
401,221,31664,2,0,B|413:276|413:276|392:349,1,92.5,8|2,0:0|0:0,0:0:0:0:
493,173,31994,5,8,0:0:0:0:
470,128,32076,1,8,3:0:0:0:
428,101,32158,1,4,3:0:0:0:
378,99,32241,1,4,3:0:0:0:
333,123,32323,1,8,0:0:0:0:
333,177,32405,1,8,0:0:0:0:
304,223,32487,1,8,0:0:0:0:
254,245,32570,1,8,0:0:0:0:
200,236,32652,5,6,0:0:0:0:
129,115,32818,1,0,0:0:0:0:
109,316,32983,1,8,0:0:0:0:
248,154,33147,2,0,P|309:170|348:218,1,92.5,0|2,0:0|0:0,0:0:0:0:
322,328,33477,1,2,0:0:0:0:
162,231,33642,1,8,0:0:0:0:
189,94,33807,1,0,0:0:0:0:
222,294,33972,6,0,P|173:320|129:311,1,92.5,2|2,0:0|0:0,0:0:0:0:
295,165,34301,1,8,0:0:0:0:
304,303,34466,1,0,0:0:0:0:
199,143,34631,1,2,0:0:0:0:
199,143,34796,1,2,0:0:0:0:
374,249,34961,2,0,P|434:252|471:229,1,92.5,8|0,0:0|0:0,0:0:0:0:
302,72,35290,6,0,L|293:184,1,92.5,2|0,0:0|0:0,0:0:0:0:
461,237,35620,2,0,L|453:144,1,92.5,8|0,0:0|0:0,0:0:0:0:
302,184,35950,1,2,0:0:0:0:
302,184,36114,2,0,P|375:206|412:187,1,92.5,2|0,0:0|0:0,0:0:0:0:
248,64,36444,1,8,0:0:0:0:
139,209,36609,6,0,P|151:253|182:287,1,92.5,2|0,0:0|0:0,0:0:0:0:
302,215,36939,2,0,P|289:170|258:136,1,92.5,8|0,0:0|0:0,0:0:0:0:
120,120,37268,1,2,0:0:0:0:
120,120,37433,1,2,0:0:0:0:
253,283,37598,2,0,P|316:299|353:282,1,92.5,8|2,0:0|0:0,0:0:0:0:
372,110,37928,6,0,P|290:132|302:215,1,185,6|8,0:0|0:0,0:0:0:0:
212,107,38422,2,0,L|94:115,1,92.5,0|2,0:0|0:0,0:0:0:0:
42,226,38752,2,0,L|160:234,1,92.5,2|8,0:0|0:0,0:0:0:0:
226,335,39081,1,0,0:0:0:0:
118,212,39246,5,2,0:0:0:0:
244,355,39411,2,0,P|311:351|340:314,1,92.5,2|8,0:0|0:0,0:0:0:0:
406,220,39741,2,0,B|427:263|427:263|437:337,1,92.5,0|2,0:0|0:0,0:0:0:0:
273,289,40070,1,2,0:0:0:0:
379,143,40235,2,0,P|432:141|465:164,1,92.5,8|0,0:0|0:0,0:0:0:0:
266,196,40565,6,0,B|250:133|250:133|262:85|262:85|239:43|250:-6,1,185,2|8,0:0|0:0,0:0:0:0:
163,128,41059,2,0,P|93:131|54:96,1,92.5,0|2,0:0|0:0,0:0:0:0:
187,36,41389,2,0,P|257:33|296:68,1,92.5,2|8,0:0|0:0,0:0:0:0:
266,241,41719,1,2,0:0:0:0:
266,241,41801,1,2,0:0:0:0:
266,241,41884,5,8,0:0:0:0:
225,109,42048,1,2,0:0:0:0:
146,327,42213,1,8,0:0:0:0:
187,181,42378,1,2,0:0:0:0:
5,338,42543,1,12,0:0:0:0:
168,254,42708,1,2,0:0:0:0:
326,365,42873,2,0,P|395:371|447:291,1,138.75,12|0,0:0|0:0,0:0:0:0:
439,312,43202,5,4,0:0:0:0:
393,137,43367,2,0,B|364:181|364:181|375:241|375:241|363:317,1,166.499994918823,2|0,0:0|0:0,0:0:0:0:
165,286,43862,1,8,0:0:0:0:
281,242,44026,1,2,0:0:0:0:
138,362,44191,6,0,P|87:307|135:210,1,166.499994918823,6|0,0:0|0:0,0:0:0:0:
223,279,44686,1,2,0:0:0:0:
239,155,44851,1,2,0:0:0:0:
244,140,45180,2,0,B|329:114|329:114|359:27,1,166.499994918823,8|2,0:0|0:0,0:0:0:0:
261,275,45840,5,6,0:0:0:0:
163,196,46005,2,0,P|224:183|268:199,1,83.2499974594117,2|0,0:0|0:0,0:0:0:0:
272,308,46334,1,0,0:0:0:0:
125,220,46499,2,0,L|137:328,1,83.2499974594117,8|2,0:0|0:0,0:0:0:0:
149,129,46829,1,2,0:0:0:0:
80,24,46994,1,0,0:0:0:0:
105,194,47158,6,0,P|163:208|206:181,1,83.2499974594117,0|2,0:0|0:0,0:0:0:0:
269,69,47488,1,2,0:0:0:0:
201,174,47653,1,0,0:0:0:0:
346,122,47818,2,0,L|337:17,1,83.2499974594117,8|2,0:0|0:0,0:0:0:0:
248,237,48147,1,8,0:0:0:0:
395,184,48312,1,8,0:0:0:0:
246,375,48477,5,6,0:0:0:0:
176,319,48642,2,0,P|233:287|329:348,1,166.499994918823,2|0,0:0|0:0,0:0:0:0:
180,332,49136,1,8,0:0:0:0:
273,216,49301,1,2,0:0:0:0:
123,106,49466,6,0,L|90:276,1,166.499994918823,6|0,0:0|0:0,0:0:0:0:
219,226,49961,1,2,0:0:0:0:
334,270,50125,1,2,0:0:0:0:
354,281,50455,2,0,L|348:194,1,83.2499974594117,8|2,0:0|0:0,0:0:0:0:
333,45,50785,1,8,0:0:0:0:
285,343,51114,6,0,L|388:374,1,83.2499974594117,6|0,0:0|0:0,0:0:0:0:
234,234,51444,1,8,0:0:0:0:
195,352,51609,1,2,0:0:0:0:
350,219,51774,1,8,0:0:0:0:
214,295,51939,1,2,0:0:0:0:
424,311,52103,1,6,0:0:0:0:
278,111,52268,6,0,L|289:267,1,124.874996189118
291,282,52598,1,8,0:0:0:0:
459,160,52763,1,8,0:0:0:0:
350,98,52928,1,2,0:0:0:0:
398,337,53092,1,8,0:0:0:0:
398,337,53257,1,2,0:0:0:0:
90,72,53752,5,6,0:0:0:0:
172,208,53917,1,2,0:0:0:0:
242,65,54081,2,0,P|286:36|409:90,1,194.249994071961,0|8,0:0|0:0,0:0:0:0:
340,193,54576,1,2,0:0:0:0:
398,337,54741,1,0,0:0:0:0:
181,191,54906,5,6,0:0:0:0:
185,213,55235,2,0,P|223:176|265:145,1,97.1249970359803,2|2,0:0|0:0,0:0:0:0:
387,145,55565,1,0,0:0:0:0:
178,121,55730,1,8,0:0:0:0:
291,231,55895,2,0,P|334:248|396:220,1,97.1249970359803,0|2,0:0|0:0,0:0:0:0:
268,101,56224,1,0,0:0:0:0:
91,254,56389,6,0,L|78:146,1,97.1249970359803,6|2,0:0|0:0,0:0:0:0:
174,254,56719,2,0,P|138:321|16:291,1,194.249994071961,0|8,0:0|0:0,0:0:0:0:
85,231,57213,1,2,0:0:0:0:
222,337,57378,1,8,0:0:0:0:
119,151,57543,6,0,P|28:164|0:251,1,194.249994071961,6|2,0:0|0:0,0:0:0:0:
19,271,57955,1,2,0:0:0:0:
39,287,58037,2,8,B|51:332|51:332|45:398,1,97.1249970359803,8|0,0:0|0:0,0:0:0:0:
208,250,58367,1,2,0:0:0:0:
167,369,58532,1,2,0:0:0:0:
95,146,58697,2,0,P|98:205|103:264,1,97.1249970359803,8|0,0:0|0:0,0:0:0:0:
266,61,59026,5,6,0:0:0:0:
110,142,59191,1,2,0:0:0:0:
295,169,59356,2,0,P|373:117|360:15,1,194.249994071961,0|8,0:0|0:0,0:0:0:0:
288,74,59851,1,2,0:0:0:0:
459,87,60015,1,0,0:0:0:0:
336,254,60180,6,0,P|286:262|202:150,1,194.249994071961,6|2,0:0|0:0,0:0:0:0:
249,46,60675,1,2,0:0:0:0:
110,127,60840,2,0,P|110:184|117:249,1,97.1249970359803,0|10,0:0|0:0,0:0:0:0:
219,318,61169,2,0,P|281:315|320:270,1,97.1249970359803,0|2,0:0|0:0,0:0:0:0:
348,143,61499,1,0,0:0:0:0:
376,331,61664,5,6,0:0:0:0:
246,240,61829,1,2,0:0:0:0:
246,240,61994,2,0,P|179:245|148:359,1,194.249994071961,0|8,0:0|0:0,0:0:0:0:
259,343,62488,1,2,0:0:0:0:
100,217,62653,1,8,0:0:0:0:
342,270,62818,1,6,0:0:0:0:
145,353,62983,6,0,B|92:361|92:361|51:347,1,97.1249970359803,0|2,0:0|0:0,0:0:0:0:
35,340,63230,1,2,0:0:0:0:
19,333,63312,1,8,0:0:0:0:
148,270,63477,1,2,0:0:0:0:
0,189,63642,1,8,0:0:0:0:
80,310,63807,1,2,0:0:0:0:
44,126,63972,1,8,0:0:0:0:
407,121,64301,6,0,P|352:199|267:176,1,194.249994071961,6|8,0:0|0:0,0:0:0:0:
179,59,64796,2,0,P|166:118|177:173,1,97.1249970359803,0|2,0:0|0:0,0:0:0:0:
329,125,65125,2,0,P|342:66|329:11,1,97.1249970359803,2|8,0:0|0:0,0:0:0:0:
220,251,65455,6,0,P|275:290|407:257,1,194.249994071961,6|2,0:0|0:0,0:0:0:0:
248,84,65950,1,8,0:0:0:0:
253,105,66279,2,0,P|203:101|154:96,1,97.1249970359803,2|2,0:0|0:0,0:0:0:0:
106,234,66609,2,0,P|149:227|202:224,1,97.1249970359803,8|0,0:0|0:0,0:0:0:0:
398,350,66939,6,0,B|392:274|379:187|379:187|332:145,1,194.249994071961,6|8,0:0|0:0,0:0:0:0:
253,94,67433,1,0,0:0:0:0:
378,81,67598,1,2,0:0:0:0:
442,195,67763,2,0,P|423:232|361:257,1,97.1249970359803,2|0,0:0|0:0,0:0:0:0:
230,163,68092,6,0,P|161:165|108:283,1,194.249994071961,12|2,0:0|0:0,0:0:0:0:
301,241,68587,1,8,0:0:0:0:
136,144,68752,1,2,0:0:0:0:
136,144,68834,1,2,0:0:0:0:
136,144,68917,1,2,0:0:0:0:
199,254,69081,1,2,0:0:0:0:
177,33,69246,2,0,P|125:14|74:31,1,97.1249970359803,12|0,0:0|0:0,0:0:0:0:
281,198,69576,6,0,L|395:183,1,97.1249970359803,6|2,0:0|0:0,0:0:0:0:
477,23,69906,1,8,0:0:0:0:
352,114,70070,1,2,0:0:0:0:
512,227,70235,1,8,0:0:0:0:
373,212,70400,1,8,3:0:0:0:
455,100,70565,1,4,3:0:0:0:
348,322,70730,6,0,P|367:349|519:335,1,194.249994071961,6|2,0:0|0:0,0:0:0:0:
333,163,71224,1,8,0:0:0:0:
229,305,71389,1,2,0:0:0:0:
229,305,71472,1,2,0:0:0:0:
229,305,71554,1,8,0:0:0:0:
243,93,71719,1,2,0:0:0:0:
269,219,71884,1,0,0:0:0:0:
21,61,72213,6,0,L|29:157,1,92.5,6|2,0:0|0:0,0:0:0:0:
146,270,72543,1,8,0:0:0:0:
135,150,72708,2,0,L|154:51,1,92.5,2|0,0:0|0:0,0:0:0:0:
270,34,73037,1,2,0:0:0:0:
184,211,73202,2,0,P|146:227|97:218,1,92.5,8|2,0:0|0:0,0:0:0:0:
181,53,73532,5,0,0:0:0:0:
304,117,73697,1,2,0:0:0:0:
101,144,73862,2,0,L|53:38,1,92.5,8|2,0:0|0:0,0:0:0:0:
215,124,74191,1,2,0:0:0:0:
143,242,74356,1,2,0:0:0:0:
359,186,74521,1,8,0:0:0:0:
229,215,74686,1,0,0:0:0:0:
331,351,74851,6,0,B|337:301|337:301|321:237,1,92.5,2|2,0:0|0:0,0:0:0:0:
212,140,75180,2,0,B|206:90|206:90|222:26,1,92.5,8|0,0:0|0:0,0:0:0:0:
310,152,75510,1,2,0:0:0:0:
229,215,75675,2,0,P|176:208|139:159,1,92.5,2|0,0:0|0:0,0:0:0:0:
308,70,76005,6,0,P|366:93|363:212,1,185,8|2,0:0|0:0,0:0:0:0:
198,109,76499,1,8,0:0:0:0:
317,160,76664,1,2,0:0:0:0:
317,160,76746,1,2,0:0:0:0:
317,160,76829,1,2,0:0:0:0:
184,201,76994,1,2,0:0:0:0:
328,43,77158,2,0,P|381:41|426:73,1,92.5,8|0,0:0|0:0,0:0:0:0:
363,291,77488,6,0,P|310:293|265:261,1,92.5,6|2,0:0|0:0,0:0:0:0:
255,103,77818,1,8,0:0:0:0:
333,216,77983,1,2,0:0:0:0:
328,43,78147,2,0,P|275:9|235:9,1,92.5,0|2,0:0|0:0,0:0:0:0:
95,165,78477,2,0,P|81:117|70:60,1,92.5,8|2,0:0|0:0,0:0:0:0:
214,159,78807,6,0,P|204:204|192:248,1,92.5,0|2,0:0|0:0,0:0:0:0:
154,76,79136,1,8,0:0:0:0:
273,59,79301,1,2,0:0:0:0:
322,214,79466,1,2,0:0:0:0:
214,159,79631,1,2,0:0:0:0:
396,163,79796,2,0,B|412:204|412:204|403:267,1,92.5,8|0,0:0|0:0,0:0:0:0:
347,54,80125,5,2,0:0:0:0:
482,84,80290,1,2,0:0:0:0:
286,147,80455,2,0,P|242:121|186:82,1,92.5,8|0,0:0|0:0,0:0:0:0:
347,54,80785,1,2,0:0:0:0:
394,172,80950,2,0,P|352:231|329:253,1,92.5,2|0,0:0|0:0,0:0:0:0:
175,124,81279,6,0,P|94:113|41:220,1,185,8|2,0:0|0:0,0:0:0:0:
226,280,81774,1,12,0:0:0:0:
37,189,81939,2,0,B|27:58|27:58|63:6,1,185,6|2,0:0|0:0,0:0:0:0:
321,73,82433,1,8,0:0:0:0:
121,105,82598,1,8,0:0:0:0:
337,206,82763,5,6,0:0:0:0:
440,143,82928,2,0,P|443:87|419:36,1,92.5,2|0,0:0|0:0,0:0:0:0:
326,113,83257,1,0,0:0:0:0:
448,240,83422,2,0,L|439:337,1,92.5,8|2,0:0|0:0,0:0:0:0:
319,351,83752,1,0,0:0:0:0:
199,365,83917,1,2,0:0:0:0:
347,238,84081,6,0,P|367:163|281:82,1,185,2|2,0:0|0:0,0:0:0:0:
182,258,84576,1,0,0:0:0:0:
182,258,84658,1,0,0:0:0:0:
182,258,84741,1,8,0:0:0:0:
275,181,84906,1,2,0:0:0:0:
279,300,85070,1,0,0:0:0:0:
170,135,85235,1,0,0:0:0:0:
214,349,85400,6,0,P|256:379|323:368,1,92.5,2|2,0:0|0:0,0:0:0:0:
344,254,85730,2,0,P|302:224|235:235,1,92.5
97,270,86059,2,0,L|83:155,1,92.5,8|2,0:0|0:0,0:0:0:0:
68,58,86389,1,0,0:0:0:0:
175,111,86554,1,2,0:0:0:0:
336,47,86719,6,0,P|406:85|437:114,1,92.5,0|2,0:0|0:0,0:0:0:0:
410,213,87048,1,2,0:0:0:0:
458,20,87213,1,0,0:0:0:0:
458,20,87296,1,0,0:0:0:0:
458,20,87378,1,8,0:0:0:0:
368,119,87543,1,2,0:0:0:0:
510,83,87708,1,8,0:0:0:0:
336,47,87873,1,2,0:0:0:0:
372,275,88037,5,6,0:0:0:0:
432,170,88202,1,2,0:0:0:0:
281,263,88367,1,0,0:0:0:0:
431,192,88532,2,0,P|465:232|474:274,1,92.5,0|8,0:0|0:0,0:0:0:0:
338,193,88862,2,0,P|350:138|399:104,1,92.5,2|0,0:0|0:0,0:0:0:0:
373,276,89191,6,0,B|324:288|278:298|278:298|239:284|183:262,1,185,2|2,0:0|0:0,0:0:0:0:
161,150,89686,1,2,0:0:0:0:
223,358,89851,1,0,0:0:0:0:
223,358,89933,1,0,0:0:0:0:
223,358,90015,1,8,0:0:0:0:
93,252,90180,1,2,0:0:0:0:
101,362,90345,1,2,0:0:0:0:
178,282,90510,1,0,0:0:0:0:
16,230,90675,6,0,L|3:112,1,92.5,2|2,0:0|0:0,0:0:0:0:
147,82,91005,1,0,0:0:0:0:
137,231,91169,2,0,P|134:282|130:341,1,92.5,0|8,0:0|0:0,0:0:0:0:
245,155,91499,2,0,P|251:205|256:276,1,92.5,2|0,0:0|0:0,0:0:0:0:
161,105,91829,6,0,P|209:64|320:92,1,185,6|2,0:0|0:0,0:0:0:0:
369,277,92323,1,8,0:0:0:0:
430,173,92488,1,2,0:0:0:0:
232,270,92653,1,12,0:0:0:0:
348,193,92818,1,2,0:0:0:0:
202,193,92983,1,12,0:0:0:0:
361,234,93147,1,0,0:0:0:0:
167,117,93312,5,6,0:0:0:0:
292,221,93477,2,0,P|309:270|296:313,1,92.5,2|0,0:0|0:0,0:0:0:0:
180,356,93807,1,2,0:0:0:0:
270,143,93972,1,8,0:0:0:0:
178,219,94136,2,0,P|126:221|74:184,1,92.5,2|0,0:0|0:0,0:0:0:0:
8,108,94466,1,2,0:0:0:0:
123,268,94631,5,0,0:0:0:0:
150,138,94796,1,2,0:0:0:0:
26,301,94961,1,2,0:0:0:0:
37,172,95125,1,0,0:0:0:0:
86,361,95290,2,0,P|30:386|-31:359,1,92.5,8|2,0:0|0:0,0:0:0:0:
96,287,95620,1,2,0:0:0:0:
183,384,95785,1,0,0:0:0:0:
239,169,95950,5,2,0:0:0:0:
239,169,96114,1,2,0:0:0:0:
163,306,96279,2,0,P|142:244|151:193,1,92.5,0|2,0:0|0:0,0:0:0:0:
300,319,96609,1,8,0:0:0:0:
300,319,96774,1,2,0:0:0:0:
239,169,96939,2,0,P|278:100|327:86,1,92.5,0|2,0:0|0:0,0:0:0:0:
432,234,97268,6,0,P|358:239|328:220,1,92.5,0|2,0:0|0:0,0:0:0:0:
486,116,97598,1,2,0:0:0:0:
499,142,97928,1,8,0:0:0:0:
348,119,98092,1,2,0:0:0:0:
475,227,98257,1,8,0:0:0:0:
421,108,98422,1,2,0:0:0:0:
409,289,98587,6,0,B|396:334|396:334|356:371,1,92.5,6|2,0:0|0:0,0:0:0:0:
178,331,98917,1,0,0:0:0:0:
302,298,99081,1,2,0:0:0:0:
136,346,99246,1,8,0:0:0:0:
342,323,99411,2,0,B|421:316|483:335|483:335|471:378,1,185,2|2,0:0|0:0,0:0:0:0:
371,156,100070,5,2,0:0:0:0:
371,156,100235,2,0,P|361:203|364:255,1,92.5,2|0,0:0|0:0,0:0:0:0:
484,93,100565,1,8,0:0:0:0:
371,156,100730,1,2,0:0:0:0:
279,78,100895,1,2,0:0:0:0:
401,38,101059,1,0,0:0:0:0:
269,177,101224,6,0,P|209:182|170:154,1,92.5,2|2,0:0|0:0,0:0:0:0:
120,33,101554,1,0,0:0:0:0:
172,151,101719,1,2,0:0:0:0:
46,60,101884,1,8,0:0:0:0:
184,63,102048,2,0,P|249:109|236:209,1,185,2|2,0:0|0:0,0:0:0:0:
211,228,102461,1,2,0:0:0:0:
174,234,102543,5,8,0:0:0:0:
174,78,102708,1,2,0:0:0:0:
243,250,102873,1,8,0:0:0:0:
109,167,103037,1,2,0:0:0:0:
80,141,103120,1,2,0:0:0:0:
56,110,103202,2,0,P|57:63|62:17,1,92.5,12|2,0:0|0:0,0:0:0:0:
276,70,103532,2,0,P|275:137|259:223,1,138.75,12|0,0:0|0:0,0:0:0:0:
260,229,103862,5,6,0:0:0:0:
399,321,104026,2,0,P|459:313|492:206,1,166.499994918823,2|0,0:0|0:0,0:0:0:0:
302,198,104521,1,8,0:0:0:0:
419,241,104686,1,2,0:0:0:0:
285,114,104851,6,0,P|227:154|243:259,1,166.499994918823,6|0,0:0|0:0,0:0:0:0:
347,283,105345,1,2,0:0:0:0:
229,325,105510,1,2,0:0:0:0:
212,315,105840,2,0,B|196:259|196:259|215:200|215:200|196:141,1,166.499994918823,8|2,0:0|0:0,0:0:0:0:
429,326,106499,5,6,0:0:0:0:
504,182,106664,2,0,P|517:243|501:287,1,83.2499974594117,2|0,0:0|0:0,0:0:0:0:
413,337,106993,1,0,0:0:0:0:
352,183,107158,2,0,L|356:99,1,83.2499974594117,8|2,0:0|0:0,0:0:0:0:
250,239,107488,1,6,0:0:0:0:
359,298,107653,1,0,0:0:0:0:
281,152,107818,6,0,P|240:143|202:158,1,83.2499974594117,0|2,0:0|0:0,0:0:0:0:
153,263,108147,1,2,0:0:0:0:
178,140,108312,1,0,0:0:0:0:
237,302,108477,2,0,L|244:384,1,83.2499974594117,8|2,0:0|0:0,0:0:0:0:
378,219,108806,1,8,0:0:0:0:
352,361,108971,1,8,0:0:0:0:
281,152,109136,5,6,0:0:0:0:
200,306,109301,2,0,B|248:329|302:341|302:341|385:312,1,166.499994918823,2|0,0:0|0:0,0:0:0:0:
200,306,109795,1,8,0:0:0:0:
102,383,109960,1,2,0:0:0:0:
292,255,110125,6,0,P|296:178|260:91,1,166.499994918823,6|0,0:0|0:0,0:0:0:0:
210,210,110620,1,2,0:0:0:0:
369,262,110784,1,2,0:0:0:0:
387,248,111114,2,0,P|384:292|381:331,1,83.2499974594117,8|2,0:0|0:0,0:0:0:0:
264,141,111444,2,0,P|257:105|252:48,1,83.2499974594117,8|0,0:0|0:0,0:0:0:0:
396,172,111774,5,6,0:0:0:0:
327,297,111939,1,2,0:0:0:0:
353,103,112103,2,0,P|406:91|443:107,1,83.2499974594117,8|0,0:0|0:0,0:0:0:0:
319,218,112433,1,2,0:0:0:0:
203,117,112598,2,0,P|211:69|227:1,1,83.2499974594117,2|0,0:0|0:0,0:0:0:0:
319,218,112928,5,8,0:0:0:0:
178,335,113092,1,2,0:0:0:0:
178,335,113175,1,2,0:0:0:0:
178,335,113257,1,8,0:0:0:0:
319,218,113422,1,8,0:0:0:0:
180,249,113587,1,4,3:0:0:0:
348,138,113752,5,8,0:0:0:0:
387,167,113834,1,8,0:0:0:0:
403,213,113916,1,8,0:0:0:0:
391,261,113999,1,8,0:0:0:0:
355,294,114081,1,8,0:0:0:0:
308,277,114164,1,8,0:0:0:0:
258,269,114246,1,8,0:0:0:0:
217,298,114329,1,8,0:0:0:0:
168,310,114411,6,0,P|101:277|90:243,1,92.5,6|2,0:0|0:0,0:0:0:0:
146,95,114741,1,8,0:0:0:0:
258,269,114906,2,0,P|266:342|171:381,1,185,2|2,0:0|0:0,0:0:0:0:
182,173,115400,1,8,0:0:0:0:
75,312,115565,6,0,B|38:226|38:226|58:165|105:142,1,185,2|2,0:0|0:0,0:0:0:0:
276,235,116059,1,8,0:0:0:0:
137,238,116224,1,2,0:0:0:0:
353,186,116389,2,0,P|365:256|341:296,1,92.5,2|2,0:0|0:0,0:0:0:0:
197,93,116719,1,8,0:0:0:0:
330,53,116884,1,0,0:0:0:0:
200,208,117048,5,2,0:0:0:0:
200,208,117213,1,2,0:0:0:0:
26,104,117378,2,0,P|11:45|25:-2,1,92.5,8|0,0:0|0:0,0:0:0:0:
123,105,117708,1,2,0:0:0:0:
119,230,117873,2,0,B|70:241|70:241|0:227,1,92.5,2|0,0:0|0:0,0:0:0:0:
142,35,118202,1,8,0:0:0:0:
272,181,118367,6,0,P|281:131|285:56,1,92.5,0|2,0:0|0:0,0:0:0:0:
113,55,118697,1,8,0:0:0:0:
207,247,118862,1,2,0:0:0:0:
207,247,118944,1,2,0:0:0:0:
207,247,119026,1,2,0:0:0:0:
51,101,119191,1,2,0:0:0:0:
272,181,119356,1,8,0:0:0:0:
79,211,119521,1,0,0:0:0:0:
309,94,119686,6,0,P|394:115|407:133,1,92.5,6|2,0:0|0:0,0:0:0:0:
385,321,120015,1,8,0:0:0:0:
272,181,120180,2,0,L|263:262,1,46.25,2|0,0:0|0:0,0:0:0:0:
396,207,120345,2,0,L|383:95,1,92.5,2|2,0:0|0:0,0:0:0:0:
167,47,120675,1,8,0:0:0:0:
303,129,120840,6,0,L|290:251,1,92.5,2|0,0:0|0:0,0:0:0:0:
274,358,121169,1,2,0:0:0:0:
171,167,121334,2,0,P|160:238|174:270,1,92.5,8|2,0:0|0:0,0:0:0:0:
312,287,121664,1,2,0:0:0:0:
265,156,121829,1,0,0:0:0:0:
422,261,121994,2,0,L|407:368,1,92.5,8|0,0:0|0:0,0:0:0:0:
188,322,122323,5,2,0:0:0:0:
173,202,122488,1,2,0:0:0:0:
49,323,122653,2,0,L|37:232,1,92.5,8|0,0:0|0:0,0:0:0:0:
192,326,122983,1,2,0:0:0:0:
192,326,123147,2,0,P|244:332|281:313,1,92.5,2|0,0:0|0:0,0:0:0:0:
219,100,123477,6,0,P|176:178|255:262,1,185,8|2,0:0|0:0,0:0:0:0:
391,61,123972,1,12,0:0:0:0:
393,199,124136,1,2,0:0:0:0:
270,94,124301,1,8,0:0:0:0:
265,144,124383,1,8,3:0:0:0:
283,190,124465,1,4,3:0:0:0:
274,240,124548,1,4,3:0:0:0:
292,287,124630,1,6,0:0:0:0:
400,166,124796,1,0,0:0:0:0:
202,275,124961,6,0,P|158:267|105:248,1,92.5,6|2,0:0|0:0,0:0:0:0:
19,209,125290,1,2,0:0:0:0:
37,191,125620,2,0,L|48:295,1,92.5,8|2,0:0|0:0,0:0:0:0:
156,349,125950,1,0,0:0:0:0:
147,170,126114,6,0,P|94:110|-15:146,1,185,2|2,0:0|0:0,0:0:0:0:
150,249,126609,2,0,P|212:217|226:182,1,92.5,2|0,0:0|0:0,0:0:0:0:
189,38,126939,1,8,0:0:0:0:
147,170,127103,1,0,0:0:0:0:
257,86,127268,2,0,P|272:27|247:-19,1,92.5,2|0,0:0|0:0,0:0:0:0:
147,170,127598,5,2,0:0:0:0:
274,224,127763,1,2,0:0:0:0:
99,241,127928,2,0,B|69:195|69:195|67:129,1,92.5,2|0,0:0|0:0,0:0:0:0:
271,236,128257,1,8,0:0:0:0:
147,170,128422,2,0,P|159:102|205:68,1,92.5,2|0,0:0|0:0,0:0:0:0:
241,305,128752,6,0,P|174:344|68:301,1,185,8|2,0:0|0:0,0:0:0:0:
146,160,129246,2,0,P|164:207|157:252,1,92.5,2|0,0:0|0:0,0:0:0:0:
48,108,129576,1,8,0:0:0:0:
180,65,129741,1,2,0:0:0:0:
37,153,129906,1,8,0:0:0:0:
193,22,130070,1,8,0:0:0:0:
357,180,130235,5,6,0:0:0:0:
357,180,130400,1,2,0:0:0:0:
224,277,130565,2,0,B|226:320|226:320|255:388,1,92.5,8|0,0:0|0:0,0:0:0:0:
332,155,130895,1,2,0:0:0:0:
323,292,131059,1,2,0:0:0:0:
444,359,131224,1,0,0:0:0:0:
310,134,131389,1,8,0:0:0:0:
154,222,131554,6,0,B|130:260|130:260|124:317,1,92.5,0|2,0:0|0:0,0:0:0:0:
377,242,131884,2,0,B|401:204|401:204|407:147,1,92.5,8|0,0:0|0:0,0:0:0:0:
243,50,132213,1,2,0:0:0:0:
393,31,132378,1,2,0:0:0:0:
243,179,132543,1,8,0:0:0:0:
272,21,132708,1,0,0:0:0:0:
328,245,132873,6,0,P|285:285|240:287,1,92.5,6|2,0:0|0:0,0:0:0:0:
292,96,133202,2,0,B|336:82|336:82|380:107|380:107|428:99|492:121,1,185,8|2,0:0|0:0,0:0:0:0:
328,245,133697,2,0,P|317:183|337:149,1,92.5,2|0,0:0|0:0,0:0:0:0:
414,318,134026,6,0,P|361:355|241:318,1,185,8|2,0:0|0:0,0:0:0:0:
163,139,134521,1,8,0:0:0:0:
123,262,134686,1,2,0:0:0:0:
264,161,134851,1,8,0:0:0:0:
261,110,134933,1,8,0:0:0:0:
236,67,135015,1,8,0:0:0:0:
192,41,135098,1,8,0:0:0:0:
142,40,135180,1,8,0:0:0:0:
97,62,135263,1,8,0:0:0:0:
68,104,135345,1,8,0:0:0:0:
63,154,135427,1,8,0:0:0:0:
82,200,135510,5,6,0:0:0:0:
320,77,145235,5,2,0:0:0:0:
190,200,145400,1,8,0:0:0:0:
169,48,145565,1,8,0:0:0:0:
269,153,145730,1,8,3:0:0:0:
227,279,145895,1,4,3:0:0:0:
398,218,146059,6,0,P|389:127|335:95,1,148,6|0,0:0|0:0,0:0:0:0:
481,107,146554,1,2,0:0:0:0:
326,177,146719,1,8,0:0:0:0:
429,245,146884,2,0,P|430:297|403:342,1,74
326,177,147213,6,0,B|343:110|343:110|333:-2,1,148,2|2,0:0|0:0,0:0:0:0:
191,91,147708,2,0,P|232:103|275:93,1,74
134,20,148037,2,0,P|97:15|62:27,1,74,8|0,0:0|0:0,0:0:0:0:
101,175,148367,2,0,P|115:112|99:80,1,74
157,229,148697,6,0,P|190:164|190:90,1,148,2|0,0:0|0:0,0:0:0:0:
87,47,149191,1,2,0:0:0:0:
234,163,149356,1,8,0:0:0:0:
337,123,149521,2,0,P|345:179|334:217,1,74
274,73,149851,6,0,P|318:43|406:83,1,148,2|2,0:0|0:0,0:0:0:0:
478,152,150345,2,0,P|495:114|501:78,1,74
337,123,150675,2,0,P|344:159|358:193,1,74,8|0,0:0|0:0,0:0:0:0:
464,230,151005,1,2,0:0:0:0:
229,110,151334,6,0,P|166:156|81:135,1,148,6|0,0:0|0:0,0:0:0:0:
142,44,151829,1,2,0:0:0:0:
163,199,151994,1,8,0:0:0:0:
229,110,152158,2,0,P|234:64|234:20,1,74
163,199,152488,6,0,P|226:225|311:180,1,148,2|2,0:0|0:0,0:0:0:0:
359,104,152983,2,0,P|365:149|369:195,1,74
210,113,153312,1,8,0:0:0:0:
324,26,153477,1,2,0:0:0:0:
163,199,153642,1,8,0:0:0:0:
366,235,153807,1,8,0:0:0:0:
182,95,153972,5,6,0:0:0:0:
256,192,154136,12,8,155950,0:0:0:0:
256,192,156114,5,8,0:0:0:0:
411,25,156609,5,6,0:0:0:0:
441,207,156774,1,2,0:0:0:0:
284,113,156939,2,0,P|194:134|178:225,1,194.249994071961,0|8,0:0|0:0,0:0:0:0:
256,192,157433,1,2,0:0:0:0:
120,246,157598,1,0,0:0:0:0:
224,24,157763,5,6,0:0:0:0:
208,16,158092,2,0,P|205:61|206:117,1,97.1249970359803,2|2,0:0|0:0,0:0:0:0:
323,162,158422,1,0,0:0:0:0:
155,63,158587,1,8,0:0:0:0:
285,228,158752,2,0,P|321:240|383:212,1,97.1249970359803,0|2,0:0|0:0,0:0:0:0:
269,90,159081,1,0,0:0:0:0:
106,263,159246,6,0,P|94:209|93:155,1,97.1249970359803,6|2,0:0|0:0,0:0:0:0:
244,160,159576,2,0,P|241:251|219:383,1,194.249994071961,0|8,0:0|0:0,0:0:0:0:
121,250,160070,1,2,0:0:0:0:
280,312,160235,1,8,0:0:0:0:
185,97,160400,6,0,P|199:86|330:173,1,194.249994071961,6|2,0:0|0:0,0:0:0:0:
316,175,160812,1,2,0:0:0:0:
303,200,160894,2,8,B|291:245|291:245|295:295,1,97.1249970359803,8|0,0:0|0:0,0:0:0:0:
484,350,161224,1,2,0:0:0:0:
365,265,161389,1,2,0:0:0:0:
492,135,161554,2,0,L|489:183|486:231,1,97.1249970359803,8|0,0:0|0:0,0:0:0:0:
290,98,161883,5,6,0:0:0:0:
446,158,162048,1,2,0:0:0:0:
339,18,162213,2,0,P|248:13|196:102,1,194.249994071961,0|8,0:0|0:0,0:0:0:0:
279,185,162708,1,2,0:0:0:0:
332,50,162872,1,0,0:0:0:0:
438,202,163037,6,0,B|452:335|452:335|409:395,1,194.249994071961,6|2,0:0|0:0,0:0:0:0:
495,284,163532,1,2,0:0:0:0:
373,318,163697,2,0,P|325:327|266:334,1,97.1249970359803,0|8,0:0|0:0,0:0:0:0:
161,242,164026,2,0,P|159:189|161:119,1,97.1249970359803,0|2,0:0|0:0,0:0:0:0:
297,79,164356,1,0,0:0:0:0:
225,305,164521,5,6,0:0:0:0:
359,286,164686,1,2,0:0:0:0:
359,286,164851,2,0,B|344:141|344:141|288:181,1,194.249994071961,0|8,0:0|0:0,0:0:0:0:
188,257,165345,1,2,0:0:0:0:
244,93,165510,1,8,0:0:0:0:
261,341,165675,1,6,0:0:0:0:
104,180,165840,6,0,P|94:127|110:86,1,97.1249970359803,0|2,0:0|0:0,0:0:0:0:
121,74,166087,1,2,0:0:0:0:
134,65,166169,1,8,0:0:0:0:
261,135,166334,1,2,0:0:0:0:
58,185,166499,1,8,0:0:0:0:
200,216,166664,1,2,0:0:0:0:
14,78,166829,1,8,0:0:0:0:
280,209,167158,6,0,P|227:294|142:271,1,194.249994071961,6|8,0:0|0:0,0:0:0:0:
68,152,167653,2,0,B|54:206|54:206|66:266,1,97.1249970359803,0|2,0:0|0:0,0:0:0:0:
200,216,167983,2,0,B|214:162|214:162|202:102,1,97.1249970359803,2|8,0:0|0:0,0:0:0:0:
335,327,168312,6,0,P|401:347|371:258,1,194.249994071961,6|2,0:0|0:0,0:0:0:0:
148,291,168807,1,8,0:0:0:0:
130,307,169136,2,0,P|134:258|138:210,1,97.1249970359803,2|2,0:0|0:0,0:0:0:0:
305,88,169466,2,0,P|353:90|401:97,1,97.1249970359803,8|0,0:0|0:0,0:0:0:0:
232,138,169796,6,0,P|232:37|328:2,1,194.249994071961,6|8,0:0|0:0,0:0:0:0:
409,101,170290,1,0,0:0:0:0:
232,138,170455,1,2,0:0:0:0:
340,234,170620,2,0,P|288:237|228:219,1,97.1249970359803,2|0,0:0|0:0,0:0:0:0:
401,141,170949,6,0,P|428:164|416:309,1,194.249994071961,12|2,0:0|0:0,0:0:0:0:
310,165,171444,1,8,0:0:0:0:
278,354,171609,1,2,0:0:0:0:
278,354,171691,1,2,0:0:0:0:
278,354,171774,1,2,0:0:0:0:
353,230,171938,1,2,0:0:0:0:
171,338,172103,2,0,B|114:324|114:324|78:275,1,97.1249970359803,12|0,0:0|0:0,0:0:0:0:
253,80,172433,6,0,P|291:55|367:65,1,97.1249970359803,6|2,0:0|0:0,0:0:0:0:
436,228,172763,1,8,0:0:0:0:
322,137,172927,1,2,0:0:0:0:
438,325,173092,1,8,0:0:0:0:
438,111,173257,1,8,3:0:0:0:
336,244,173422,1,4,3:0:0:0:
512,74,173587,6,0,P|488:47|360:105,1,194.249994071961,6|2,0:0|0:0,0:0:0:0:
512,74,174081,1,8,0:0:0:0:
384,248,174246,1,2,0:0:0:0:
384,248,174329,1,2,0:0:0:0:
384,248,174411,1,8,0:0:0:0:
438,111,174576,1,2,0:0:0:0:
445,314,174741,2,0,P|385:338|344:328,1,97.1249970359803,8|0,0:0|0:0,0:0:0:0:
201,138,175070,5,6,0:0:0:0:
174,281,175235,1,2,0:0:0:0:
310,174,175400,2,0,P|308:118|295:73,1,97.1249970359803,8|2,0:0|0:0,0:0:0:0:
237,232,175730,1,8,0:0:0:0:
382,241,175895,1,8,3:0:0:0:
429,103,176059,1,4,3:0:0:0:
290,249,176224,6,0,P|281:312|389:383,1,194.249994071961,6|2,0:0|0:0,0:0:0:0:
498,210,176719,1,8,0:0:0:0:
378,299,176884,1,2,0:0:0:0:
378,299,176966,1,2,0:0:0:0:
378,299,177048,6,0,L|394:234,1,48.5624985179902,8|8,0:0|0:0,0:0:0:0:
382,136,177213,1,8,0:0:0:0:
343,101,177295,1,8,0:0:0:0:
291,97,177377,1,8,0:0:0:0:
249,128,177460,1,8,0:0:0:0:
203,155,177542,1,8,0:0:0:0:
152,147,177625,1,8,0:0:0:0:
116,109,177708,6,0,P|110:58|145:3,1,92.5,6|2,0:0|0:0,0:0:0:0:
249,128,178037,1,8,0:0:0:0:
180,227,178202,2,0,B|126:241|126:241|59:222,1,92.5,2|0,0:0|0:0,0:0:0:0:
116,109,178532,1,2,0:0:0:0:
271,194,178697,2,0,P|275:244|243:301,1,92.5,8|2,0:0|0:0,0:0:0:0:
188,69,179026,5,0,0:0:0:0:
180,227,179191,1,2,0:0:0:0:
290,35,179356,1,8,0:0:0:0:
207,144,179521,1,2,0:0:0:0:
107,10,179686,2,0,P|98:59|94:120,1,92.5,2|2,0:0|0:0,0:0:0:0:
52,285,180015,2,0,P|45:239|42:193,1,92.5,8|0,0:0|0:0,0:0:0:0:
207,144,180345,5,2,0:0:0:0:
207,144,180510,1,2,0:0:0:0:
262,290,180675,2,0,P|248:361|220:391,1,92.5,8|0,0:0|0:0,0:0:0:0:
147,293,181005,1,2,0:0:0:0:
256,208,181169,2,0,P|329:220|368:236,1,92.5,2|0,0:0|0:0,0:0:0:0:
234,82,181499,6,0,P|338:71|439:93,1,185,8|2,0:0|0:0,0:0:0:0:
295,199,181994,1,8,0:0:0:0:
348,37,182158,1,2,0:0:0:0:
348,37,182241,1,2,0:0:0:0:
348,37,182323,1,2,0:0:0:0:
369,155,182488,1,2,0:0:0:0:
200,71,182653,2,0,P|143:76|95:91,1,92.5,8|0,0:0|0:0,0:0:0:0:
258,299,182983,6,0,P|315:294|363:279,1,92.5,6|2,0:0|0:0,0:0:0:0:
383,117,183312,1,8,0:0:0:0:
445,245,183477,2,0,P|449:299|423:355,1,92.5,2|0,0:0|0:0,0:0:0:0:
318,362,183807,1,2,0:0:0:0:
386,185,183972,2,0,P|438:162|498:183,1,92.5,8|2,0:0|0:0,0:0:0:0:
347,291,184301,6,0,B|308:268|308:268|275:214,1,92.5,0|2,0:0|0:0,0:0:0:0:
359,42,184631,1,8,0:0:0:0:
367,162,184796,1,2,0:0:0:0:
481,29,184961,2,0,P|489:102|474:146,1,92.5,2|2,0:0|0:0,0:0:0:0:
371,253,185290,2,0,P|363:180|378:136,1,92.5,8|0,0:0|0:0,0:0:0:0:
484,321,185620,5,2,0:0:0:0:
480,200,185785,1,2,0:0:0:0:
392,351,185950,2,0,P|334:348|287:298,1,92.5,8|0,0:0|0:0,0:0:0:0:
267,175,186279,1,2,0:0:0:0:
371,253,186444,2,0,P|378:204|384:146,1,92.5,2|0,0:0|0:0,0:0:0:0:
234,22,186774,6,0,P|208:84|275:178,1,185,8|2,0:0|0:0,0:0:0:0:
480,200,187268,1,12,0:0:0:0:
300,90,187433,2,0,P|228:93|183:210,1,185,6|4,0:0|3:0,0:0:0:0:
272,336,187928,1,4,3:0:0:0:
267,175,188092,1,4,3:0:0:0:
115,306,188257,6,0,P|113:237|134:202,1,92.5,12|2,0:0|0:0,0:0:0:0:
267,175,188587,1,2,0:0:0:0:
196,377,188752,1,4,3:0:0:0:
190,209,188917,1,4,3:0:0:0:
258,300,189081,1,4,3:0:0:0:
110,110,189246,5,12,0:0:0:0:
265,41,189411,2,0,P|201:18|143:35,1,92.5,2|2,0:0|0:0,0:0:0:0:
267,175,189741,1,12,0:0:0:0:
394,26,189906,1,12,0:0:0:0:
294,107,190070,1,2,0:0:0:0:
474,50,190235,2,0,P|486:104|474:164,1,92.5,12|0,0:0|0:0,0:0:0:0:
330,244,190565,2,0,P|315:311|379:360,1,138.75,6|0,0:0|0:0,0:0:0:0:
381,291,190895,5,6,0:0:0:0:
173,345,191059,1,6,0:0:0:0:
