osu file format v11

[General]
AudioFilename: 11 .mp3
AudioLeadIn: 0
PreviewTime: 167760
Countdown: 0
SampleSet: Normal
StackLeniency: 1
Mode: 0
LetterboxInBreaks: 1

[Editor]
Bookmarks: 2985,12585,14985,23385,34185,43785,53385,62985,68985,70185,77235,115785,125385,134985,142185,158385,166185,168885,215385,226185,240585
DistanceSpacing: 1.3
BeatDivisor: 4
GridSize: 4

[Metadata]
Title:The First War Against Myself
TitleUnicode:第一次ジブン戦争
Artist:nano ft. Underbar
ArtistUnicode:ナノ ft. __
Creator:ychao
Version:Requiem
Source:Nanoir
Tags:
BeatmapID:198858
BeatmapSetID:68815

[Difficulty]
HPDrainRate:7
CircleSize:4
OverallDifficulty:8
ApproachRate:9
SliderMultiplier:1.9
SliderTickRate:2

[Events]
//Background and Video events
0,0,"nano.png"
//Break Periods
2,15185,23985
2,115985,134385
2,148685,157785
//Storyboard Layer 0 (Background)
//Storyboard Layer 1 (Fail)
//Storyboard Layer 2 (Pass)
//Storyboard Layer 3 (Foreground)
//Storyboard Sound Samples
//Background Colour Transformations
3,100,0,0,0

[TimingPoints]
585,600,4,2,0,90,1,0
2985,300,4,2,0,20,1,0
2985,-125,4,2,0,20,0,0
4035,-200,4,2,0,20,0,0
4485,-125,4,2,0,20,0,0
4785,-200,4,2,0,20,0,0
5235,-125,4,2,0,20,0,0
11985,-200,4,2,0,20,0,0
12285,-200,4,2,0,10,0,0
24573,-100,4,1,0,70,0,0
25185,-133.333333333333,4,1,0,70,0,0
25485,-100,4,1,0,70,0,0
26385,-133.333333333333,4,1,0,75,0,0
26685,-100,4,1,1,80,0,0
28785,-133.333333333333,4,1,1,80,0,0
29085,-100,4,1,1,90,0,0
33285,-83.3333333333333,4,1,1,90,0,0
33585,-100,4,1,1,90,0,0
34185,-111.111111111111,4,1,1,90,0,0
35385,-133.333333333333,4,1,1,90,0,0
35685,-111.111111111111,4,1,1,90,0,0
36585,-133.333333333333,4,1,1,90,0,0
36885,-111.111111111111,4,1,1,90,0,0
37785,-133.333333333333,4,1,1,90,0,0
38085,-111.111111111111,4,1,1,90,0,0
38985,-133.333333333333,4,1,1,90,0,0
39285,-111.111111111111,4,1,1,90,0,0
40185,-133.333333333333,4,1,1,90,0,0
40485,-111.111111111111,4,1,1,90,0,0
41385,-133.333333333333,4,1,1,90,0,0
41685,-111.111111111111,4,1,1,90,0,0
43785,-133.333333333333,4,1,1,90,0,0
44535,-200,4,1,1,90,0,0
44835,-133.333333333333,4,1,1,90,0,0
45735,-200,4,1,1,90,0,0
46035,-133.333333333333,4,1,1,90,0,0
46935,-200,4,1,1,90,0,0
47235,-200,4,1,1,90,0,0
47385,-200,4,1,1,90,0,0
47985,-133.333333333333,4,1,1,90,0,0
49335,-200,4,1,1,90,0,0
49635,-133.333333333333,4,1,1,90,0,0
50535,-200,4,1,1,90,0,0
50835,-133.333333333333,4,1,1,90,0,0
51735,-200,4,1,1,90,0,0
52035,-111.111111111111,4,1,1,90,0,0
52185,-200,4,1,1,50,0,0
52785,-111.111111111111,4,1,1,50,0,0
52935,-200,4,1,1,50,0,0
53385,-100,4,1,1,90,0,0
56985,-133.333333333333,4,1,1,90,0,0
57285,-100,4,1,1,90,0,0
57435,-133.333333333333,4,1,1,90,0,0
57735,-100,4,1,1,90,0,0
59385,-133.333333333333,4,1,1,90,0,0
59685,-100,4,1,1,90,0,0
59835,-133.333333333333,4,1,1,90,0,0
60135,-100,4,1,1,90,0,0
60585,-200,4,1,1,90,0,0
61185,-100,4,1,1,90,0,0
61785,-133.333333333333,4,1,1,90,0,0
62085,-100,4,1,1,90,0,0
62985,600,4,2,1,100,1,0
63985,-100,4,2,2,100,0,0
64185,-100,4,2,1,100,0,0
64385,-100,4,2,2,100,0,0
64785,-100,4,2,1,100,0,0
64985,-100,4,2,2,100,0,0
65385,-100,4,2,1,100,0,0
66385,-100,4,2,2,100,0,0
66585,-100,4,2,1,100,0,0
67985,-100,4,2,2,100,0,0
68185,-100,4,2,1,100,0,0
69185,-100,4,2,2,100,0,0
69385,-100,4,2,1,100,0,0
70185,300,4,1,1,90,1,0
76185,-133.333333333333,4,1,1,90,0,0
76485,-100,4,1,1,90,0,0
77235,-100,4,1,1,90,0,1
95385,-200,4,1,1,90,0,0
95685,-100,4,1,1,5,0,0
95835,-100,4,1,1,90,0,0
96135,-100,4,1,1,5,0,0
96285,-200,4,1,1,90,0,0
96585,-100,4,1,1,90,0,0
134985,600,4,2,1,100,1,0
135985,-100,4,2,2,100,0,0
136185,-100,4,2,1,100,0,0
136385,-100,4,2,2,100,0,0
136785,-100,4,2,1,100,0,0
136985,-100,4,2,2,100,0,0
137385,-100,4,2,1,100,0,0
138385,-100,4,2,2,100,0,0
138585,-100,4,2,1,100,0,0
139985,-100,4,2,2,100,0,0
140185,-100,4,2,1,100,0,0
141185,-100,4,2,2,100,0,0
141385,-100,4,2,1,100,0,0
142185,300,4,1,1,90,1,0
148185,-200,4,1,1,90,0,0
148485,-100,4,1,1,90,0,0
168435,-200,4,1,1,90,0,0
168735,-200,4,1,1,5,0,0
168885,-100,4,1,1,90,0,1
186585,-200,4,1,1,90,0,1
186885,-100,4,1,1,5,0,1
187035,-100,4,1,1,90,0,1
187335,-100,4,1,1,5,0,1
187485,-200,4,1,1,90,0,1
187785,-100,4,1,1,90,0,0
191235,-133.333333333333,4,1,1,90,0,0
191535,-100,4,1,1,90,0,0
206985,-100,4,1,1,90,0,0
226185,-100,4,1,1,90,0,0
227085,-100,4,1,1,20,0,0
227385,-100,4,1,1,90,0,0
228285,-100,4,1,1,20,0,0
228585,-100,4,1,1,90,0,0
229485,-100,4,1,1,20,0,0
229785,-100,4,1,1,90,0,0
230685,-100,4,1,1,20,0,0
230985,-133.333333333333,4,1,1,90,0,0
231735,-200,4,1,1,90,0,0
232035,-133.333333333333,4,1,1,90,0,0
232935,-200,4,1,1,90,0,0
233235,-133.333333333333,4,1,1,90,0,0
234135,-200,4,1,1,90,0,0
234435,-133.333333333333,4,1,1,90,0,0
234585,-200,4,1,1,90,0,0
235185,-133.333333333333,4,1,1,90,0,0
236535,-200,4,1,1,90,0,0
236835,-133.333333333333,4,1,1,90,0,0
237735,-200,4,1,1,90,0,0
238035,-133.333333333333,4,1,1,90,0,0
238935,-200,4,1,1,90,0,0
239235,-133.333333333333,4,1,1,90,0,0
240585,-200,4,1,1,50,0,0
241785,-100,4,2,1,5,0,0

[Colours]
Combo1 : 255,255,0
Combo2 : 0,130,255
Combo3 : 255,0,50
Combo4 : 155,60,255

[HitObjects]
96,108,2985,2,0,B|136:104|168:88,1,76,2|0,0:0|0:0,0:0:0
236,40,3285,2,0,B|292:68|208:144|264:176,1,152,2|2,0:0|0:0,0:0:0
340,212,3735,1,2,0:0:0
232,344,3885,1,2,0:0:0
308,296,4035,1,0,0:0:0
376,356,4185,2,0,B|427:356|459:316,1,95,2|2,0:0|0:0,0:0:0
460,148,4785,2,0,B|380:148|340:212,1,142.5,2|2,0:0|0:0,0:0:0
212,264,5385,5,2,0:0:0
160,136,5535,1,2,0:0:0
296,140,5685,2,0,B|272:168|236:184,1,76,2|0,0:0|0:0,0:0:0
172,44,5985,2,0,B|196:16|232:0,2,76,2|0|0,0:0|0:0|0:0,0:0:0
160,136,6435,1,2,0:0:0
36,232,6585,2,0,B|51:265|84:292,1,76
160,352,6885,1,2,0:0:0
240,292,7035,1,2,0:0:0
212,196,7185,1,2,0:0:0
112,196,7335,2,0,B|80:168|64:136,2,76,2|0|2,0:0|0:0|0:0,0:0:0
236,72,7785,6,0,B|164:44,1,76,2|0,0:0|0:0,0:0:0
212,196,8085,2,0,B|236:220|280:224,1,76,0|2,0:0|0:0,0:0:0
424,168,8385,2,0,B|400:144|356:140,1,76,2|0,0:0|0:0,0:0:0
276,144,8685,1,2,0:0:0
276,144,8835,1,0,0:0:0
180,272,8985,2,0,B|151:294|112:308,1,76,2|0,0:0|0:0,0:0:0
20,252,9285,2,0,B|15:215|22:175,1,76,2|2,0:0|0:0,0:0:0
128,180,9585,1,0,0:0:0
80,84,9735,2,0,B|91:25|125:31|142:1|195:29,1,152,2|0,0:0|0:0,0:0:0
276,144,10185,6,0,B|264:220,1,76,2|0,0:0|0:0,0:0:0
180,272,10485,1,2,0:0:0
300,368,10635,2,0,B|312:292,1,76,2|0,0:0|0:0,0:0:0
360,208,10935,2,0,P|384:184|420:164,2,76,2|0|0,0:0|0:0|0:0,0:0:0
208,192,11385,2,0,P|184:168|164:132,1,76,2|0,0:0|0:0,0:0:0
216,48,11685,1,2,0:0:0
304,92,11835,1,2,0:0:0
360,8,11985,2,0,B|400:40|404:88,1,95,2|0,0:0|0:0,0:0:0
256,192,12585,12,0,14985,0:0:0
432,192,24585,5,0,0:0:0
432,192,24735,1,4,0:0:0
256,36,25185,2,0,P|216:60|216:60|176:20|128:44,1,142.500005435944,0|0,0:0|2:0,0:0:0
80,192,25785,5,0,0:0:0
80,192,25935,1,4,0:0:0
256,348,26385,2,0,P|296:324|296:324|336:364|384:340,1,142.500005435944,0|0,0:0|2:0,0:0:0
192,132,26985,6,0,P|144:124|108:96,1,95,8|0,0:0|0:0,0:0:0
320,132,27285,2,0,P|368:140|404:168,1,95
480,264,27585,2,0,P|472:312|444:348,1,95,8|0,0:0|0:0,0:0:0
404,368,27810,1,0,0:0:0
364,348,27885,2,0,P|335:308|332:264,1,95
320,132,28185,2,0,P|312:84|284:48,1,95,8|0,0:0|0:0,0:0:0
192,132,28485,2,0,P|200:180|228:216,1,95
332,264,28785,2,0,P|311:332|252:368,1,142.500005435944,8|0,0:0|0:0,0:0:0
64,208,29385,2,0,P|84:164|116:132,1,95
156,112,29610,1,0,0:0:0
192,132,29685,6,0,P|268:192|352:168,1,190,8|0,0:0|0:0,0:0:0
424,68,30135,1,0,0:0:0
476,180,30285,2,0,P|465:277|389:319,1,190,8|0,0:0|0:0,0:0:0
280,268,30735,1,0,0:0:0
352,168,30885,2,0,P|364:124|352:76,1,95,8|0,0:0|0:0,0:0:0
232,0,31185,1,0,0:0:0
316,0,31335,1,0,0:0:0
196,76,31485,2,0,P|176:172|208:256,1,190,8|0,0:0|0:0,0:0:0
288,352,31935,1,0,0:0:0
364,256,32085,2,0,P|448:232|468:312,1,190,8|0,0:0|0:0,0:0:0
148,128,32685,6,0,P|64:152|44:72,1,190,8|0,0:0|0:0,0:0:0
116,8,33135,1,0,0:0:0
196,64,33285,2,0,P|218:75|224:80|224:80|235:80|235:80|229:75|229:75|235:69|235:69|241:75|241:75|235:80|235:80|246:80|246:80|258:80|258:80|252:86|252:86|258:92|258:92|263:86|263:86|258:80|258:80|269:80|269:80|280:80|280:80|286:75|286:75|280:69|280:69|275:75|275:75|280:80|280:80|292:80|292:80|297:75|320:64,1,227.999993041992,8|0,0:0|0:0,0:0:0
396,8,33735,1,0,0:0:0
416,100,33885,2,0,P|388:164|316:148|316:148|296:212,1,190,8|8,0:0|0:0,0:0:0
256,332,34335,5,0,0:0:0
216,212,34485,1,8,0:0:0
320,288,34635,1,0,0:0:0
192,288,34785,2,0,P|152:288|108:272,2,85.4999973907472,8|0|8,0:0|0:0|0:0,0:0:0
296,212,35235,1,0,0:0:0
240,76,35385,2,0,P|193:23|124:24,1,142.500005435944,8|8,0:0|0:0,0:0:0
40,136,35835,6,0,P|84:136|124:120,1,85.4999973907472
240,76,36135,2,0,P|252:116|240:156,1,85.4999973907472
192,240,36435,1,0,0:0:0
296,340,36585,2,8,P|268:276|296:212,1,142.500005435944,8|8,0:0|0:0,0:0:0
396,164,37035,1,8,0:0:0
292,128,37185,1,8,0:0:0
340,28,37335,1,8,0:0:0
240,76,37485,6,0,P|204:96|160:100,1,85.4999973907472,8|0,0:0|0:0,0:0:0
40,28,37785,2,0,P|40:100|80:156,1,142.500005435944,8|0,0:0|0:0,0:0:0
188,180,38235,2,0,P|160:100,1,85.4999973907472,8|0,0:0|0:0,0:0:0
112,264,38535,2,0,P|191:293,1,85.4999973907472,8|0,0:0|0:0,0:0:0
296,332,38835,1,0,0:0:0
340,192,38985,2,0,P|404:164|468:192,1,142.500005435944,0|8,0:0|0:0,0:0:0
512,292,39435,1,0,0:0:0
400,280,39585,1,0,0:0:0
468,192,39735,1,0,0:0:0
488,84,39885,6,0,P|456:60|416:40,1,85.4999973907472,8|0,0:0|0:0,0:0:0
288,108,40185,2,0,P|224:136|160:108,1,142.500005435944,8|0,0:0|0:0,0:0:0
76,36,40635,1,0,0:0:0
48,144,40785,2,0,P|56:224|128:268,1,170.999994781494
228,220,41235,1,8,0:0:0
304,340,41385,2,0,P|240:368|176:340,1,142.500005435944,8|8,0:0|0:0,0:0:0
128,220,41835,1,8,0:0:0
232,292,41985,1,8,0:0:0
120,292,42135,1,8,0:0:0
228,220,42285,6,0,P|260:196|300:176,1,85.4999973907472,10|2,0:0|0:0,0:0:0
380,296,42585,2,0,P|432:360|512:348,1,170.999994781494,8|0,0:0|0:0,0:0:0
512,92,43185,2,0,P|460:28|380:40,1,170.999994781494,8|8,0:0|0:0,0:0:0
288,104,43635,1,0,0:0:0
256,192,43785,2,0,P|216:204|204:236|204:236|180:236|140:208,1,142.500005435944,8|0,0:0|0:0,0:0:0
172,128,44235,1,0,0:0:0
52,208,44385,1,8,0:0:0
16,72,44535,2,0,P|60:92|88:128,1,95,0|8,0:0|0:0,0:0:0
136,272,44985,2,0,P|145:312|123:339|123:339|135:359|180:380,1,142.500005435944,8|0,0:0|0:0,0:0:0
264,364,45435,1,0,0:0:0
372,272,45585,1,8,0:0:0
256,192,45735,2,0,P|263:239|291:276,1,95,8|8,0:0|0:0,0:0:0
412,200,46185,6,0,P|402:159|424:132|424:132|412:112|367:91,1,142.500005435944,8|0,0:0|0:0,0:0:0
280,44,46635,1,0,0:0:0
180,128,46785,1,8,0:0:0
128,12,46935,2,0,P|173:28|207:62,1,95,8|0,0:0|0:0,0:0:0
112,148,47385,2,8,P|66:131|32:97,2,95
252,112,48135,1,8,0:0:0
332,228,48285,1,8,0:0:0
236,332,48435,1,8,0:0:0
100,284,48585,6,0,P|120:240|148:232|148:232|176:256|212:240,1,142.500005435944,8|0,0:0|0:0,0:0:0
276,180,49035,1,0,0:0:0
200,60,49185,1,8,0:0:0
340,32,49335,2,0,P|317:71|274:97,1,95,0|8,0:0|0:0,0:0:0
212,240,49785,2,0,P|236:286|269:291|269:291|300:272|332:280,1,142.500005435944,8|0,0:0|0:0,0:0:0
392,352,50235,1,0,0:0:0
496,256,50385,1,8,0:0:0
388,164,50535,2,0,P|392:212|409:254,1,95,8|0,0:0|0:0,0:0:0
472,128,50985,6,0,P|479:100|471:63|471:63|426:57|406:22,1,142.500005435944,8|0,0:0|0:0,0:0:0
344,96,51435,1,0,0:0:0
208,144,51585,1,8,0:0:0
208,0,51735,2,0,P|242:35|258:77,1,95,8|0,0:0|0:0,0:0:0
124,128,52185,2,0,P|90:93|74:51,2,95,0|0|0,0:0|0:0|0:0,0:0:0
116,220,52935,2,0,P|98:265|67:297,1,95,0|0,0:0|0:0,0:0:0
256,340,53385,5,0,0:0:0
212,204,53535,1,0,0:0:0
328,288,53685,1,0,0:0:0
184,288,53835,1,0,0:0:0
300,204,53985,2,0,P|321:161|321:116,1,95
212,20,54285,2,0,P|191:63|191:108,1,95
212,204,54585,5,0,0:0:0
128,248,54735,1,0,0:0:0
56,184,54885,1,0,0:0:0
96,96,55035,1,0,0:0:0
192,108,55185,2,0,P|244:108|284:84,1,95
476,172,55485,2,0,P|428:172|388:148,1,95
280,88,55785,1,0,0:0:0
388,24,55935,1,0,0:0:0
388,148,56085,2,0,P|372:196|340:224,1,95
200,260,56385,1,0,0:0:0
284,300,56535,1,0,0:0:0
148,340,56685,5,0,0:0:0
340,224,56835,1,0,0:0:0
156,132,56985,2,0,P|212:88|280:88,1,142.500005435944
356,252,57435,2,0,P|300:296|232:296,1,142.500005435944
156,200,57885,1,0,0:0:0
60,120,58035,1,0,0:0:0
40,240,58185,2,0,P|16:296|60:324|60:324|108:304|148:340,2,190
76,152,58935,1,0,0:0:0
256,192,59085,1,0,0:0:0
176,124,59235,1,0,0:0:0
356,184,59385,6,0,P|356:136|356:136|324:104|324:104|324:52,1,142.500005435944
156,200,59835,2,0,P|156:248|156:248|188:280|188:280|188:332,1,142.500005435944
300,376,60285,1,0,0:0:0
400,300,60435,1,0,0:0:0
356,184,60585,2,0,P|312:168|264:168,2,95
368,280,61335,1,0,0:0:0
284,320,61485,1,0,0:0:0
220,252,61635,1,0,0:0:0
264,168,61785,6,0,P|296:116|256:80|256:80|256:36,1,142.500005435944
256,36,62160,1,0,0:0:0
256,36,62235,1,4,0:0:0
332,268,62385,1,0,0:0:0
132,124,62535,1,4,0:0:0
384,124,62685,1,0,0:0:0
180,268,62835,1,4,0:0:0
256,100,62985,6,0,P|240:160|272:168|256:224,1,126.666666666667,2|0,0:0|0:0,0:0:0
256,224,63585,1,8,0:0:0
256,224,63985,1,2,0:0:0
184,276,64185,1,2,0:0:0
112,224,64385,1,2,0:0:0
140,140,64585,1,0,0:0:0
228,140,64785,1,8,0:0:0
256,56,64985,1,2,0:0:0
184,8,65185,1,0,0:0:0
112,56,65385,6,0,P|84:112|112:164,1,126.666666666667,2|0,0:0|0:0,0:0:0
184,276,65985,2,0,P|149:328|90:330,1,126.666666666667,8|2,0:0|0:0,0:0:0
248,164,66585,2,0,P|310:167|341:218,1,126.666666666667,2|0,0:0|0:0,0:0:0
316,304,67185,1,8,0:0:0
388,356,67385,1,0,0:0:0
460,304,67585,1,0,0:0:0
432,220,67785,6,0,P|484:184,2,63.3333333333333,2|2|2,0:0|0:0|0:0,0:0:0
360,116,68385,2,0,P|324:64,2,63.3333333333333,8|0|2,0:0|0:0|0:0,0:0:0
256,192,68985,2,0,P|204:228,2,63.3333333333333,2|2|2,0:0|0:0|0:0,0:0:0
256,104,69585,1,8,0:0:0
300,28,69785,1,0,0:0:0
212,28,69985,1,2,0:0:0
412,104,70185,5,4,0:0:0
100,192,70485,1,2,0:0:0
412,284,70785,1,0,0:0:0
100,364,71085,1,2,0:0:0
288,280,71385,6,0,P|332:256,2,47.5,8|0|0,0:0|0:0|0:0,0:0:0
228,204,71685,2,0,P|184:180,2,47.5,4|0|0,0:0|0:0|0:0,0:0:0
324,192,71985,1,8,0:0:0
360,172,72060,1,0,0:0:0
374,129,72135,1,0,0:0:0
357,90,72210,1,0,0:0:0
318,73,72285,1,0,0:0:0
275,87,72360,1,0,0:0:0
256,124,72435,1,0,0:0:0
188,192,72585,6,0,P|140:180|100:160,1,95,4|0,0:0|0:0,0:0:0
4,100,72885,1,0,0:0:0
104,48,73035,1,0,0:0:0
100,160,73185,2,0,P|100:208|84:252,1,95,4|0,0:0|0:0,0:0:0
160,332,73485,2,0,P|204:316,1,47.5,0|0,0:0|0:0,0:0:0
204,272,73635,2,0,P|188:228,1,47.5
188,192,73785,2,0,P|228:172|276:160,1,95,4|0,0:0|0:0,0:0:0
328,240,74085,1,0,0:0:0
420,216,74235,1,0,0:0:0
456,192,74310,1,0,0:0:0
480,156,74385,6,0,P|456:116,2,47.5
512,64,74685,1,4,0:0:0
496,24,74760,1,0,0:0:0
456,12,74835,1,0,0:0:0
416,24,74910,1,0,0:0:0
400,64,74985,2,0,P|364:92|316:100,2,95,4|0|0,0:0|0:0|0:0,0:0:0
328,20,75435,1,0,0:0:0
208,40,75585,5,8,0:0:0
236,120,75735,1,0,0:0:0
92,120,75885,1,8,0:0:0
120,40,76035,1,0,0:0:0
164,168,76185,2,0,P|183:202|166:234|166:234|125:238|112:275,1,142.500005435944,8|0,0:0|2:0,0:0:0
113,362,76635,1,0,0:0:0
40,316,76785,1,8,0:0:0
183,313,76935,1,0,0:0:0
64,200,77085,1,0,0:0:0
236,120,77235,69,8,0:0:0
236,120,77310,1,0,0:0:0
236,120,77385,2,0,P|264:160|296:192,1,95
364,16,77685,2,0,P|316:16|272:32,1,95,8|0,0:0|0:0,0:0:0
396,176,77985,2,0,P|416:132|428:88,2,95,8|0|0,0:0|0:0|0:0,0:0:0
320,272,78435,1,0,0:0:0
456,320,78585,2,0,P|428:280|392:252,1,95,8|0,0:0|0:0,0:0:0
240,272,78885,1,0,0:0:0
236,120,79035,5,0,0:0:0
84,140,79185,2,0,P|108:187|143:209|143:209|182:174|234:196,1,190
312,100,79635,1,0,0:0:0
408,244,79785,2,0,P|368:268|320:272,1,95
432,116,80085,2,0,P|472:138|500:178,1,95
488,300,80385,1,0,0:0:0
320,272,80535,1,0,0:0:0
340,188,80685,1,0,0:0:0
376,336,80835,1,0,0:0:0
232,280,80985,2,0,P|192:244|216:192|216:192|192:152|136:152,1,190
360,44,81585,6,0,P|404:28|452:28,1,95
432,172,81885,2,0,P|388:188|340:188,1,95
160,268,82185,2,0,P|168:221|192:180,1,95
256,76,82485,1,0,0:0:0
148,12,82635,1,0,0:0:0
48,80,82785,6,0,P|88:102|135:110,1,95
256,76,83085,2,0,P|296:54|343:46,1,95
452,108,83385,1,0,0:0:0
344,172,83535,1,0,0:0:0
452,232,83685,2,0,P|474:304|420:318|403:272|350:287|368:358,1,190
192,352,84135,5,0,0:0:0
192,352,84285,2,0,P|212:316|220:264,1,95
332,208,84585,1,0,0:0:0
324,332,84735,1,0,0:0:0
220,264,84885,2,0,P|200:228|192:176,1,95
284,88,85185,2,0,P|320:68|372:60,1,95
192,176,85485,2,0,P|156:196|104:204,1,95
24,136,85785,5,0,0:0:0
44,100,85860,1,0,0:0:0
80,76,85935,1,0,0:0:0
124,72,86010,1,0,0:0:0
160,92,86085,1,0,0:0:0
184,124,86160,1,0,0:0:0
224,140,86235,1,0,0:0:0
264,128,86310,1,0,0:0:0
284,88,86385,1,0,0:0:0
360,32,86535,2,0,P|404:52|432:88,1,95
452,180,86835,1,0,0:0:0
452,180,86910,1,0,0:0:0
452,180,86985,6,0,P|436:224|440:272,1,95
480,364,87285,2,0,P|392:380|332:308,1,190,0|0,0:0|0:0,0:0:0
344,188,87735,1,0,0:0:0
244,116,87885,1,0,0:0:0
144,188,88035,1,0,0:0:0
196,300,88185,2,0,P|244:312|288:300,1,95
344,188,88485,5,0,0:0:0
244,116,88635,1,0,0:0:0
296,4,88785,2,0,P|344:-8|388:4,1,95
444,116,89085,1,0,0:0:0
344,188,89235,1,0,0:0:0
404,296,89385,2,0,P|432:256|444:212,1,95
244,116,89685,2,0,P|216:156|204:200,1,95
252,336,89985,1,0,0:0:0
296,200,90135,1,0,0:0:0
176,280,90285,1,0,0:0:0
320,280,90435,1,0,0:0:0
204,200,90585,2,0,P|164:164|120:192|120:192|128:248|64:260,1,190
36,8,91185,6,0,P|80:-4|126:8,1,95
220,92,91485,2,0,P|240:188,1,95
372,76,91785,2,0,P|278:45,1,95
144,84,92085,1,0,0:0:0
164,224,92235,1,0,0:0:0
308,216,92385,2,0,P|380:152,1,95
472,192,92685,1,0,0:0:0
490,285,92835,1,0,0:0:0
308,216,92985,1,0,0:0:0
396,252,93135,1,0,0:0:0
320,308,93285,2,0,P|240:356|156:324,1,190
136,200,93735,5,0,0:0:0
24,272,93885,2,0,P|72:280|116:268,1,95
244,128,94185,2,0,P|196:120|152:132,1,95
60,180,94485,2,0,P|32:88,1,95
128,8,94785,1,0,0:0:0
200,108,94935,1,0,0:0:0
244,128,95010,1,0,0:0:0
290,124,95085,1,0,0:0:0
408,88,95235,1,0,0:0:0
452,204,95385,2,0,P|480:296,1,95,0|0,0:0|2:0,0:0:0
336,340,95835,5,0,0:0:0
336,340,95985,2,0,P|345:300|345:300|357:288|357:288|367:248,1,95,0|0,0:0|2:0,0:0:0
312,172,96285,2,0,P|284:201|284:201|267:206|267:206|239:235,1,95
104,192,96735,5,0,0:0:0
104,192,96810,1,0,0:0:0
104,192,96885,2,0,P|95:143|101:98,1,95
224,108,97185,1,0,0:0:0
240,232,97335,1,0,0:0:0
240,232,97410,1,0,0:0:0
240,232,97485,2,0,P|248:280|242:325,1,95
256,368,97710,1,0,0:0:0
296,356,97785,2,0,P|344:347|389:353,1,95
484,248,98085,1,0,0:0:0
420,120,98235,2,0,P|371:111|326:117,2,95
364,232,98685,1,0,0:0:0
240,232,98835,1,0,0:0:0
184,120,98985,6,0,P|175:71|181:26,1,95
224,12,99210,1,0,0:0:0
264,32,99285,2,0,P|312:40|357:34,1,95
476,116,99585,1,0,0:0:0
332,120,99735,1,0,0:0:0
436,32,99885,1,0,0:0:0
404,172,100035,2,0,P|448:192,1,47.5
488,212,100185,2,0,P|482:257|454:296,1,95
272,248,100485,2,0,P|320:236|364:240,1,95
268,344,100785,2,0,P|220:356|176:352,1,95
56,316,101085,1,0,0:0:0
52,192,101235,1,0,0:0:0
168,152,101385,5,0,0:0:0
244,248,101535,1,0,0:0:0
244,248,101610,1,0,0:0:0
244,248,101685,1,0,0:0:0
120,256,101835,2,0,P|80:228|52:192,1,95
76,72,102135,2,0,P|118:47|160:32,1,95
296,136,102435,1,0,0:0:0
296,136,102585,2,0,P|392:128,1,95
216,248,102885,1,0,0:0:0
216,248,103035,2,0,P|120:256,1,95
176,140,103335,2,0,P|204:100|236:68,2,95
276,316,103785,6,0,P|304:288|336:244,1,95
364,104,104085,1,0,0:0:0
424,232,104235,1,0,0:0:0
300,164,104385,1,0,0:0:0
440,148,104535,1,0,0:0:0
220,176,104685,2,0,P|192:204|160:248,1,95
96,344,104985,1,0,0:0:0
16,260,105135,5,0,0:0:0
16,260,105210,1,0,0:0:0
16,260,105285,2,0,P|4:216|16:168,1,95
144,104,105585,1,0,0:0:0
4,84,105735,1,0,0:0:0
104,184,105885,1,0,0:0:0
80,44,106035,1,0,0:0:0
256,16,106185,6,0,P|344:0|416:60,1,190
384,180,106635,1,0,0:0:0
296,92,106785,1,0,0:0:0
416,60,106935,2,0,P|452:148,1,95
408,264,107235,1,0,0:0:0
292,308,107385,2,0,P|204:272,1,95
108,192,107685,2,0,P|92:152|116:121|116:121|184:128|216:80,1,190
144,20,108135,1,0,0:0:0
288,140,108285,2,0,P|330:155|378:155,1,95
384,24,108585,6,0,P|288:24|216:80,1,190
168,196,109035,1,0,0:0:0
248,288,109185,1,0,0:0:0
332,200,109335,2,0,P|288:200|240:216,1,95
128,268,109635,1,0,0:0:0
44,100,109785,2,0,P|88:100|136:116,1,95
240,216,110085,1,0,0:0:0
332,108,110235,1,0,0:0:0
424,216,110385,2,0,P|380:216|332:200,1,95
224,136,110685,2,0,P|160:204|196:284,1,190
424,376,111285,6,0,P|440:344|440:344|440:320|440:320|424:288,1,95
240,216,111585,2,0,P|259:245|259:245|280:257|280:257|316:260,1,95
468,180,111885,1,0,0:0:0
498,89,112035,1,0,0:0:0
356,148,112185,1,0,0:0:0
396,234,112335,1,0,0:0:0
388,56,112485,2,0,P|352:24|308:12,1,95
176,32,112785,1,0,0:0:0
88,132,112935,2,0,P|124:164|168:176,1,95
276,112,113235,5,0,0:0:0
324,224,113385,2,0,P|335:269|315:311,1,95
184,260,113685,1,0,0:0:0
240,196,113835,1,0,0:0:0
228,336,113985,1,0,0:0:0
100,272,114135,2,0,P|80:236|72:184,1,95
156,92,114435,5,0,0:0:0
276,112,114585,2,0,P|329:130,2,47.5
344,20,114885,2,0,P|290:2,2,47.5
452,56,115185,1,0,0:0:0
489,70,115260,1,0,0:0:0
511,105,115335,1,0,0:0:0
496,143,115410,1,0,0:0:0
461,166,115485,1,0,0:0:0
427,188,115560,1,0,0:0:0
410,226,115635,1,0,0:0:0
433,260,115710,1,0,0:0:0
471,278,115785,1,0,0:0:0
256,316,134985,6,0,P|272:256|240:248|256:192,1,126.666666666667,2|0,0:0|0:0,0:0:0
256,192,135585,1,8,0:0:0
256,192,135985,1,2,0:0:0
204,120,136185,1,2,0:0:0
256,48,136385,1,2,0:0:0
340,76,136585,1,0,0:0:0
340,164,136785,1,8,0:0:0
424,192,136985,1,2,0:0:0
472,120,137185,1,0,0:0:0
424,48,137385,6,0,P|368:20|316:48,1,126.666666666667,2|0,0:0|0:0,0:0:0
204,120,137985,2,0,P|151:85|150:26,1,126.666666666667,8|2,0:0|0:0,0:0:0
316,184,138585,2,0,P|312:246|260:280,1,126.666666666667,2|0,0:0|0:0,0:0:0
180,308,139185,1,8,0:0:0
124,236,139385,1,0,0:0:0
172,160,139585,1,0,0:0:0
256,192,139785,6,0,P|292:140,2,63.3333333333333,2|2|2,0:0|0:0|0:0,0:0:0
152,120,140385,2,0,P|100:84,2,63.3333333333333,8|0|2,0:0|0:0|0:0,0:0:0
80,224,140985,2,0,P|44:276,2,63.3333333333333,2|2|2,0:0|0:0|0:0,0:0:0
168,208,141585,1,8,0:0:0
152,120,141785,1,0,0:0:0
64,136,141985,1,2,0:0:0
108,304,142185,5,4,0:0:0
404,212,142485,1,2,0:0:0
108,120,142785,1,0,0:0:0
404,28,143085,1,2,0:0:0
208,180,143385,6,0,P|168:208,2,47.5
208,60,143685,2,0,P|168:32,2,47.5
316,120,143985,1,0,0:0:0
356,136,144060,1,0,0:0:0
396,120,144135,1,0,0:0:0
435,103,144210,1,0,0:0:0
475,119,144285,1,0,0:0:0
492,159,144360,1,0,0:0:0
475,199,144435,1,0,0:0:0
428,284,144585,6,0,P|380:296|336:284,1,95
256,192,144885,1,0,0:0:0
136,220,145035,1,0,0:0:0
152,344,145185,2,0,P|191:321|222:283,1,95
256,192,145485,2,0,P|224:156,1,47.5
224,108,145635,2,0,P|260:76,1,47.5
260,28,145785,2,0,P|216:8|172:24,1,95
84,72,146085,1,0,0:0:0
136,156,146235,1,0,0:0:0
108,188,146310,1,0,0:0:0
136,220,146385,6,0,P|172:252,2,47.5
116,304,146685,1,0,0:0:0
132,344,146760,1,0,0:0:0
172,356,146835,1,0,0:0:0
212,344,146910,1,0,0:0:0
228,304,146985,2,0,P|264:276|312:268,2,95
300,352,147435,1,0,0:0:0
396,276,147585,5,0,0:0:0
512,196,147735,1,0,0:0:0
368,196,147885,1,0,0:0:0
484,276,148035,1,0,0:0:0
440,192,148185,2,0,P|452:172|436:152|436:152|444:132|444:132|444:100,1,95,0|0,0:0|2:0,0:0:0
144,352,158385,6,0,P|164:312|176:264,1,95
52,256,158685,2,0,P|32:216|20:168,1,95
108,84,158985,2,0,P|148:64|196:52,1,95
236,160,159285,2,0,P|276:180|324:192,1,95
436,172,159585,1,0,0:0:0
488,272,159735,1,0,0:0:0
412,356,159885,1,0,0:0:0
308,308,160035,1,0,0:0:0
324,192,160185,2,0,P|336:120|392:108|392:108|392:64|360:44,1,190
188,192,160785,6,0,P|176:264|120:276|120:276|120:320|152:340,1,190
256,384,161235,1,0,0:0:0
316,288,161385,2,0,P|324:192,1,95
196,96,161685,2,0,P|188:192,1,95
124,320,161985,1,0,0:0:0
100,180,162135,1,0,0:0:0
200,280,162285,1,0,0:0:0
60,256,162435,1,0,0:0:0
188,192,162585,2,0,P|280:152|280:232|372:192,1,190
504,4,163185,6,0,P|408:4|360:76,1,190
372,192,163635,1,0,0:0:0
272,136,163785,2,0,P|232:116|184:104,1,95
72,136,164085,1,0,0:0:0
72,248,164235,1,0,0:0:0
184,276,164385,2,0,P|228:264|272:244,1,95
360,104,164685,2,0,P|316:116|272:136,1,95
192,192,164985,1,0,0:0:0
272,244,165135,1,0,0:0:0
272,136,165285,2,0,P|192:92|112:136,2,190
460,160,166185,6,0,P|504:176,1,47.5
464,216,166335,2,0,P|499:246,1,47.5
448,268,166485,2,0,P|471:308,1,47.5
416,304,166635,2,0,P|424:350,1,47.5
372,332,166785,2,0,P|363:378,1,47.5
324,336,166935,2,0,P|296:380,1,47.5
268,328,167085,2,0,P|232:358,1,47.5
228,300,167235,2,0,P|184:316,1,47.5
200,260,167385,5,0,0:0:0
200,260,167535,2,0,P|183:175|265:138,1,190
336,228,167985,2,0,P|415:193|398:104,1,190
304,44,168435,2,0,P|260:24|216:12,1,95,0|0,0:0|2:0,0:0:0
40,88,168885,6,0,P|84:108|128:120,1,95
176,232,169185,2,0,P|132:252|88:264,2,95
256,140,169635,1,0,0:0:0
388,196,169785,2,0,P|420:228|448:268,1,95
364,360,170085,1,0,0:0:0
256,300,170235,5,0,0:0:0
320,168,170385,2,0,P|300:84|208:88,1,190
148,192,170835,1,0,0:0:0
68,144,170985,2,0,P|96:104|132:76,1,95
228,240,171285,2,0,P|200:280|164:308,1,95
80,260,171585,1,0,0:0:0
180,160,171735,1,0,0:0:0
68,144,171885,1,0,0:0:0
168,44,172035,1,0,0:0:0
304,92,172185,2,0,P|344:120|376:120|376:120|408:72|472:72,1,190
508,356,172785,6,0,P|464:344|424:316,1,95
280,304,173085,2,0,P|324:292|364:264,1,95
472,108,173385,2,0,P|428:120|388:148,1,95
296,216,173685,1,0,0:0:0
204,132,173835,1,0,0:0:0
248,16,173985,6,0,P|268:60|280:104,1,95
216,208,174285,2,0,P|176:232|128:236,1,95
12,196,174585,1,0,0:0:0
108,116,174735,1,0,0:0:0
128,236,174885,2,0,P|172:316|256:296,1,190
320,192,175335,5,0,0:0:0
320,192,175485,2,0,P|348:152|380:120,1,95
504,104,175785,1,0,0:0:0
456,216,175935,1,0,0:0:0
380,120,176085,2,0,P|348:88|308:60,1,95
192,104,176385,2,0,P|172:140|164:192,1,95
320,280,176685,2,0,P|340:244|348:192,1,95
308,60,176985,5,0,0:0:0
279,30,177060,1,0,0:0:0
238,16,177135,1,0,0:0:0
194,24,177210,1,0,0:0:0
165,52,177285,1,0,0:0:0
150,89,177360,1,0,0:0:0
115,115,177435,1,0,0:0:0
74,114,177510,1,0,0:0:0
44,80,177585,1,0,0:0:0
16,172,177735,6,0,P|56:200|88:232,1,95
216,184,178035,1,0,0:0:0
216,184,178110,1,0,0:0:0
216,184,178185,2,0,P|228:228|248:272,1,95
320,364,178485,2,0,P|404:336|416:244,1,190
324,164,178935,1,0,0:0:0
416,84,179085,1,0,0:0:0
508,164,179235,1,0,0:0:0
416,244,179385,2,0,P|372:256|324:244,1,95
216,184,179685,1,0,0:0:0
192,64,179835,1,0,0:0:0
72,100,179985,6,0,P|116:120|160:132,1,95
264,64,180285,1,0,0:0:0
288,184,180435,1,0,0:0:0
184,252,180585,2,0,P|228:272|272:284,1,95
444,204,180885,2,0,P|400:184|356:172,1,95
264,64,181185,1,0,0:0:0
400,100,181335,1,0,0:0:0
268,152,181485,1,0,0:0:0
344,32,181635,1,0,0:0:0
356,172,181785,2,0,P|356:228|316:256|316:256|316:300|356:336,1,190
116,272,182385,6,0,P|88:236|68:192,1,95
96,72,182685,2,0,P|132:44|176:24,1,95
264,196,182985,2,0,P|221:178|182:150,1,95
284,80,183285,1,0,0:0:0
384,152,183435,1,0,0:0:0
364,268,183585,2,0,P|328:296|284:316,1,95
140,316,183885,1,0,0:0:0
256,232,184035,1,0,0:0:0
212,368,184185,1,0,0:0:0
168,232,184335,1,0,0:0:0
284,316,184485,2,0,P|364:360|444:316,1,190
488,200,184935,5,0,0:0:0
364,208,185085,2,0,P|328:180|300:140,1,95
384,4,185385,2,0,P|420:32|448:72,1,95
300,140,185685,2,0,P|340:128|392:124,1,95
488,200,185985,1,0,0:0:0
468,320,186135,1,0,0:0:0
436,356,186210,1,0,0:0:0
392,376,186285,1,0,0:0:0
272,352,186435,1,0,0:0:0
208,244,186585,2,0,P|196:204|192:152,1,95,0|0,0:0|2:0,0:0:0
288,44,187035,85,0,0:0:0
288,44,187185,2,0,P|300:140,1,95,0|0,0:0|2:0,0:0:0
420,216,187485,2,0,P|408:120,1,95
288,44,187935,37,0,0:0:0
192,152,188085,2,0,P|152:184|112:200,1,95
16,92,188385,2,0,P|56:60|96:44,1,95
216,16,188685,1,0,0:0:0
280,120,188835,1,0,0:0:0
256,256,188985,2,0,P|296:288|336:304,1,95
404,168,189285,2,0,P|356:186|322:213,1,95
408,340,189585,2,0,P|415:289|409:246,1,95
480,144,189885,1,0,0:0:0
388,64,190035,1,0,0:0:0
280,120,190185,5,0,0:0:0
280,120,190260,1,0,0:0:0
280,120,190335,1,0,0:0:0
172,180,190485,2,0,P|128:192|80:180,1,95
84,56,190785,2,0,P|128:44|176:56,1,95
280,120,191085,1,0,0:0:0
188,264,191235,2,0,P|127:297|64:264,1,142.5
84,124,191685,2,0,P|128:112|176:124,1,95
300,192,191985,2,0,P|340:212|388:224,1,95
512,232,192285,1,0,0:0:0
456,120,192435,1,0,0:0:0
388,224,192585,6,0,P|360:264|328:296,1,95
124,160,192885,2,0,P|152:120|184:88,1,95
300,132,193185,2,0,P|396:132,1,95
212,252,193485,2,0,P|116:252,1,95
84,64,193785,2,0,P|160:12|256:20,1,190
300,132,194235,1,0,0:0:0
412,76,194385,2,0,P|448:104|476:144,1,95
504,264,194685,1,0,0:0:0
364,232,194835,1,0,0:0:0
364,232,194910,1,0,0:0:0
364,232,194985,6,0,P|320:224|268:224,1,95
152,304,195285,1,0,0:0:0
296,304,195435,1,0,0:0:0
180,224,195585,1,0,0:0:0
224,360,195735,1,0,0:0:0
268,224,195885,2,0,P|280:180|268:132,1,95
180,40,196185,2,0,P|168:84|180:132,1,95
268,224,196485,2,0,P|360:188,1,95
392,52,196785,2,0,P|300:88,1,95
180,132,197085,1,0,0:0:0
180,132,197235,1,0,0:0:0
64,176,197385,6,0,P|12:248|64:320,1,190
180,364,197835,1,0,0:0:0
296,316,197985,2,0,P|268:224,1,95
272,100,198285,1,0,0:0:0
376,164,198435,1,0,0:0:0
268,224,198585,2,0,P|224:240|176:240,1,95
64,176,198885,2,0,P|104:116|140:144|140:144|176:172|215:112,1,190
268,0,199335,1,0,0:0:0
384,44,199485,2,0,P|428:64|460:96,1,95
476,288,199785,6,0,P|388:296|336:216,1,190
296,100,200235,1,0,0:0:0
212,192,200385,2,0,P|176:216|128:232,1,95
68,124,200685,1,0,0:0:0
180,72,200835,1,0,0:0:0
212,192,200985,2,0,P|236:284,1,95
404,192,201285,2,0,P|312:166,1,95
312,360,201585,2,0,P|379:293,1,95
500,268,201885,1,0,0:0:0
404,192,202035,1,0,0:0:0
500,112,202185,6,0,P|500:208,1,95
404,128,202485,1,0,0:0:0
404,4,202635,1,0,0:0:0
308,84,202785,2,0,P|308:180,1,95
212,260,203085,1,0,0:0:0
212,136,203235,1,0,0:0:0
116,216,203385,1,0,0:0:0
116,340,203535,1,0,0:0:0
20,260,203685,2,0,P|5:228|5:228|5:204|5:204|20:172,1,95
92,68,203985,1,0,0:0:0
216,80,204135,2,0,P|230:111|230:111|230:135|230:135|216:168,1,95
116,240,204435,5,0,0:0:0
208,324,204585,2,0,P|256:312|296:292,1,95
400,224,204885,2,0,P|352:212|312:192,1,95
300,68,205185,1,0,0:0:0
412,120,205335,1,0,0:0:0
312,192,205485,2,0,P|272:212|224:224,1,95
116,160,205785,1,0,0:0:0
100,160,205860,1,0,0:0:0
84,160,205935,1,0,0:0:0
52,68,206085,1,0,0:0:0
68,68,206160,1,0,0:0:0
84,68,206235,1,0,0:0:0
172,104,206385,5,0,0:0:0
192,140,206460,1,0,0:0:0
232,156,206535,1,0,0:0:0
272,140,206610,1,0,0:0:0
292,104,206685,1,0,0:0:0
312,68,206760,1,0,0:0:0
352,52,206835,1,0,0:0:0
392,68,206910,1,0,0:0:0
412,104,206985,2,0,P|432:192|364:256,1,190,0|0,0:0|0:0,0:0:0
100,280,207585,2,0,P|80:192|148:128,1,190,0|0,0:0|0:0,0:0:0
300,296,208185,2,0,P|380:340|460:296,1,190
212,88,208785,2,0,P|132:44|52:88,1,190
132,300,209385,5,0,0:0:0
380,300,209685,1,0,0:0:0
380,84,209985,1,0,0:0:0
132,84,210285,1,0,0:0:0
332,192,210585,1,0,0:0:0
256,268,210885,1,0,0:0:0
180,192,211185,1,0,0:0:0
256,116,211485,1,0,0:0:0
388,300,211785,6,0,P|324:368|236:356,1,190
124,84,212385,2,0,P|188:16|276:28,1,190
472,148,212985,2,0,P|380:132|312:192,1,190
40,236,213585,2,0,P|132:252|200:192,1,190
408,60,214185,6,0,P|468:132|456:224,1,190
104,324,214785,2,0,P|44:252|56:160,1,190
292,120,215385,2,0,P|220:60|128:72,1,190
220,264,215985,2,0,P|292:324|384:312,1,190
476,312,216585,5,0,0:0:0
476,312,216735,1,0,0:0:0
380,312,217785,1,0,0:0:0
380,312,217935,1,0,0:0:0
284,312,218985,6,0,P|240:300|200:272,1,95
228,72,219285,2,0,P|272:84|312:112,1,95
208,180,219585,2,0,P|112:180,1,95
76,200,219810,1,0,0:0:0
76,244,219885,2,0,P|92:284|132:316,1,95
304,204,220185,2,0,P|316:156|312:112,1,95
208,180,220485,2,0,P|196:228|200:272,1,95
304,344,220785,5,0,0:0:0
342,362,220860,1,0,0:0:0
382,360,220935,1,0,0:0:0
419,342,221010,1,0,0:0:0
444,308,221085,2,0,P|444:212,1,95
500,104,221385,2,0,P|464:76|420:56,1,95
376,56,221610,1,0,0:0:0
348,88,221685,6,0,P|288:164,1,95
304,276,221985,2,0,P|364:200,1,95
220,108,222285,2,0,P|160:184,1,95
72,292,222585,1,0,0:0:0
212,256,222735,1,0,0:0:0
76,208,222885,1,0,0:0:0
156,328,223035,1,0,0:0:0
160,184,223185,2,0,P|148:136|128:96,1,95
12,32,223485,2,0,P|24:80|44:120,1,95
160,184,223785,6,0,P|256:184,1,95
368,168,224085,2,0,P|320:84,1,95
304,268,224385,2,0,P|352:352,1,95
512,252,224685,2,0,P|416:252,1,95
304,200,224985,1,0,0:0:0
364,92,225135,1,0,0:0:0
256,36,225285,1,0,0:0:0
212,32,225360,1,0,0:0:0
172,48,225435,1,0,0:0:0
148,84,225510,1,0,0:0:0
136,124,225585,2,0,P|132:172|144:216,1,95
376,260,225885,2,0,P|380:212|368:168,1,95
368,168,226185,1,0,0:0:0
44,272,226785,6,0,P|108:340|200:340,1,190,0|0,0:0|2:0,0:0:0
376,260,227385,1,0,0:0:0
468,112,227985,6,0,P|404:44|312:44,1,190,0|0,0:0|2:0,0:0:0
136,124,228585,1,0,0:0:0
432,188,229185,6,0,P|484:260|432:332,1,190,0|0,0:0|2:0,0:0:0
188,380,229785,1,0,0:0:0
28,192,230085,2,0,P|64:164|108:144,1,95
188,240,230385,2,0,P|256:300|348:288,1,190,0|0,0:0|2:0,0:0:0
488,164,230985,6,0,P|448:152|424:176|424:176|384:168|372:128,1,142.500005435944
348,40,231435,1,0,0:0:0
240,136,231585,1,0,0:0:0
196,0,231735,2,0,P|236:28|268:60,1,95
308,196,232185,2,0,P|292:244|256:228|256:228|220:212|204:260,1,142.500005435944
176,348,232635,1,0,0:0:0
96,228,232785,1,0,0:0:0
16,348,232935,2,0,P|58:333|100:308,1,95
168,184,233385,6,0,P|164:140|124:120|124:120|124:104|148:64,1,142.500005435944
228,20,233835,1,0,0:0:0
356,84,233985,1,0,0:0:0
256,188,234135,2,0,P|260:136|272:96,1,95
400,160,234585,2,0,P|396:212|384:252,2,95
496,52,235335,1,0,0:0:0
356,84,235485,1,0,0:0:0
488,144,235635,1,0,0:0:0
416,20,235785,6,0,P|352:0|288:32,1,142.500005435944
276,124,236235,1,0,0:0:0
140,88,236385,1,0,0:0:0
196,220,236535,2,0,P|208:176|204:128,1,95
72,184,236985,2,0,P|44:224|44:240|44:240|72:260|72:312,1,142.500005435944
156,352,237435,1,0,0:0:0
296,324,237585,1,0,0:0:0
196,220,237735,2,0,P|196:268|220:308,1,95
360,280,238185,6,0,P|388:240|388:224|388:224|360:204|360:152,1,142.500005435944
312,72,238635,1,0,0:0:0
188,144,238785,1,0,0:0:0
188,0,238935,2,0,P|216:36|236:80,1,95
148,72,239385,1,0,0:0:0
104,75,239460,1,0,0:0:0
64,89,239535,1,0,0:0:0
31,116,239610,1,0,0:0:0
10,153,239685,1,0,0:0:0
0,195,239760,1,0,0:0:0
4,238,239835,1,0,0:0:0
19,277,239910,1,0,0:0:0
45,311,239985,5,0,0:0:0
80,335,240060,1,0,0:0:0
123,346,240135,1,0,0:0:0
166,342,240210,1,0,0:0:0
205,327,240285,1,0,0:0:0
239,300,240360,1,0,0:0:0
265,263,240435,1,0,0:0:0
272,223,240510,1,0,0:0:0
276,180,240585,2,0,P|422:145|340:271,1,380
