osu file format v12

[General]
AudioFilename: savior of song.mp3
AudioLeadIn: 1000
PreviewTime: 45648
Countdown: 0
SampleSet: Soft
StackLeniency: 0.3
Mode: 0
LetterboxInBreaks: 0
WidescreenStoryboard: 1

[Editor]
DistanceSpacing: 1
BeatDivisor: 4
GridSize: 4

[Metadata]
Title:SAVIOR OF SONG (TV Size)
TitleUnicode:SAVIOR OF SONG (TV Size)
Artist:nano feat. MY FIRST STORY
ArtistUnicode:ナノ feat. MY FIRST STORY
Creator:Amamiya Yuko
Version:Normal
Source:蒼き鋼のアルペジオ
Tags:Skystar Kodora opening Arpeggio of Blue Steel HakuNoKaemi Aoki Hagane no Arpeggio
BeatmapID:311903
BeatmapSetID:121716

[Difficulty]
HPDrainRate:3
CircleSize:3
OverallDifficulty:4
ApproachRate:5
SliderMultiplier:0.999999999999999
SliderTickRate:1

[Events]
//Background and Video events
0,0,"1.jpg",0,0
Video,530,"PV.flv"
//Break Periods
//Storyboard Layer 0 (Background)
//Storyboard Layer 1 (Fail)
//Storyboard Layer 2 (Pass)
//Storyboard Layer 3 (Foreground)
//Storyboard Sound Samples
//Background Colour Transformations
3,100,163,162,255

[TimingPoints]
648,312.5,4,2,1,10,1,0
10487,-100,4,1,1,50,0,0
10956,-100,4,1,1,30,0,0
11425,-100,4,1,1,40,0,0
11737,-100,4,1,1,50,0,0
13456,-100,4,1,1,30,0,0
13925,-100,4,1,1,40,0,0
14237,-100,4,1,1,50,0,0
15956,-100,4,1,1,30,0,0
16425,-100,4,1,1,40,0,0
16738,-100,4,1,1,50,0,0
18456,-100,4,1,1,30,0,0
18925,-100,4,1,1,40,0,0
19238,-100,4,1,1,50,0,0
20644,-100,4,2,1,30,0,0
23144,-100,4,2,1,40,0,0
32520,-100,4,3,1,50,0,0
33145,-100,4,3,1,30,0,0
34395,-100,4,3,1,35,0,0
35645,-100,4,3,1,40,0,0
36895,-100,4,3,1,45,0,0
38145,-100,4,3,1,50,0,0
39396,-100,4,3,1,55,0,0
40021,-100,4,2,1,60,0,0
40648,312.5,3,1,1,50,1,0
42523,312.5,4,2,1,40,1,0
46116,-100,4,1,1,60,0,1
55648,-100,4,1,1,40,0,0
56116,-100,4,1,1,60,0,1
65648,-100,4,1,1,40,0,0
66269,-100,4,1,1,60,0,0
71273,-100,4,1,1,60,0,1
75648,-100,4,1,1,40,0,0
76114,-100,4,1,1,60,0,0
76583,-100,4,1,1,30,0,0
77051,-100,4,1,1,40,0,0
77364,-100,4,1,1,50,0,0
79083,-100,4,1,1,30,0,0
79552,-100,4,1,1,40,0,0
79864,-100,4,1,1,50,0,0
81583,-100,4,1,1,30,0,0
82052,-100,4,1,1,40,0,0
82364,-100,4,1,1,50,0,0
84083,-100,4,1,1,30,0,0
84552,-100,4,1,1,40,0,0
84865,-100,4,1,1,50,0,0

[Colours]
Combo1 : 47,47,255
Combo2 : 0,128,255
Combo3 : 89,118,234

[HitObjects]
144,76,10491,2,0,P|200:64|248:92,1,99.9999999999999,4|0,0:0|2:0,0:0:0:0:
272,120,10960,1,10,0:0:0:0:
284,168,11116,2,0,L|280:288,1,99.9999999999999,2|2,0:0|0:0,0:0:0:0:
372,308,11741,2,0,L|375:208,1,99.9999999999999,2|2,0:0|0:0,0:0:0:0:
284,168,12366,2,0,P|232:160|172:184,1,99.9999999999999,2|2,0:0|0:0,0:0:0:0:
136,260,12991,6,0,P|84:268|24:244,1,99.9999999999999,4|0,0:0|0:0,0:0:0:0:
12,212,13460,1,10,0:0:0:0:
24,164,13616,2,0,L|60:64,1,99.9999999999999,2|2,0:0|0:0,0:0:0:0:
152,36,14241,2,0,P|204:28|264:52,1,99.9999999999999,2|2,0:0|0:0,0:0:0:0:
276,84,14710,2,0,P|328:92|388:68,1,99.9999999999999,10|0,0:0|0:0,0:0:0:0:
456,24,15335,1,8,0:0:0:0:
456,24,15491,6,0,L|468:128,1,99.9999999999999,4|0,0:0|0:0,0:0:0:0:
472,172,15960,1,10,0:0:0:0:
476,220,16116,2,0,P|436:244|372:232,1,99.9999999999999,2|2,0:0|0:0,0:0:0:0:
300,188,16741,2,0,P|251:182|208:207,1,99.9999999999999,2|2,0:0|0:0,0:0:0:0:
176,300,17366,2,0,L|72:288,1,99.9999999999999,2|2,0:0|0:0,0:0:0:0:
64,188,17991,6,0,L|163:199,1,99.9999999999999,4|0,0:0|0:0,0:0:0:0:
212,208,18460,1,10,0:0:0:0:
260,216,18616,2,0,P|288:172|280:112,1,99.9999999999999,2|2,0:0|0:0,0:0:0:0:
328,36,19241,2,0,P|368:64|424:60,1,99.9999999999999,2|0,0:0|0:0,0:0:0:0:
462,41,19710,1,8,0:0:0:0:
468,140,20023,2,0,L|460:252,2,99.9999999999999,0|0|2,0:0|0:0|0:0,0:0:0:0:
68,324,22835,5,2,0:0:0:0:
132,248,23148,2,0,P|152:180|108:104,1,150,2|2,0:0|0:0,0:0:0:0:
248,40,24085,2,0,P|304:80|384:68,2,150,2|0|0,0:0|0:0|0:0,0:0:0:0:
148,32,25335,1,2,0:0:0:0:
84,108,25648,6,0,P|56:176|100:256,1,150,2|2,0:0|0:0,0:0:0:0:
228,284,26585,2,0,P|300:252|372:280,1,150,2|0,0:0|0:0,0:0:0:0:
468,164,27523,2,0,P|444:112|448:64,1,99.9999999999999,0|2,0:0|0:0,0:0:0:0:
356,28,28148,1,2,0:0:0:0:
284,96,28460,6,0,P|248:136|188:136,1,99.9999999999999,0|2,0:0|0:0,0:0:0:0:
112,108,29085,1,0,0:0:0:0:
36,172,29398,2,0,P|32:228|80:264,1,99.9999999999999,2|0,0:0|0:0,0:0:0:0:
256,300,30335,1,0,0:0:0:0:
288,204,30648,6,0,P|336:148|416:160,1,150,2|2,0:0|0:0,0:0:0:0:
472,288,31585,2,0,P|424:344|344:332,1,150,2|0,0:0|0:0,0:0:0:0:
288,204,32523,2,0,L|272:100,1,99.9999999999999,8|0,0:1|0:0,0:0:0:0:
192,48,33148,6,0,P|136:36|80:60,1,99.9999999999999,4|0,0:2|0:0,0:0:0:0:
144,136,33773,2,0,P|98:171|81:229,1,99.9999999999999,0|0,0:0|0:0,0:0:0:0:
180,229,34398,2,0,P|177:286|211:337,1,99.9999999999999,0|0,0:0|0:0,0:0:0:0:
274,259,35023,2,0,P|316:297|376:304,1,99.9999999999999,0|0,0:0|0:0,0:0:0:0:
444,260,35648,6,0,L|464:156,1,99.9999999999999,0|0,0:0|0:0,0:0:0:0:
364,188,36273,2,0,L|347:83,1,99.9999999999999,0|0,0:0|0:0,0:0:0:0:
264,147,36898,2,0,L|212:54,1,99.9999999999999,0|0,0:0|0:0,0:0:0:0:
156,144,37523,2,0,L|75:74,1,99.9999999999999,0|0,0:0|0:0,0:0:0:0:
36,168,38148,6,0,P|44:224|16:268,1,99.9999999999999,0|0,0:0|0:0,0:0:0:0:
100,328,38773,2,0,P|148:348|200:328,1,99.9999999999999,0|0,0:0|0:0,0:0:0:0:
260,260,39398,1,0,0:0:0:0:
380,172,39866,1,0,0:0:0:0:
492,276,40335,1,0,0:0:0:0:
436,356,40648,6,0,L|384:340,1,50,8|8,0:0|0:0,0:0:0:0:
340,324,40960,2,0,L|288:308,1,50,8|0,0:0|0:0,0:0:0:0:
368,180,41585,6,0,L|420:164,1,50,8|8,0:0|0:0,0:0:0:0:
464,148,41898,2,0,L|516:132,1,50,8|0,0:0|0:0,0:0:0:0:
256,192,42523,12,0,45648,0:0:0:0:
72,152,46116,6,0,P|140:120|216:156,1,150,6|8,0:0|0:0,0:0:0:0:
264,228,46898,1,0,1:0:0:0:
312,316,47210,1,8,0:0:0:0:
312,316,47366,2,0,P|360:332|420:308,1,99.9999999999999,2|2,0:0|0:2,0:0:0:0:
436,280,47835,2,0,L|452:172,1,99.9999999999999,8|2,0:0|0:0,0:0:0:0:
460,80,48460,1,8,0:0:0:0:
460,80,48616,6,0,P|392:48|312:76,1,150,6|8,0:0|0:0,0:0:0:0:
288,160,49398,2,0,L|276:260,1,99.9999999999999,0|8,0:0|0:0,0:0:0:0:
268,308,49866,2,0,P|224:328|168:320,1,99.9999999999999,2|2,0:0|0:2,0:0:0:0:
132,296,50335,1,8,0:0:0:0:
104,256,50491,2,0,P|92:212|112:160,1,99.9999999999999,2|0,2:0|0:0,0:0:0:0:
152,136,50960,2,0,L|264:120,1,99.9999999999999,10|4,0:0|0:0,0:0:0:0:
348,144,51585,5,10,0:0:0:0:
408,224,51898,1,2,0:0:0:0:
308,236,52210,1,10,0:0:0:0:
348,144,52523,2,0,L|364:40,1,99.9999999999999,0|10,0:0|0:0,0:0:0:0:
268,20,53148,2,0,L|252:118,1,99.9999999999999,2|10,0:0|0:0,0:0:0:0:
172,180,53773,5,2,0:0:0:0:
72,188,54085,1,10,0:0:0:0:
72,188,54241,2,0,P|80:140|124:92,1,99.9999999999999,2|2,0:0|0:0,0:0:0:0:
172,180,54866,2,0,L|156:288,1,99.9999999999999,2|0,0:0|0:0,0:0:0:0:
148,328,55335,1,8,0:0:0:0:
248,324,55648,2,0,L|262:225,1,99.9999999999999,8|8,0:0|0:0,0:0:0:0:
276,176,56116,6,0,P|340:152|416:188,1,150,4|8,0:0|0:0,0:0:0:0:
448,276,56898,1,0,0:0:0:0:
390,357,57210,1,8,0:0:0:0:
390,357,57366,2,0,L|286:353,1,99.9999999999999,2|2,0:0|0:2,0:0:0:0:
240,352,57835,2,0,L|136:348,1,99.9999999999999,8|2,0:0|0:0,0:0:0:0:
56,292,58460,1,8,0:0:0:0:
56,292,58616,6,0,P|48:220|104:156,1,150,6|8,0:0|0:0,0:0:0:0:
192,140,59398,2,0,L|296:148,1,99.9999999999999,0|8,0:0|0:0,0:0:0:0:
340,152,59866,2,0,P|376:184|384:248,1,99.9999999999999,2|2,0:0|0:2,0:0:0:0:
372,280,60335,1,8,0:0:0:0:
336,316,60491,2,0,P|288:332|240:312,1,99.9999999999999,2|0,2:0|0:0,0:0:0:0:
204,284,60960,2,0,L|208:176,1,99.9999999999999,10|4,0:0|0:0,0:0:0:0:
244,92,61585,5,10,0:0:0:0:
316,24,61898,1,2,0:0:0:0:
340,120,62210,1,10,0:0:0:0:
244,92,62523,2,0,P|204:76|144:92,1,99.9999999999999,0|10,0:0|0:0,0:0:0:0:
96,172,63148,2,0,P|136:188|196:172,1,99.9999999999999,2|10,0:0|0:0,0:0:0:0:
244,92,63773,5,2,0:0:0:0:
336,56,64085,1,10,0:0:0:0:
336,56,64241,2,0,P|344:108|316:160,1,99.9999999999999,2|2,0:0|0:0,0:0:0:0:
244,92,64866,2,0,L|136:64,1,99.9999999999999,2|0,0:0|0:0,0:0:0:0:
100,48,65335,1,8,0:0:0:0:
84,144,65648,2,0,L|180:169,1,99.9999999999999,8|8,0:0|0:0,0:0:0:0:
280,184,66273,5,4,0:0:0:0:
276,284,66585,1,8,0:0:0:0:
204,352,66898,2,0,P|160:368|104:356,1,99.9999999999999,0|8,0:0|0:0,0:0:0:0:
44,284,67523,2,0,P|24:248|36:184,1,99.9999999999999,0|8,0:0|0:0,0:0:0:0:
68,156,67991,1,2,0:2:0:0:
160,116,68304,1,2,0:2:0:0:
208,116,68460,2,0,L|280:120,1,50,8|8,0:0|0:0,0:0:0:0:
308,124,68773,5,4,0:0:0:0:
404,148,69085,1,8,0:0:0:0:
436,244,69398,2,0,P|436:300|472:336,1,99.9999999999999,0|8,0:0|0:0,0:0:0:0:
372,368,70023,2,0,L|268:360,1,99.9999999999999,0|8,0:0|0:0,0:0:0:0:
224,348,70491,2,0,L|120:356,1,99.9999999999999,2|2,0:2|0:2,0:0:0:0:
76,352,70960,1,8,0:0:0:0:
40,320,71116,1,8,0:0:0:0:
28,272,71273,5,2,0:0:0:0:
48,172,71585,1,10,0:0:0:0:
132,116,71898,2,0,L|148:16,1,99.9999999999999,10|10,0:0|0:0,0:0:0:0:
224,80,72523,2,0,L|208:180,1,99.9999999999999,10|10,0:0|0:0,0:0:0:0:
192,280,73148,1,10,0:0:0:0:
176,380,73460,1,10,0:0:0:0:
268,344,73773,6,0,P|320:328|380:352,1,99.9999999999999,10|10,0:0|0:0,0:0:0:0:
456,380,74398,2,0,P|472:328|452:280,1,99.9999999999999,10|10,0:0|0:0,0:0:0:0:
388,216,75023,1,10,0:0:0:0:
428,124,75335,1,10,0:0:0:0:
368,44,75648,2,0,L|264:36,1,99.9999999999999,8|8,0:0|0:0,0:0:0:0:
218,36,76116,6,0,P|182:72|190:132,1,99.9999999999999,4|0,0:0|0:0,0:0:0:0:
216,156,76585,1,10,0:0:0:0:
256,184,76741,2,0,P|280:228|260:288,1,99.9999999999999,2|2,0:0|0:0,0:0:0:0:
196,344,77366,2,0,P|152:368|92:348,1,99.9999999999999,2|2,0:0|0:0,0:0:0:0:
36,284,77991,2,0,P|12:240|32:180,1,99.9999999999999,2|2,0:0|0:0,0:0:0:0:
96,124,78616,6,0,P|140:100|200:120,1,99.9999999999999,4|0,0:0|0:0,0:0:0:0:
228,140,79085,1,10,0:0:0:0:
260,180,79241,2,0,L|368:156,1,99.9999999999999,2|2,0:0|0:0,0:0:0:0:
408,244,79866,2,0,L|310:265,1,99.9999999999999,2|2,0:0|0:0,0:0:0:0:
260,272,80335,2,0,P|212:264|172:212,1,99.9999999999999,10|0,0:0|0:0,0:0:0:0:
156,132,80960,1,8,0:0:0:0:
156,132,81116,6,0,P|136:88|88:68,1,99.9999999999999,4|0,0:0|0:0,0:0:0:0:
40,76,81585,1,8,0:0:0:0:
8,116,81741,2,0,L|20:232,1,99.9999999999999,2|2,0:0|0:0,0:0:0:0:
116,244,82366,2,0,L|128:360,1,99.9999999999999,2|2,0:0|0:0,0:0:0:0:
224,364,82991,2,0,L|213:264,1,99.9999999999999,2|2,0:0|0:0,0:0:0:0:
264,176,83616,6,0,P|316:152|372:168,1,99.9999999999999,4|0,0:0|0:0,0:0:0:0:
400,184,84085,1,10,0:0:0:0:
440,216,84241,2,0,P|464:260|448:316,1,99.9999999999999,2|2,0:0|0:0,0:0:0:0:
368,360,84866,2,0,L|260:356,1,99.9999999999999,2|0,0:0|0:0,0:0:0:0:
220,352,85335,1,8,0:0:0:0:
120,348,85648,2,0,P|96:300|116:252,1,99.9999999999999,8|8,0:0|0:0,0:0:0:0:
148,228,86116,1,0,0:0:0:0:
