osu file format v12

[General]
AudioFilename: savior of song.mp3
AudioLeadIn: 1000
PreviewTime: 45648
Countdown: 0
SampleSet: Normal
StackLeniency: 0.3
Mode: 0
LetterboxInBreaks: 0
WidescreenStoryboard: 1

[Editor]
DistanceSpacing: 1
BeatDivisor: 4
GridSize: 4

[Metadata]
Title:SAVIOR OF SONG (TV Size)
TitleUnicode:SAVIOR OF SONG (TV Size)
Artist:nano feat. MY FIRST STORY
ArtistUnicode:ナノ feat. MY FIRST STORY
Creator:Amamiya Yuko
Version:Insane
Source:蒼き鋼のアルペジオ
Tags:Skystar Kodora opening Arpeggio of Blue Steel HakuNoKaemi Aoki Hagane no Arpeggio
BeatmapID:315798
BeatmapSetID:121716

[Difficulty]
HPDrainRate:6
CircleSize:4
OverallDifficulty:8
ApproachRate:9
SliderMultiplier:1.92
SliderTickRate:1

[Events]
//Background and Video events
0,0,"1.jpg",0,0
Video,530,"PV.flv"
//Break Periods
2,42523,45023
//Storyboard Layer 0 (Background)
//Storyboard Layer 1 (Fail)
//Storyboard Layer 2 (Pass)
//Storyboard Layer 3 (Foreground)
//Storyboard Sound Samples
//Background Colour Transformations
3,100,163,162,255

[TimingPoints]
648,312.5,4,2,1,10,1,0
648,-200,4,2,1,30,0,0
9398,-133.333333333333,4,2,1,30,0,0
10023,-100,4,1,1,40,0,0
10492,-100,4,1,1,50,0,0
10961,-100,4,1,1,30,0,0
11430,-100,4,1,1,40,0,0
11742,-100,4,1,1,50,0,0
13460,-125,4,1,1,30,0,0
13929,-111.111111111111,4,1,1,40,0,0
14241,-100,4,1,1,50,0,0
15960,-125,4,1,1,30,0,0
16429,-111.111111111111,4,1,1,40,0,0
16743,-100,4,1,1,50,0,0
18461,-125,4,1,1,30,0,0
18929,-111.111111111111,4,1,1,40,0,0
19241,-100,4,1,1,50,0,0
20648,-200,4,2,1,30,0,0
23148,-133.333333333333,4,2,1,40,0,0
32523,-133.333333333333,4,3,1,50,0,0
33148,-133.333333333333,4,3,1,30,0,0
34398,-133.333333333333,4,3,1,35,0,0
35645,-133.333333333333,4,3,1,40,0,0
36895,-133.333333333333,4,3,1,45,0,0
38145,-133.333333333333,4,3,1,50,0,0
39396,-133.333333333333,4,3,1,55,0,0
40021,-133.333333333333,4,2,1,60,0,0
40648,312.5,3,1,1,50,1,0
42523,312.5,4,2,1,40,1,0
46116,-100,4,1,1,60,0,1
55648,-100,4,1,1,40,0,0
56116,-100,4,1,1,60,0,1
65648,-100,4,1,1,40,0,0
66273,-100,4,1,1,60,0,0
71273,-100,4,1,1,60,0,1
75648,-100,4,1,1,40,0,0
76119,-100,4,1,1,60,0,0
76588,-100,4,1,1,30,0,0
77056,-100,4,1,1,40,0,0
77369,-100,4,1,1,50,0,0
79088,-125,4,1,1,30,0,0
79554,-111.111111111111,4,1,1,40,0,0
79864,-100,4,1,1,50,0,0
81583,-125,4,1,1,30,0,0
82052,-111.111111111111,4,1,1,40,0,0
82364,-100,4,1,1,50,0,0
84083,-125,4,1,1,30,0,0
84552,-111.111111111111,4,1,1,40,0,0
84865,-100,4,1,1,50,0,0

[Colours]
Combo1 : 47,47,255
Combo2 : 0,128,255
Combo3 : 89,118,234

[HitObjects]
116,52,648,1,0,0:0:0:0:
164,184,804,2,0,L|157:231,1,48,2|0,0:0|0:0,0:0:0:0:
116,52,1116,1,0,0:0:0:0:
256,76,1273,6,0,P|280:128|268:176,1,96,2|0,0:0|0:0,0:0:0:0:
164,184,1741,2,0,L|56:192,1,96,2|0,0:0|0:0,0:0:0:0:
256,76,2366,1,2,0:0:0:0:
208,288,2679,1,0,0:0:0:0:
263,171,2991,6,0,L|256:76,1,96,2|0,0:0|0:0,0:0:0:0:
332,28,3460,2,0,L|396:36,1,48,2|0,0:0|0:0,0:0:0:0:
256,76,3773,6,0,L|144:80,1,96,2|0,0:0|0:0,0:0:0:0:
292,180,4241,2,0,L|300:280,2,96,2|0|2,0:0|0:0|0:0,0:0:0:0:
292,180,5491,6,0,P|336:168|396:188,1,96,2|0,0:0|0:0,0:0:0:0:
440,256,5960,1,2,0:0:0:0:
384,180,6116,1,0,0:0:0:0:
252,256,6273,6,0,P|212:212|208:168,1,96,2|0,0:0|0:0,0:0:0:0:
248,92,6741,1,2,0:0:0:0:
206,177,6898,1,0,0:0:0:0:
332,244,7054,6,0,P|324:296|284:332,2,96,2|0|2,0:0|0:0|0:0,0:0:0:0:
96,336,7991,6,0,P|40:292|44:216,1,144,2|2,0:0|0:0,0:0:0:0:
168,80,8773,2,0,L|268:72,1,96,2|2,0:0|0:0,0:0:0:0:
360,64,9241,1,0,0:0:0:0:
468,116,9398,6,0,P|484:148|480:196,1,72.0000027465821,2|0,0:0|0:0,0:0:0:0:
376,224,9710,1,2,0:0:0:0:
479,214,9866,2,0,L|460:284,1,72.0000027465821,0|8,0:0|0:0,0:0:0:0:
440,305,10101,1,8,0:0:0:0:
416,320,10179,1,8,0:0:0:0:
389,328,10257,1,8,0:0:0:0:
360,328,10335,1,8,0:0:0:0:
332,319,10413,1,8,0:0:0:0:
309,303,10491,6,0,B|256:272|256:272|216:344|120:320,1,192,4|0,0:0|2:0,0:0:0:0:
8,248,10960,5,10,0:0:0:0:
24,168,11116,2,0,L|44:72,1,96
156,188,11429,5,2,0:0:0:0:
160,56,11585,1,8,0:0:0:0:
308,192,11741,2,0,L|296:84,1,96,2|0,0:0|2:0,0:0:0:0:
297,96,12054,5,2,0:0:0:0:
224,240,12210,1,8,0:0:0:0:
423,217,12366,2,0,P|399:258|356:276,1,96,2|0,0:0|2:0,0:0:0:0:
408,124,12679,5,2,0:0:0:0:
508,260,12835,1,10,0:0:0:0:
328,276,12991,2,0,L|124:276,1,192,4|0,0:0|0:0,0:0:0:0:
224,240,13460,5,10,0:0:0:0:
112,288,13616,2,0,P|68:280|36:248,1,76.8,2|0,0:0|2:0,0:0:0:0:
20,96,13929,2,0,P|48:61|92:50,1,86.3999973632813,2|8,0:0|0:0,0:0:0:0:
232,116,14241,2,0,P|247:159|235:205,1,96,2|0,0:0|2:0,0:0:0:0:
112,288,14554,5,2,0:0:0:0:
126,167,14710,1,10,0:0:0:0:
224,240,14866,1,2,0:0:0:0:
232,252,14944,1,0,0:0:0:0:
240,264,15023,1,0,0:0:0:0:
408,300,15179,1,2,0:0:0:0:
304,192,15335,2,0,L|316:145,1,48,8|0,0:0|0:0,0:0:0:0:
364,12,15491,6,0,B|348:64|348:64|392:84|412:132|396:180,1,192,4|0,0:0|0:0,0:0:0:0:
234,148,15960,5,10,0:0:0:0:
124,32,16116,2,0,L|28:48,1,76.8,2|0,0:0|2:0,0:0:0:0:
234,148,16429,6,0,L|205:229,1,86.3999973632813,2|8,0:0|0:0,0:0:0:0:
364,12,16741,1,2,0:0:0:0:
396,168,16898,2,0,L|416:288,1,96,0|2,2:0|0:0,0:0:0:0:
308,204,17210,5,8,0:0:0:0:
476,140,17366,2,0,P|452:100|384:80,1,96,2|0,0:0|2:0,0:0:0:0:
400,348,17679,2,0,P|448:345|492:293,1,96,2|10,0:0|0:0,0:0:0:0:
396,168,17991,6,0,B|308:204|308:204|284:156|232:148,1,192,4|0,0:0|0:0,0:0:0:0:
132,228,18460,5,10,0:0:0:0:
228,312,18616,2,0,P|241:276|228:240,1,76.8,2|0,0:0|2:0,0:0:0:0:
12,272,18929,2,0,P|39:303|80:311,1,86.3999973632813,2|8,0:0|0:0,0:0:0:0:
154,104,19241,2,0,P|108:113|77:148,1,96,2|0,0:0|2:0,0:0:0:0:
92,344,19554,5,0,0:0:0:0:
132,228,19710,1,8,0:0:0:0:
228,312,19866,1,0,0:0:0:0:
304,212,20023,1,0,0:0:0:0:
325,193,20101,1,0,0:0:0:0:
351,180,20179,1,0,0:0:0:0:
379,175,20257,1,0,0:0:0:0:
408,177,20335,1,0,0:0:0:0:
435,186,20413,1,0,0:0:0:0:
459,202,20491,1,0,0:0:0:0:
478,224,20569,1,0,0:0:0:0:
491,249,20648,6,0,L|484:308,1,48,2|0,0:0|0:0,0:0:0:0:
488,64,21116,2,0,L|480:122,1,48,2|0,0:0|0:0,0:0:0:0:
384,76,21429,5,0,0:0:0:0:
384,76,21585,2,0,L|376:17,1,48,2|0,0:0|0:0,0:0:0:0:
312,260,22054,2,0,L|304:201,1,48,2|0,0:0|0:0,0:0:0:0:
208,248,22366,5,0,0:0:0:0:
208,248,22523,2,0,L|200:306,1,48,2|0,0:0|0:0,0:0:0:0:
120,376,22835,2,0,L|112:317,1,48,2|0,0:0|0:0,0:0:0:0:
132,188,23148,6,0,P|196:156|284:192,1,144.000005493164,2|0,0:0|0:0,0:0:0:0:
312,260,23616,2,0,P|348:316|428:320,1,144.000005493164,2|0,0:0|0:0,0:0:0:0:
496,256,24085,1,2,0:0:0:0:
432,64,24398,6,0,P|372:48|296:108,1,144.000005493164,2|0,0:0|0:0,0:0:0:0:
256,176,24866,2,0,P|196:192|128:140,1,144.000005493164,2|0,0:0|0:0,0:0:0:0:
140,48,25335,1,2,0:0:0:0:
328,124,25648,6,0,P|340:196|272:268,1,144.000005493164,2|0,0:0|0:0,0:0:0:0:
200,248,26116,2,0,P|128:236|72:280,1,144.000005493164,2|0,0:0|0:0,0:0:0:0:
32,368,26585,1,2,0:0:0:0:
200,248,26898,6,0,P|232:180|200:120,1,144.000005493164,2|0,0:0|0:0,0:0:0:0:
132,52,27366,2,0,P|192:24|276:56,1,144.000005493164,2|0,0:0|0:0,0:0:0:0:
324,124,27835,1,2,0:0:0:0:
216,296,28148,6,0,L|64:280,1,144.000005493164,2|0,0:0|0:0,0:0:0:0:
20,196,28616,1,0,0:0:0:0:
48,100,28773,2,0,B|80:84|80:84|128:88,1,72.0000027465821,2|0,0:0|0:0,0:0:0:0:
200,140,29085,1,0,0:0:0:0:
272,212,29241,1,2,0:0:0:0:
332,296,29398,6,0,B|360:312|392:308|392:308|420:272|392:232,1,144.000005493164,2|0,0:0|0:0,0:0:0:0:
136,52,30335,1,0,0:0:0:0:
136,52,30648,6,0,L|148:200,1,144.000005493164,2|0,0:0|0:0,0:0:0:0:
200,280,31116,2,0,B|256:272|256:272|288:276|288:276|356:264,1,144.000005493164,2|0,0:0|0:0,0:0:0:0:
440,244,31585,1,2,0:0:0:0:
348,64,31898,6,0,B|292:72|292:72|260:68|260:68|205:77,1,144.000005493164,2|0,0:0|0:0,0:0:0:0:
108,100,32366,1,2,0:0:0:0:
348,64,32523,5,8,0:1:0:0:
292,196,32679,1,0,0:0:0:0:
204,80,32835,1,0,0:0:0:0:
348,64,32991,1,0,0:0:0:0:
360,244,33148,6,0,P|332:272|288:276,1,72.0000027465821,4|0,0:2|0:0,0:0:0:0:
184,272,33460,2,0,P|148:255|125:216,1,72.0000027465821
280,280,33773,2,0,L|292:364,1,72.0000027465821
428,188,34085,2,0,L|438:116,1,72.0000027465821
272,36,34398,6,0,P|268:80|284:112,1,72.0000027465821
160,140,34710,2,0,P|191:171|225:179,1,72.0000027465821
167,292,35023,2,0,P|211:288|239:266,1,72.0000027465821
288,384,35335,2,0,P|313:347|315:312,1,72.0000027465821
384,232,35648,5,0,0:0:0:0:
364,236,35804,1,0,0:0:0:0:
312,136,35960,1,0,0:0:0:0:
302,153,36116,1,0,0:0:0:0:
192,129,36273,1,0,0:0:0:0:
198,148,36429,1,0,0:0:0:0:
109,219,36585,1,0,0:0:0:0:
128,226,36741,1,0,0:0:0:0:
200,364,36898,6,0,P|211:330|206:294,1,72.0000027465821
40,176,37210,2,0,P|28:209|33:245,1,72.0000027465821
194,278,37523,2,0,L|280:264,1,72.0000027465821
336,84,37835,2,0,L|264:95,1,72.0000027465821
40,176,38148,6,0,P|28:209|33:245,1,72.0000027465821
200,364,38460,2,0,P|211:330|206:294,1,72.0000027465821
4,344,38773,2,0,P|44:348|96:320,1,72.0000027465821
233,205,39085,2,0,P|199:195|164:200,1,72.0000027465821
312,316,39398,5,0,0:0:0:0:
396,328,39554,1,0,0:0:0:0:
468,280,39710,1,0,0:0:0:0:
484,196,39866,2,0,L|480:116,1,72.0000027465821
360,56,40179,1,0,0:0:0:0:
360,56,40335,2,0,L|363:127,1,72.0000027465821
336,208,40648,5,8,0:0:0:0:
368,28,40804,1,8,0:0:0:0:
328,236,40960,1,8,0:0:0:0:
360,56,41116,1,0,0:0:0:0:
192,196,41585,5,8,0:0:0:0:
224,376,41741,1,8,0:0:0:0:
184,168,41898,1,8,0:0:0:0:
216,348,42054,1,0,0:0:0:0:
104,212,45648,5,0,0:0:0:0:
192,118,45804,2,0,P|208:81|184:17,1,96
16,108,46116,6,2,B|72:84|72:84|124:136|192:117,1,192,6|2,0:0|0:2,0:0:0:0:
316,40,46585,1,8,0:0:0:0:
280,200,46741,1,2,2:0:0:0:
432,156,46898,1,0,1:0:0:0:
316,40,47054,6,0,P|272:32|216:64,1,96,2|8,0:0|0:0,0:0:0:0:
248,292,47366,2,0,P|316:288|368:240,1,96,2|0,0:0|2:0,0:0:0:0:
340,128,47679,1,2,0:2:0:0:
164,104,47835,2,0,P|132:144|144:212,1,96,8|2,0:0|2:0,0:0:0:0:
248,268,48148,5,2,0:0:0:0:
322,137,48304,1,0,0:0:0:0:
181,118,48460,1,8,0:0:0:0:
204,368,48616,6,2,B|268:392|316:344|316:344|384:376,1,192,6|2,0:0|0:2,0:0:0:0:
416,160,49085,2,0,P|420:112|380:52,1,96,8|2,0:0|2:0,0:0:0:0:
148,200,49398,2,0,P|136:252|172:308,1,96,0|2,0:0|0:0,0:0:0:0:
316,344,49710,5,8,0:0:0:0:
172,312,49866,2,0,P|128:308|80:344,1,96,2|0,0:0|2:0,0:0:0:0:
232,176,50179,1,2,0:2:0:0:
60,204,50335,1,8,0:0:0:0:
72,360,50491,6,0,P|104:324|96:256,1,96,2|2,2:0|0:0,0:0:0:0:
292,256,50804,2,0,P|340:256|400:308,1,96,0|10,0:0|0:0,0:0:0:0:
424,144,51116,1,2,0:0:0:0:
440,120,51194,1,0,0:0:0:0:
456,96,51273,6,0,L|468:-20,1,96,4|0,0:0|2:0,0:0:0:0:
280,48,51585,5,10,0:0:0:0:
300,160,51741,1,0,2:0:0:0:
144,224,51898,5,2,0:0:0:0:
154,108,52054,1,0,2:0:0:0:
28,148,52210,5,10,0:0:0:0:
144,224,52366,1,2,2:0:0:0:
144,224,52444,1,2,2:0:0:0:
144,224,52523,5,0,0:0:0:0:
300,160,52679,1,2,2:0:0:0:
154,108,52835,1,10,0:0:0:0:
216,288,52991,5,0,2:0:0:0:
372,208,53148,1,2,0:0:0:0:
248,88,53304,1,0,2:0:0:0:
216,288,53460,1,10,0:0:0:0:
372,208,53616,1,2,2:0:0:0:
248,88,53773,6,0,L|154:107,1,96,2|0,0:0|2:0,0:0:0:0:
116,212,54085,1,10,0:0:0:0:
36,60,54241,2,0,P|16:112|48:168,1,96,2|0,2:0|0:0,0:0:0:0:
140,316,54554,2,0,P|167:354|212:367,1,96,2|8,2:0|0:0,0:0:0:0:
372,208,54866,2,0,P|384:160|360:104,1,96,2|2,2:0|0:0,0:0:0:0:
291,237,55179,1,2,2:0:0:0:
320,52,55335,2,0,P|372:36|440:68,1,96,10|0,0:0|2:0,0:0:0:0:
443,208,55648,5,8,0:0:0:0:
424,230,55726,1,8,0:0:0:0:
400,246,55804,1,8,0:0:0:0:
373,255,55882,1,8,0:0:0:0:
344,256,55960,1,8,0:0:0:0:
316,250,56038,1,8,0:0:0:0:
291,237,56116,6,0,B|260:212|224:216|224:216|184:272|104:252,1,192,4|2,0:0|0:2,0:0:0:0:
27,93,56585,5,8,0:0:0:0:
148,168,56741,1,2,2:0:0:0:
153,22,56898,1,0,0:0:0:0:
60,184,57054,6,0,P|79:227|118:254,1,96,2|8,0:0|0:0,0:0:0:0:
236,184,57366,2,0,P|288:176|328:120,1,96,2|0,0:0|2:0,0:0:0:0:
408,264,57679,5,2,0:2:0:0:
504,336,57835,1,8,0:0:0:0:
392,384,57991,1,2,2:0:0:0:
201,267,58148,6,0,P|205:220|236:184,1,96,2|0,0:0|0:0,0:0:0:0:
296,312,58460,1,8,0:0:0:0:
388,176,58616,2,2,P|456:192|491:252,1,144,6|0,0:0|0:0,0:0:0:0:
504,336,58929,1,2,0:2:0:0:
388,176,59085,5,8,0:0:0:0:
432,52,59241,1,2,2:0:0:0:
304,76,59398,2,0,P|260:72|204:28,1,96,0|2,0:0|0:0,0:0:0:0:
108,176,59710,1,8,0:0:0:0:
160,296,59866,6,0,P|204:272|272:288,1,96,2|0,0:0|2:0,0:0:0:0:
416,304,60179,2,0,P|462:322|494:384,1,96,2|8,0:2|0:0,0:0:0:0:
472,196,60491,6,0,P|496:148|472:80,1,96,2|2,2:0|0:0,0:0:0:0:
392,28,60804,1,0,0:0:0:0:
256,40,60960,2,0,P|208:36|152:80,1,96,10|2,0:0|0:0,0:0:0:0:
100,180,61273,6,0,L|96:276,1,96,4|0,0:0|2:0,0:0:0:0:
100,180,61585,5,10,0:0:0:0:
208,240,61741,1,0,2:0:0:0:
332,252,61898,1,2,0:0:0:0:
452,220,62054,1,0,2:0:0:0:
364,132,62210,1,10,0:0:0:0:
316,276,62366,1,2,2:0:0:0:
316,276,62444,1,2,2:0:0:0:
316,276,62523,6,0,P|316:328|372:372,1,96,0|2,0:0|2:0,0:0:0:0:
480,212,62835,2,0,P|492:180|460:100,1,96,10|0,0:0|2:0,0:0:0:0:
324,24,63148,5,2,0:0:0:0:
364,132,63304,1,0,2:0:0:0:
252,112,63460,1,10,0:0:0:0:
436,44,63616,1,2,2:0:0:0:
480,212,63773,6,0,P|436:232|376:216,1,96,2|0,0:0|2:0,0:0:0:0:
252,112,64085,1,10,0:0:0:0:
415,290,64241,6,0,P|401:245|364:216,1,96,2|0,2:0|0:0,0:0:0:0:
160,184,64554,2,0,P|116:200|80:268,1,96,2|8,2:0|0:0,0:0:0:0:
208,376,64866,1,2,0:0:0:0:
220,380,64944,1,0,0:0:0:0:
232,384,65023,6,0,L|256:276,1,96,2|0,0:0|2:0,0:0:0:0:
284,170,65335,1,10,0:0:0:0:
264,264,65491,6,0,L|284:170,1,96,0|8,2:0|0:0,0:0:0:0:
294,143,65726,1,8,0:0:0:0:
311,120,65804,1,8,0:0:0:0:
333,102,65882,1,8,0:0:0:0:
360,90,65960,1,8,0:0:0:0:
388,87,66038,1,8,0:0:0:0:
417,91,66116,1,8,0:0:0:0:
443,103,66194,1,8,0:0:0:0:
465,121,66273,6,0,P|492:160|472:236,1,96,4|0,0:0|2:0,0:0:0:0:
372,296,66585,1,8,0:0:0:0:
284,170,66741,2,0,P|236:158|180:194,1,96,0|0,2:0|0:0,0:0:0:0:
120,296,67054,2,0,P|112:348|140:388,1,96,2|8,0:2|0:0,0:0:0:0:
133,383,67366,1,2,0:2:0:0:
120,196,67523,6,0,P|156:164|228:168,1,96,0|0,0:0|2:0,0:0:0:0:
368,188,67835,2,0,P|413:203|446:267,1,96,8|2,0:0|0:2,0:0:0:0:
376,344,68148,5,0,0:0:0:0:
441,240,68304,1,2,0:2:0:0:
420,120,68460,1,8,0:0:0:0:
320,48,68616,1,2,0:2:0:0:
196,48,68773,6,0,L|84:64,1,96,4|0,0:0|2:0,0:0:0:0:
60,204,69085,1,8,0:0:0:0:
232,248,69241,2,0,L|120:264,1,96,0|0,2:0|2:0,0:0:0:0:
76,340,69554,5,2,0:2:0:0:
60,204,69710,1,8,0:0:0:0:
160,344,69866,5,2,0:2:0:0:
70,108,70023,2,0,L|60:204,1,96,0|0,0:0|2:0,0:0:0:0:
244,348,70335,5,8,0:0:0:0:
224,236,70491,1,2,0:2:0:0:
320,96,70648,5,0,0:0:0:0:
440,128,70804,1,2,0:2:0:0:
352,216,70960,1,8,0:0:0:0:
320,96,71116,1,2,0:2:0:0:
455,41,71273,6,0,P|464:87|440:128,1,96,2|0,0:0|2:0,0:0:0:0:
419,272,71585,2,0,P|374:257|352:216,1,96,10|0,0:0|2:0,0:0:0:0:
237,125,71898,2,0,P|273:95|320:96,1,96,10|0,0:0|2:0,0:0:0:0:
440,127,72210,2,0,P|464:87|455:41,1,96,10|0,0:0|2:0,0:0:0:0:
320,96,72523,5,10,0:0:0:0:
208,148,72679,1,0,2:0:0:0:
172,268,72835,1,10,0:0:0:0:
296,348,72991,5,0,2:0:0:0:
384,260,73148,1,10,0:0:0:0:
264,228,73304,1,0,2:0:0:0:
296,348,73460,1,10,0:0:0:0:
460,312,73616,6,0,P|492:280|488:212,1,96,2|10,2:0|0:0,0:0:0:0:
436,88,73929,1,2,2:0:0:0:
344,168,74085,6,0,P|312:136|316:68,1,96,10|2,0:0|2:0,0:0:0:0:
500,24,74398,1,10,0:0:0:0:
468,172,74554,1,2,2:0:0:0:
320,60,74710,6,0,P|272:60|224:120,1,96,10|2,0:0|2:0,0:0:0:0:
280,220,75023,2,0,P|263:265|303:330,1,96,10|2,0:0|2:0,0:0:0:0:
416,312,75335,2,0,P|452:342|528:327,1,96,10|2,0:0|2:0,0:0:0:0:
468,172,75648,5,8,0:0:0:0:
448,151,75726,1,8,0:0:0:0:
423,137,75804,1,8,0:0:0:0:
394,131,75882,1,8,0:0:0:0:
366,134,75960,1,8,0:0:0:0:
340,145,76038,1,8,0:0:0:0:
318,164,76116,6,0,B|280:220|280:220|336:276|296:364,1,192,4|0,0:0|0:0,0:0:0:0:
148,312,76585,5,8,0:0:0:0:
228,296,76741,2,0,L|328:312,1,96,2|0,0:0|2:0,0:0:0:0:
176,184,77054,5,2,0:0:0:0:
52,208,77210,1,8,0:0:0:0:
104,88,77366,2,0,L|116:216,1,96,2|0,0:0|2:0,0:0:0:0:
192,256,77679,5,2,0:0:0:0:
244,128,77835,1,8,0:0:0:0:
296,0,77991,2,0,P|329:33|328:80,1,96,2|0,0:0|2:0,0:0:0:0:
284,216,78304,5,2,0:0:0:0:
328,80,78460,1,10,0:0:0:0:
380,224,78616,2,0,L|172:208,1,192,4|0,0:0|0:0,0:0:0:0:
284,216,79085,5,10,0:0:0:0:
160,216,79241,2,0,P|140:248|144:296,1,76.8,2|0,0:0|2:0,0:0:0:0:
272,384,79554,2,0,P|309:385|349:357,1,86.3999973632813,2|8,0:0|0:0,0:0:0:0:
361,188,79866,2,0,P|340:151|293:129,1,96,2|0,0:0|2:0,0:0:0:0:
160,216,80179,5,2,0:0:0:0:
220,324,80335,1,10,0:0:0:0:
284,216,80491,1,2,0:0:0:0:
288,200,80569,1,0,0:0:0:0:
292,184,80648,1,0,0:0:0:0:
196,72,80804,1,2,0:0:0:0:
72,144,80960,2,0,L|80:192,1,48,8|0,0:0|0:0,0:0:0:0:
140,304,81116,6,0,B|200:308|232:260|232:260|313:281,1,192,4|0,0:0|0:0,0:0:0:0:
496,348,81585,5,8,0:0:0:0:
309,357,81741,2,0,L|314:281,1,76.8,2|0,0:0|2:0,0:0:0:0:
408,200,82054,2,0,L|416:292,1,86.3999973632813,2|8,0:0|0:0,0:0:0:0:
240,152,82366,2,0,L|220:32,1,96,2|0,0:0|2:0,0:0:0:0:
96,240,82679,5,2,0:0:0:0:
96,240,82835,2,0,P|141:253|187:241,1,96,8|2,0:0|0:0,0:0:0:0:
316,208,83148,1,0,2:0:0:0:
404,116,83304,2,0,P|448:128|488:188,1,96,2|10,0:0|0:0,0:0:0:0:
468,292,83616,6,0,B|387:259|387:259|351:303|295:295,1,192,4|0,0:0|0:0,0:0:0:0:
240,152,84085,1,10,0:0:0:0:
353,64,84241,2,0,P|386:82|404:116,1,76.8,2|0,0:0|2:0,0:0:0:0:
300,296,84554,2,0,P|264:318|222:316,1,86.3999973632813,2|8,0:0|0:0,0:0:0:0:
126,134,84866,2,0,P|123:87|149:47,1,96,2|0,0:0|2:0,0:0:0:0:
352,64,85179,5,0,0:0:0:0:
388,184,85335,1,8,0:0:0:0:
284,260,85491,5,0,0:0:0:0:
240,152,85648,1,8,0:0:0:0:
136,246,85804,5,0,0:0:0:0:
184,340,85960,1,8,0:0:0:0:
40,348,86116,5,0,0:0:0:0:
