osu file format v12

[General]
AudioFilename: savior of song.mp3
AudioLeadIn: 1000
PreviewTime: 45648
Countdown: 0
SampleSet: Soft
StackLeniency: 0.3
Mode: 0
LetterboxInBreaks: 0
WidescreenStoryboard: 1

[Editor]
DistanceSpacing: 1
BeatDivisor: 4
GridSize: 4

[Metadata]
Title:SAVIOR OF SONG (TV Size)
TitleUnicode:SAVIOR OF SONG (TV Size)
Artist:nano feat. MY FIRST STORY
ArtistUnicode:ナノ feat. MY FIRST STORY
Creator:Amamiya Yuko
Version:Easy
Source:蒼き鋼のアルペジオ
Tags:Skystar Kodora opening Arpeggio of Blue Steel HakuNoKaemi Aoki Hagane no Arpeggio
BeatmapID:313820
BeatmapSetID:121716

[Difficulty]
HPDrainRate:1
CircleSize:3
OverallDifficulty:1
ApproachRate:2
SliderMultiplier:0.799999999999999
SliderTickRate:1

[Events]
//Background and Video events
0,0,"1.jpg",0,0
Video,530,"PV.flv"
//Break Periods
//Storyboard Layer 0 (Background)
//Storyboard Layer 1 (Fail)
//Storyboard Layer 2 (Pass)
//Storyboard Layer 3 (Foreground)
//Storyboard Sound Samples
//Background Colour Transformations
3,100,163,162,255

[TimingPoints]
648,312.5,4,2,1,10,1,0
10482,-100,4,1,1,50,0,0
10951,-100,4,1,1,30,0,0
11420,-100,4,1,1,40,0,0
11732,-100,4,1,1,50,0,0
13451,-100,4,1,1,30,0,0
13920,-100,4,1,1,40,0,0
14232,-100,4,1,1,50,0,0
15951,-100,4,1,1,30,0,0
16420,-100,4,1,1,40,0,0
16733,-100,4,1,1,50,0,0
18451,-100,4,1,1,30,0,0
18920,-100,4,1,1,40,0,0
19233,-100,4,1,1,50,0,0
20639,-100,4,2,1,30,0,0
23139,-100,4,2,1,40,0,0
32515,-100,4,3,1,50,0,0
33140,-100,4,3,1,30,0,0
34390,-100,4,3,1,35,0,0
35640,-100,4,3,1,40,0,0
36890,-100,4,3,1,45,0,0
38140,-100,4,3,1,50,0,0
39391,-100,4,3,1,55,0,0
40016,-100,4,2,1,60,0,0
40648,312.5,3,1,1,50,1,0
42523,312.5,4,2,1,40,1,0
45023,-100,4,2,1,20,0,0
46116,-100,4,1,1,60,0,1
55648,-100,4,1,1,40,0,0
56116,-100,4,1,1,60,0,1
65648,-100,4,1,1,40,0,0
66273,-100,4,1,1,60,0,0
71273,-100,4,1,1,60,0,1
75648,-100,4,1,1,40,0,0
76112,-100,4,1,1,60,0,0
76581,-100,4,1,1,30,0,0
77049,-100,4,1,1,40,0,0
77362,-100,4,1,1,50,0,0
79081,-100,4,1,1,30,0,0
79550,-100,4,1,1,40,0,0
79862,-100,4,1,1,50,0,0
81581,-100,4,1,1,30,0,0
82050,-100,4,1,1,40,0,0
82362,-100,4,1,1,50,0,0
84081,-100,4,1,1,30,0,0
84550,-100,4,1,1,40,0,0
84863,-100,4,1,1,50,0,0

[Colours]
Combo1 : 47,47,255
Combo2 : 0,128,255
Combo3 : 89,118,234

[HitObjects]
96,92,10491,2,0,L|104:212,1,120,4|10,0:0|0:0,0:0:0:0:
232,308,11585,2,0,P|316:316|384:268,1,160,8|8,0:0|0:0,0:0:0:0:
440,128,12835,6,0,P|356:100|280:132,1,160,8|10,0:0|0:0,0:0:0:0:
196,252,14085,2,0,P|124:244|68:180,1,160,8|10,0:0|0:0,0:0:0:0:
220,52,15491,6,0,L|232:180,1,120,4|10,0:0|0:0,0:0:0:0:
340,288,16585,2,0,P|400:236|404:144,1,160,8|8,0:0|0:0,0:0:0:0:
284,60,17835,6,0,P|208:56|148:108,1,160,8|10,0:0|0:0,0:0:0:0:
136,268,19085,2,0,P|208:256|268:312,1,160,8|8,0:0|0:0,0:0:0:0:
328,364,20023,2,0,L|496:376,1,160,0|2,0:0|0:0,0:0:0:0:
104,76,22835,6,0,L|120:168,1,79.9999999999999,2|2,0:0|0:0,0:0:0:0:
180,256,23616,2,0,P|240:264|300:232,2,120,2|2|0,0:0|0:0|0:0,0:0:0:0:
264,76,25335,6,0,P|316:60|352:72,1,79.9999999999999,2|2,0:0|0:0,0:0:0:0:
408,164,26116,2,0,L|396:292,2,120,2|2|0,0:0|0:0|0:0,0:0:0:0:
339,65,27523,2,0,P|300:60|264:76,1,79.9999999999999,0|2,0:0|0:0,0:0:0:0:
232,148,28148,6,0,L|224:240,1,79.9999999999999,2|0,0:0|0:0,0:0:0:0:
180,296,28773,2,0,P|136:312|96:304,1,79.9999999999999,2|0,0:0|0:0,0:0:0:0:
48,252,29398,2,0,L|41:172,1,79.9999999999999,2|0,0:0|0:0,0:0:0:0:
152,56,30335,6,0,L|248:56,1,79.9999999999999,0|2,0:0|0:0,0:0:0:0:
352,60,31116,2,0,P|376:116|348:180,2,120,2|2|0,0:0|0:0|0:0,0:0:0:0:
232,56,32523,2,0,L|152:56,1,79.9999999999999,8|0,0:1|0:0,0:0:0:0:
72,64,33148,6,0,P|44:152|80:220,2,160,4|0|0,0:2|0:0|0:0,0:0:0:0:
232,44,35023,1,0,0:0:0:0:
296,192,35648,6,0,P|356:252|428:248,2,160,0|0|0,0:0|0:0|0:0,0:0:0:0:
232,44,37523,1,0,0:0:0:0:
312,56,37835,1,0,0:0:0:0:
388,84,38148,6,0,L|376:248,1,160,0|0,0:0|0:0,0:0:0:0:
260,352,39398,2,0,P|196:364|140:336,2,120,0|0|0,0:0|0:0|0:0,0:0:0:0:
324,304,40648,6,0,L|448:316,1,120,8|0,0:0|0:0,0:0:0:0:
480,200,41585,2,0,L|360:188,1,120,8|0,0:0|0:0,0:0:0:0:
256,192,42523,12,0,45023,0:0:0:0:
76,80,46116,6,2,P|48:136|76:200,1,120,6|8,0:0|0:0,0:0:0:0:
136,220,46898,2,0,L|136:344,2,120,2|6|8,0:2|0:0|0:0,0:0:0:0:
204,176,48148,1,2,0:2:0:0:
324,160,48616,6,2,P|352:120|340:44,1,120,6|8,0:0|0:0,0:0:0:0:
264,40,49398,2,0,L|140:32,2,120,2|6|8,0:2|0:0|0:0,0:0:0:0:
336,184,50960,1,8,0:0:0:0:
408,224,51273,5,4,0:0:0:0:
416,144,51585,2,0,P|344:100|268:124,1,160,10|10,0:0|0:0,0:0:0:0:
224,180,52523,1,0,0:0:0:0:
216,260,52835,2,0,P|172:316|80:308,1,160,10|10,0:0|0:0,0:0:0:0:
48,244,53773,5,2,0:0:0:0:
64,164,54085,2,0,P|113:105|191:109,1,160,10|8,0:0|0:0,0:0:0:0:
248,168,55023,1,2,0:0:0:0:
264,248,55335,2,0,L|280:340,1,79.9999999999999,10|8,0:0|0:0,0:0:0:0:
376,264,56116,6,2,L|392:136,1,120,4|8,0:0|0:0,0:0:0:0:
360,72,56898,2,0,P|416:56|480:72,2,120,2|6|8,0:2|0:0|0:0,0:0:0:0:
304,128,58148,1,2,0:2:0:0:
200,188,58616,6,2,L|208:312,1,120,6|8,0:0|0:0,0:0:0:0:
268,360,59398,2,0,P|332:384|384:368,2,120,2|6|8,0:2|0:0|0:0,0:0:0:0:
316,208,60960,1,8,0:0:0:0:
372,268,61273,5,4,0:0:0:0:
296,288,61585,2,0,L|124:280,1,160,10|10,0:0|0:0,0:0:0:0:
72,236,62523,1,0,0:0:0:0:
48,160,62835,2,0,P|48:100|124:36,1,160,10|10,0:0|0:0,0:0:0:0:
196,56,63773,5,2,0:0:0:0:
256,112,64085,2,0,P|316:140|408:92,1,160,10|8,0:0|0:0,0:0:0:0:
484,240,65335,2,0,L|496:336,1,79.9999999999999,10|8,0:0|0:0,0:0:0:0:
336,340,66273,6,0,P|248:312|172:356,1,160,4|0,0:0|0:0,0:0:0:0:
120,192,67523,2,0,P|196:192|268:108,1,160,0|0,0:0|0:0,0:0:0:0:
360,20,68773,5,4,0:0:0:0:
432,56,69085,2,0,L|420:224,1,160,8|8,0:0|0:0,0:0:0:0:
276,284,70335,2,0,P|208:296|132:232,1,160,8|8,0:0|0:0,0:0:0:0:
120,168,71273,6,0,L|104:72,1,79.9999999999999,2|10,0:0|0:0,0:0:0:0:
180,52,71898,2,0,L|193:130,1,79.9999999999999,10|10,0:0|0:0,0:0:0:0:
264,168,72523,2,0,P|308:180|360:168,1,79.9999999999999,10|10,0:0|0:0,0:0:0:0:
412,136,73148,2,0,P|456:128|504:152,1,79.9999999999999,10|10,0:0|0:0,0:0:0:0:
504,220,73773,5,10,0:0:0:0:
500,300,74085,1,10,0:0:0:0:
432,344,74398,2,0,P|392:352|340:324,1,79.9999999999999,10|10,0:0|0:0,0:0:0:0:
300,280,75023,1,10,0:0:0:0:
296,200,75335,1,10,0:0:0:0:
272,124,75648,1,8,0:0:0:0:
172,56,76116,6,0,P|112:36|40:64,1,120,4|10,0:0|0:0,0:0:0:0:
32,208,77210,2,0,P|56:288|128:316,1,160,8|8,0:0|0:0,0:0:0:0:
236,204,78460,6,0,P|296:172|392:204,1,160,8|10,0:0|0:0,0:0:0:0:
320,344,79710,2,0,P|260:376|164:344,1,160,8|8,0:0|0:0,0:0:0:0:
72,184,81116,6,0,L|60:64,1,120,4|8,0:0|0:0,0:0:0:0:
216,36,82210,2,0,P|264:100|244:192,1,160,8|10,0:0|0:0,0:0:0:0:
164,308,83460,6,0,P|240:288|320:352,1,160,8|10,0:0|0:0,0:0:0:0:
448,252,84710,2,0,P|472:176|416:88,1,160,8|8,0:0|0:0,0:0:0:0:
360,88,85648,1,8,0:0:0:0:
280,80,85960,2,0,L|220:92,1,40,8|0,0:0|0:0,0:0:0:0:
