osu file format v12

[General]
AudioFilename: savior of song.mp3
AudioLeadIn: 0
PreviewTime: 45573
Countdown: 1
SampleSet: Soft
StackLeniency: 0.2
Mode: 3
LetterboxInBreaks: 1
SpecialStyle: 0
WidescreenStoryboard: 1

[Editor]
DistanceSpacing: 1
BeatDivisor: 8
GridSize: 32
TimelineZoom: 2.3

[Metadata]
Title:SAVIOR OF SONG (TV Size)
TitleUnicode:SAVIOR OF SONG (TV Size)
Artist:nano feat. MY FIRST STORY
ArtistUnicode:ナノ feat. MY FIRST STORY
Creator:[13] BECK
Version:7K MX
Source:Arpeggio of Blue Steel
Tags:nano feat. MY FIRST STORY - SAVIOR OF SONG (TV Size)
BeatmapID:367618
BeatmapSetID:147040

[Difficulty]
HPDrainRate:7
CircleSize:7
OverallDifficulty:7
ApproachRate:5
SliderMultiplier:1.4
SliderTickRate:1

[Events]
//Background and Video events
Video,0,"video.flv"
0,0,"2.png",0,0
//Break Periods
//Storyboard Layer 0 (Background)
//Storyboard Layer 1 (Fail)
//Storyboard Layer 2 (Pass)
//Storyboard Layer 3 (Foreground)
//Storyboard Sound Samples
//Background Colour Transformations
3,100,163,162,255

[TimingPoints]
575,312.5,4,2,0,100,1,0
575,-133.333333333333,4,2,0,100,0,0
9950,-100,4,2,0,100,0,0
23153,-133.333333333333,4,2,0,100,0,0
33075,-100,4,2,0,100,0,0
42450,-1000,4,2,0,100,0,0
45262,-100,4,2,0,100,0,0

[HitObjects]
475,192,575,5,0,0:0:0:0:
36,192,575,128,0,731:0:0:0:0:
256,192,731,128,0,926:0:0:0:0:
109,192,731,1,0,0:0:0:0:
36,192,926,1,0,0:0:0:0:
182,192,926,128,0,1082:0:0:0:0:
36,192,1082,128,0,1239:0:0:0:0:
402,192,1082,1,0,0:0:0:0:
256,192,1239,128,0,1512:0:0:0:0:
329,192,1239,1,0,0:0:0:0:
475,192,1512,128,0,1707:0:0:0:0:
109,192,1512,1,0,0:0:0:0:
182,192,1707,1,0,0:0:0:0:
256,192,1707,128,0,1981:0:0:0:0:
36,192,1707,128,0,1981:0:0:0:0:
475,192,1981,1,0,0:0:0:0:
182,192,1981,128,0,2293:0:0:0:0:
109,192,1981,1,0,0:0:0:0:
329,192,2293,1,0,0:0:0:0:
475,192,2293,128,0,2645:0:0:0:0:
36,192,2293,128,0,2645:0:0:0:0:
109,192,2293,1,0,0:0:0:0:
329,192,2645,1,0,0:0:0:0:
256,192,2645,1,0,0:0:0:0:
182,192,2918,128,0,3270:0:0:0:0:
475,192,2918,128,0,3270:0:0:0:0:
36,192,3270,1,0,0:0:0:0:
256,192,3270,128,0,3426:0:0:0:0:
36,192,3426,128,0,3739:0:0:0:0:
109,192,3426,1,0,0:0:0:0:
402,192,3426,1,0,0:0:0:0:
475,192,3582,1,0,0:0:0:0:
329,192,3739,1,0,0:0:0:0:
475,192,3739,128,0,4051:0:0:0:0:
182,192,3739,128,0,4051:0:0:0:0:
109,192,3739,1,0,0:0:0:0:
36,192,4051,1,0,0:0:0:0:
329,192,4051,1,0,0:0:0:0:
36,192,4207,128,0,4481:0:0:0:0:
329,192,4207,128,0,4481:0:0:0:0:
256,192,4207,1,0,0:0:0:0:
402,192,4207,1,0,0:0:0:0:
182,192,4481,1,0,0:0:0:0:
475,192,4481,1,0,0:0:0:0:
475,192,4676,1,0,0:0:0:0:
109,192,4676,1,0,0:0:0:0:
329,192,4754,1,0,0:0:0:0:
36,192,4832,128,0,5145:0:0:0:0:
256,192,4832,1,0,0:0:0:0:
109,192,5457,128,0,5770:0:0:0:0:
402,192,5457,128,0,5770:0:0:0:0:
36,192,5770,1,0,0:0:0:0:
475,192,5770,1,0,0:0:0:0:
475,192,5926,1,0,0:0:0:0:
109,192,5926,1,0,0:0:0:0:
36,192,6082,1,0,0:0:0:0:
256,192,6082,1,0,0:0:0:0:
182,192,6239,128,0,6512:0:0:0:0:
475,192,6239,128,0,6512:0:0:0:0:
109,192,6239,1,0,0:0:0:0:
402,192,6239,1,0,0:0:0:0:
36,192,6512,1,0,0:0:0:0:
329,192,6512,1,0,0:0:0:0:
329,192,6668,1,0,0:0:0:0:
109,192,6668,1,0,0:0:0:0:
182,192,6825,1,0,0:0:0:0:
36,192,6825,128,0,7020:0:0:0:0:
402,192,6825,1,0,0:0:0:0:
256,192,7020,128,0,7293:0:0:0:0:
475,192,7020,1,0,0:0:0:0:
109,192,7020,1,0,0:0:0:0:
475,192,7293,1,0,0:0:0:0:
36,192,7293,1,0,0:0:0:0:
109,192,7293,128,0,7606:0:0:0:0:
36,192,7606,1,0,0:0:0:0:
475,192,7606,128,0,7918:0:0:0:0:
182,192,7606,1,0,0:0:0:0:
402,192,7606,1,0,0:0:0:0:
36,192,7762,1,0,0:0:0:0:
36,192,7918,1,0,0:0:0:0:
256,192,7918,128,0,8231:0:0:0:0:
109,192,7918,128,0,8231:0:0:0:0:
36,192,8231,128,0,8426:0:0:0:0:
475,192,8231,128,0,8426:0:0:0:0:
402,192,8426,128,0,8895:0:0:0:0:
256,192,8426,128,0,8895:0:0:0:0:
475,192,8582,1,0,0:0:0:0:
182,192,8582,1,0,0:0:0:0:
475,192,8739,1,0,0:0:0:0:
36,192,8739,1,0,0:0:0:0:
475,192,9051,1,0,0:0:0:0:
36,192,9051,128,0,9207:0:0:0:0:
329,192,9207,1,0,0:0:0:0:
475,192,9207,128,0,9364:0:0:0:0:
109,192,9207,1,0,0:0:0:0:
256,192,9364,1,0,0:0:0:0:
36,192,9364,128,0,9520:0:0:0:0:
475,192,9520,128,0,9676:0:0:0:0:
109,192,9520,1,0,0:0:0:0:
402,192,9520,1,0,0:0:0:0:
182,192,9676,1,0,0:0:0:0:
36,192,9676,128,0,9832:0:0:0:0:
402,192,9832,1,0,0:0:0:0:
109,192,9832,1,0,0:0:0:0:
256,192,9989,1,0,0:0:0:0:
36,192,10067,1,0,0:0:0:0:
475,192,10145,1,0,0:0:0:0:
182,192,10223,1,0,0:0:0:0:
256,192,10301,1,0,0:0:0:0:
475,192,10379,1,0,0:0:0:0:
182,192,10379,1,0,0:0:0:0:
182,192,10731,1,0,0:0:0:0:
329,192,10809,1,0,0:0:0:0:
256,192,10887,1,0,0:0:0:0:
36,192,10887,1,0,0:0:0:0:
182,192,11043,1,0,0:0:0:0:
109,192,11121,1,0,0:0:0:0:
475,192,11200,1,0,0:0:0:0:
182,192,11356,1,0,0:0:0:0:
109,192,11434,1,0,0:0:0:0:
36,192,11512,1,0,0:0:0:0:
475,192,11668,128,0,11981:0:0:0:0:
36,192,11668,128,0,11981:0:0:0:0:
109,192,11981,1,0,0:0:0:0:
402,192,11981,1,0,0:0:0:0:
256,192,12137,1,0,0:0:0:0:
475,192,12215,1,0,0:0:0:0:
402,192,12293,1,0,0:0:0:0:
109,192,12371,1,0,0:0:0:0:
475,192,12450,1,0,0:0:0:0:
36,192,12450,1,0,0:0:0:0:
402,192,12606,1,0,0:0:0:0:
109,192,12684,1,0,0:0:0:0:
475,192,12762,1,0,0:0:0:0:
182,192,12918,1,0,0:0:0:0:
475,192,12918,1,0,0:0:0:0:
256,192,12918,128,0,13231:0:0:0:0:
109,192,12918,128,0,13231:0:0:0:0:
36,192,13231,1,0,0:0:0:0:
329,192,13231,1,0,0:0:0:0:
36,192,13387,1,0,0:0:0:0:
256,192,13465,1,0,0:0:0:0:
475,192,13543,1,0,0:0:0:0:
402,192,13621,1,0,0:0:0:0:
109,192,13700,1,0,0:0:0:0:
475,192,13856,1,0,0:0:0:0:
256,192,14012,1,0,0:0:0:0:
36,192,14012,1,0,0:0:0:0:
475,192,14168,128,0,14481:0:0:0:0:
182,192,14168,128,0,14481:0:0:0:0:
329,192,14481,1,0,0:0:0:0:
109,192,14559,1,0,0:0:0:0:
36,192,14637,1,0,0:0:0:0:
182,192,14715,1,0,0:0:0:0:
402,192,14793,1,0,0:0:0:0:
475,192,14871,1,0,0:0:0:0:
256,192,14950,1,0,0:0:0:0:
109,192,14950,1,0,0:0:0:0:
475,192,15106,1,0,0:0:0:0:
36,192,15106,1,0,0:0:0:0:
182,192,15262,1,0,0:0:0:0:
329,192,15262,1,0,0:0:0:0:
109,192,15262,1,0,0:0:0:0:
36,192,15418,128,0,15731:0:0:0:0:
475,192,15418,128,0,15731:0:0:0:0:
256,192,15418,128,0,15731:0:0:0:0:
109,192,15731,1,0,0:0:0:0:
402,192,15809,1,0,0:0:0:0:
36,192,15887,1,0,0:0:0:0:
256,192,15965,1,0,0:0:0:0:
182,192,16043,1,0,0:0:0:0:
475,192,16121,1,0,0:0:0:0:
402,192,16200,1,0,0:0:0:0:
109,192,16356,1,0,0:0:0:0:
402,192,16356,1,0,0:0:0:0:
256,192,16512,1,0,0:0:0:0:
329,192,16668,128,0,16981:0:0:0:0:
36,192,16668,128,0,16981:0:0:0:0:
475,192,16981,1,0,0:0:0:0:
256,192,17059,1,0,0:0:0:0:
109,192,17137,1,0,0:0:0:0:
402,192,17215,1,0,0:0:0:0:
182,192,17293,1,0,0:0:0:0:
36,192,17371,1,0,0:0:0:0:
329,192,17450,1,0,0:0:0:0:
36,192,17606,1,0,0:0:0:0:
109,192,17762,1,0,0:0:0:0:
402,192,17762,1,0,0:0:0:0:
109,192,17918,128,0,18231:0:0:0:0:
402,192,17918,128,0,18231:0:0:0:0:
182,192,18231,1,0,0:0:0:0:
256,192,18309,1,0,0:0:0:0:
182,192,18387,1,0,0:0:0:0:
402,192,18465,1,0,0:0:0:0:
109,192,18543,1,0,0:0:0:0:
256,192,18621,1,0,0:0:0:0:
36,192,18700,1,0,0:0:0:0:
329,192,18856,1,0,0:0:0:0:
109,192,18934,1,0,0:0:0:0:
36,192,19012,1,0,0:0:0:0:
475,192,19012,1,0,0:0:0:0:
475,192,19168,128,0,19364:0:0:0:0:
36,192,19168,128,0,19364:0:0:0:0:
402,192,19481,1,0,0:0:0:0:
36,192,19559,1,0,0:0:0:0:
256,192,19637,1,0,0:0:0:0:
475,192,19715,1,0,0:0:0:0:
36,192,19793,1,0,0:0:0:0:
475,192,19871,1,0,0:0:0:0:
329,192,19950,1,0,0:0:0:0:
109,192,20028,1,0,0:0:0:0:
402,192,20106,1,0,0:0:0:0:
36,192,20184,1,0,0:0:0:0:
182,192,20262,1,0,0:0:0:0:
256,192,20340,1,0,0:0:0:0:
182,192,20418,1,0,0:0:0:0:
475,192,20496,1,0,0:0:0:0:
36,192,20496,1,0,0:0:0:0:
109,192,20496,1,0,0:0:0:0:
402,192,20496,1,0,0:0:0:0:
182,192,22723,128,0,23114:0:0:0:0:
329,192,22723,128,0,23114:0:0:0:0:
36,192,22723,1,0,0:0:0:0:
475,192,22723,1,0,0:0:0:0:
109,192,23114,128,0,23504:0:0:0:0:
402,192,23114,128,0,23504:0:0:0:0:
256,192,23504,128,0,23973:0:0:0:0:
182,192,23973,128,0,24442:0:0:0:0:
109,192,23973,1,0,0:0:0:0:
36,192,24442,128,0,24754:0:0:0:0:
402,192,24442,1,0,0:0:0:0:
475,192,24754,128,0,24910:0:0:0:0:
402,192,24754,1,0,0:0:0:0:
256,192,24910,128,0,25223:0:0:0:0:
182,192,24910,1,0,0:0:0:0:
182,192,25223,128,0,25535:0:0:0:0:
329,192,25223,1,0,0:0:0:0:
475,192,25535,128,0,25848:0:0:0:0:
402,192,25535,1,0,0:0:0:0:
329,192,25848,128,0,26004:0:0:0:0:
256,192,25848,1,0,0:0:0:0:
182,192,26004,128,0,26160:0:0:0:0:
402,192,26004,1,0,0:0:0:0:
36,192,26160,128,0,26317:0:0:0:0:
109,192,26160,1,0,0:0:0:0:
475,192,26317,128,0,26473:0:0:0:0:
329,192,26473,128,0,26785:0:0:0:0:
402,192,26473,1,0,0:0:0:0:
182,192,26785,128,0,26942:0:0:0:0:
256,192,26785,1,0,0:0:0:0:
329,192,26942,128,0,27098:0:0:0:0:
475,192,27098,128,0,27254:0:0:0:0:
402,192,27098,1,0,0:0:0:0:
329,192,27254,128,0,27410:0:0:0:0:
182,192,27410,128,0,27723:0:0:0:0:
256,192,27410,1,0,0:0:0:0:
256,192,27723,128,0,28035:0:0:0:0:
475,192,28035,128,0,28348:0:0:0:0:
109,192,28035,128,0,28348:0:0:0:0:
329,192,28035,1,0,0:0:0:0:
329,192,28348,128,0,28504:0:0:0:0:
182,192,28348,1,0,0:0:0:0:
256,192,28504,128,0,28660:0:0:0:0:
402,192,28660,128,0,28817:0:0:0:0:
329,192,28817,128,0,28973:0:0:0:0:
109,192,28973,128,0,29129:0:0:0:0:
475,192,29129,128,0,29285:0:0:0:0:
256,192,29285,128,0,29598:0:0:0:0:
182,192,29285,1,0,0:0:0:0:
475,192,29598,128,0,29754:0:0:0:0:
402,192,29598,1,0,0:0:0:0:
329,192,29754,128,0,29910:0:0:0:0:
182,192,29910,128,0,30262:0:0:0:0:
109,192,29910,1,0,0:0:0:0:
109,192,30262,128,0,30614:0:0:0:0:
256,192,30614,128,0,30887:0:0:0:0:
182,192,30614,1,0,0:0:0:0:
182,192,30887,128,0,31160:0:0:0:0:
329,192,31160,128,0,31473:0:0:0:0:
402,192,31160,1,0,0:0:0:0:
182,192,31473,128,0,31785:0:0:0:0:
109,192,31473,1,0,0:0:0:0:
475,192,31785,128,0,31942:0:0:0:0:
109,192,31942,128,0,32098:0:0:0:0:
402,192,32098,1,0,0:0:0:0:
402,192,32293,1,0,0:0:0:0:
109,192,32371,1,0,0:0:0:0:
182,192,32450,1,0,0:0:0:0:
256,192,32450,1,0,0:0:0:0:
475,192,32606,1,0,0:0:0:0:
256,192,32762,1,0,0:0:0:0:
109,192,32918,1,0,0:0:0:0:
36,192,33075,1,0,0:0:0:0:
475,192,33075,1,0,0:0:0:0:
256,192,33231,1,0,0:0:0:0:
182,192,33309,1,0,0:0:0:0:
36,192,33387,1,0,0:0:0:0:
402,192,33543,1,0,0:0:0:0:
475,192,33700,1,0,0:0:0:0:
36,192,33700,1,0,0:0:0:0:
256,192,33856,1,0,0:0:0:0:
182,192,33934,1,0,0:0:0:0:
109,192,34012,1,0,0:0:0:0:
182,192,34168,1,0,0:0:0:0:
36,192,34325,1,0,0:0:0:0:
475,192,34325,1,0,0:0:0:0:
256,192,34481,1,0,0:0:0:0:
402,192,34559,1,0,0:0:0:0:
36,192,34637,1,0,0:0:0:0:
475,192,34715,1,0,0:0:0:0:
256,192,34793,1,0,0:0:0:0:
475,192,34871,1,0,0:0:0:0:
36,192,34950,1,0,0:0:0:0:
256,192,35106,1,0,0:0:0:0:
329,192,35184,1,0,0:0:0:0:
36,192,35262,1,0,0:0:0:0:
475,192,35418,1,0,0:0:0:0:
256,192,35418,1,0,0:0:0:0:
36,192,35575,1,0,0:0:0:0:
109,192,35731,1,0,0:0:0:0:
402,192,35809,1,0,0:0:0:0:
36,192,35887,1,0,0:0:0:0:
256,192,36043,1,0,0:0:0:0:
36,192,36200,1,0,0:0:0:0:
402,192,36356,1,0,0:0:0:0:
109,192,36434,1,0,0:0:0:0:
475,192,36512,1,0,0:0:0:0:
36,192,36668,1,0,0:0:0:0:
475,192,36825,1,0,0:0:0:0:
36,192,36981,1,0,0:0:0:0:
109,192,37059,1,0,0:0:0:0:
402,192,37137,1,0,0:0:0:0:
256,192,37215,1,0,0:0:0:0:
475,192,37293,1,0,0:0:0:0:
329,192,37371,1,0,0:0:0:0:
36,192,37450,1,0,0:0:0:0:
109,192,37606,1,0,0:0:0:0:
329,192,37684,1,0,0:0:0:0:
36,192,37762,1,0,0:0:0:0:
329,192,37918,1,0,0:0:0:0:
182,192,37918,1,0,0:0:0:0:
36,192,38075,1,0,0:0:0:0:
475,192,38075,1,0,0:0:0:0:
256,192,38231,1,0,0:0:0:0:
109,192,38309,1,0,0:0:0:0:
475,192,38387,1,0,0:0:0:0:
256,192,38543,1,0,0:0:0:0:
402,192,38621,1,0,0:0:0:0:
36,192,38700,1,0,0:0:0:0:
402,192,38856,1,0,0:0:0:0:
256,192,38934,1,0,0:0:0:0:
475,192,39012,1,0,0:0:0:0:
475,192,39168,1,0,0:0:0:0:
256,192,39246,1,0,0:0:0:0:
109,192,39325,1,0,0:0:0:0:
402,192,39325,1,0,0:0:0:0:
329,192,39481,1,0,0:0:0:0:
109,192,39559,1,0,0:0:0:0:
36,192,39637,1,0,0:0:0:0:
402,192,39637,1,0,0:0:0:0:
256,192,39793,1,0,0:0:0:0:
109,192,39871,1,0,0:0:0:0:
475,192,39950,1,0,0:0:0:0:
36,192,39950,1,0,0:0:0:0:
329,192,40106,1,0,0:0:0:0:
256,192,40184,1,0,0:0:0:0:
475,192,40262,1,0,0:0:0:0:
36,192,40262,1,0,0:0:0:0:
182,192,40340,1,0,0:0:0:0:
256,192,40418,1,0,0:0:0:0:
475,192,40496,1,0,0:0:0:0:
329,192,40575,1,0,0:0:0:0:
36,192,40575,1,0,0:0:0:0:
182,192,40731,1,0,0:0:0:0:
36,192,40731,1,0,0:0:0:0:
256,192,40887,1,0,0:0:0:0:
475,192,40887,1,0,0:0:0:0:
36,192,41043,1,0,0:0:0:0:
475,192,41043,1,0,0:0:0:0:
329,192,41512,1,0,0:0:0:0:
475,192,41512,1,0,0:0:0:0:
256,192,41668,1,0,0:0:0:0:
109,192,41668,1,0,0:0:0:0:
182,192,41825,1,0,0:0:0:0:
36,192,41825,1,0,0:0:0:0:
36,192,41981,1,0,0:0:0:0:
475,192,41981,1,0,0:0:0:0:
109,192,41981,1,0,0:0:0:0:
329,192,41981,1,0,0:0:0:0:
109,192,45575,1,0,0:0:0:0:
256,192,45731,1,0,0:0:0:0:
109,192,45887,1,0,0:0:0:0:
402,192,45887,1,0,0:0:0:0:
36,192,46043,128,0,46356:0:0:0:0:
475,192,46043,128,0,46356:0:0:0:0:
256,192,46043,128,0,46356:0:0:0:0:
182,192,46356,1,0,0:0:0:0:
329,192,46356,1,0,0:0:0:0:
475,192,46512,1,0,0:0:0:0:
256,192,46668,1,0,0:0:0:0:
182,192,46825,1,0,0:0:0:0:
475,192,46981,1,0,0:0:0:0:
36,192,46981,1,0,0:0:0:0:
182,192,47137,1,0,0:0:0:0:
109,192,47137,1,0,0:0:0:0:
256,192,47137,1,0,0:0:0:0:
36,192,47293,128,0,47606:0:0:0:0:
475,192,47293,128,0,47606:0:0:0:0:
182,192,47606,128,0,47762:0:0:0:0:
256,192,47606,128,0,47762:0:0:0:0:
36,192,47762,1,0,0:0:0:0:
475,192,47762,1,0,0:0:0:0:
475,192,47918,1,0,0:0:0:0:
402,192,47996,1,0,0:0:0:0:
36,192,48075,1,0,0:0:0:0:
109,192,48231,1,0,0:0:0:0:
182,192,48231,1,0,0:0:0:0:
402,192,48387,1,0,0:0:0:0:
329,192,48387,1,0,0:0:0:0:
36,192,48504,128,0,48856:0:0:0:0:
475,192,48504,128,0,48856:0:0:0:0:
182,192,48856,1,0,0:0:0:0:
256,192,48856,1,0,0:0:0:0:
36,192,49012,1,0,0:0:0:0:
475,192,49012,1,0,0:0:0:0:
109,192,49168,1,0,0:0:0:0:
256,192,49246,1,0,0:0:0:0:
36,192,49325,1,0,0:0:0:0:
36,192,49481,1,0,0:0:0:0:
475,192,49481,1,0,0:0:0:0:
256,192,49637,1,0,0:0:0:0:
182,192,49637,1,0,0:0:0:0:
475,192,49793,1,0,0:0:0:0:
402,192,50106,1,0,0:0:0:0:
256,192,50184,1,0,0:0:0:0:
36,192,50262,1,0,0:0:0:0:
36,192,50418,1,0,0:0:0:0:
182,192,50496,1,0,0:0:0:0:
256,192,50575,1,0,0:0:0:0:
109,192,50731,1,0,0:0:0:0:
256,192,50809,1,0,0:0:0:0:
402,192,50887,1,0,0:0:0:0:
109,192,51043,1,0,0:0:0:0:
36,192,51200,128,0,51356:0:0:0:0:
329,192,51200,128,0,51356:0:0:0:0:
402,192,51356,1,0,0:0:0:0:
402,192,51512,1,0,0:0:0:0:
109,192,51512,1,0,0:0:0:0:
256,192,51512,1,0,0:0:0:0:
182,192,51668,1,0,0:0:0:0:
475,192,51825,1,0,0:0:0:0:
36,192,51825,1,0,0:0:0:0:
109,192,51981,1,0,0:0:0:0:
256,192,52059,1,0,0:0:0:0:
36,192,52137,1,0,0:0:0:0:
475,192,52137,1,0,0:0:0:0:
402,192,52293,1,0,0:0:0:0:
182,192,52371,1,0,0:0:0:0:
36,192,52450,1,0,0:0:0:0:
182,192,52528,1,0,0:0:0:0:
402,192,52606,1,0,0:0:0:0:
36,192,52762,1,0,0:0:0:0:
475,192,52762,1,0,0:0:0:0:
109,192,52918,1,0,0:0:0:0:
256,192,52996,1,0,0:0:0:0:
475,192,53075,1,0,0:0:0:0:
329,192,53153,1,0,0:0:0:0:
109,192,53231,1,0,0:0:0:0:
36,192,53387,1,0,0:0:0:0:
475,192,53387,1,0,0:0:0:0:
256,192,53543,1,0,0:0:0:0:
329,192,53621,1,0,0:0:0:0:
475,192,53700,1,0,0:0:0:0:
182,192,53700,1,0,0:0:0:0:
109,192,53856,1,0,0:0:0:0:
36,192,54012,1,0,0:0:0:0:
329,192,54168,1,0,0:0:0:0:
475,192,54246,1,0,0:0:0:0:
36,192,54325,1,0,0:0:0:0:
256,192,54403,1,0,0:0:0:0:
475,192,54481,1,0,0:0:0:0:
36,192,54637,1,0,0:0:0:0:
402,192,54637,1,0,0:0:0:0:
256,192,54793,1,0,0:0:0:0:
329,192,54871,1,0,0:0:0:0:
475,192,54950,1,0,0:0:0:0:
256,192,55028,1,0,0:0:0:0:
109,192,55106,1,0,0:0:0:0:
36,192,55184,1,0,0:0:0:0:
329,192,55262,1,0,0:0:0:0:
475,192,55262,1,0,0:0:0:0:
36,192,55340,1,0,0:0:0:0:
182,192,55340,1,0,0:0:0:0:
329,192,55418,1,0,0:0:0:0:
475,192,55418,1,0,0:0:0:0:
36,192,55496,1,0,0:0:0:0:
182,192,55496,1,0,0:0:0:0:
329,192,55575,1,0,0:0:0:0:
475,192,55575,1,0,0:0:0:0:
182,192,55653,1,0,0:0:0:0:
329,192,55731,1,0,0:0:0:0:
182,192,55809,1,0,0:0:0:0:
256,192,55809,1,0,0:0:0:0:
329,192,55887,1,0,0:0:0:0:
402,192,55887,1,0,0:0:0:0:
182,192,55965,1,0,0:0:0:0:
256,192,55965,1,0,0:0:0:0:
36,192,56043,1,0,0:0:0:0:
475,192,56043,1,0,0:0:0:0:
109,192,56278,1,0,0:0:0:0:
256,192,56356,1,0,0:0:0:0:
475,192,56434,1,0,0:0:0:0:
329,192,56512,1,0,0:0:0:0:
182,192,56512,1,0,0:0:0:0:
36,192,56668,1,0,0:0:0:0:
109,192,56746,1,0,0:0:0:0:
256,192,56825,1,0,0:0:0:0:
475,192,56981,1,0,0:0:0:0:
182,192,57059,1,0,0:0:0:0:
402,192,57137,1,0,0:0:0:0:
475,192,57293,1,0,0:0:0:0:
36,192,57293,1,0,0:0:0:0:
109,192,57450,1,0,0:0:0:0:
475,192,57606,1,0,0:0:0:0:
402,192,57762,1,0,0:0:0:0:
256,192,57918,1,0,0:0:0:0:
36,192,58075,1,0,0:0:0:0:
109,192,58075,1,0,0:0:0:0:
475,192,58153,1,0,0:0:0:0:
182,192,58231,1,0,0:0:0:0:
36,192,58387,1,0,0:0:0:0:
256,192,58387,1,0,0:0:0:0:
109,192,58543,1,0,0:0:0:0:
36,192,58700,1,0,0:0:0:0:
475,192,58700,1,0,0:0:0:0:
256,192,58700,1,0,0:0:0:0:
402,192,58856,1,0,0:0:0:0:
36,192,59012,1,0,0:0:0:0:
109,192,59012,1,0,0:0:0:0:
329,192,59168,1,0,0:0:0:0:
475,192,59325,1,0,0:0:0:0:
256,192,59325,1,0,0:0:0:0:
329,192,59481,1,0,0:0:0:0:
36,192,59637,1,0,0:0:0:0:
402,192,59637,1,0,0:0:0:0:
256,192,59793,1,0,0:0:0:0:
329,192,59950,1,0,0:0:0:0:
109,192,60028,1,0,0:0:0:0:
475,192,60106,1,0,0:0:0:0:
36,192,60262,1,0,0:0:0:0:
256,192,60262,1,0,0:0:0:0:
402,192,60418,1,0,0:0:0:0:
182,192,60496,1,0,0:0:0:0:
475,192,60575,1,0,0:0:0:0:
109,192,60653,1,0,0:0:0:0:
36,192,60731,1,0,0:0:0:0:
475,192,60887,1,0,0:0:0:0:
256,192,60887,1,0,0:0:0:0:
182,192,61043,1,0,0:0:0:0:
109,192,61043,1,0,0:0:0:0:
36,192,61200,1,0,0:0:0:0:
475,192,61200,1,0,0:0:0:0:
109,192,61356,1,0,0:0:0:0:
36,192,61512,1,0,0:0:0:0:
256,192,61512,1,0,0:0:0:0:
475,192,61668,1,0,0:0:0:0:
36,192,61825,1,0,0:0:0:0:
109,192,61825,1,0,0:0:0:0:
256,192,61903,1,0,0:0:0:0:
475,192,61981,1,0,0:0:0:0:
475,192,62137,1,0,0:0:0:0:
182,192,62137,1,0,0:0:0:0:
475,192,62293,1,0,0:0:0:0:
402,192,62371,1,0,0:0:0:0:
36,192,62450,1,0,0:0:0:0:
256,192,62528,1,0,0:0:0:0:
109,192,62606,1,0,0:0:0:0:
36,192,62762,1,0,0:0:0:0:
475,192,62762,1,0,0:0:0:0:
402,192,62918,1,0,0:0:0:0:
182,192,62996,1,0,0:0:0:0:
36,192,63075,1,0,0:0:0:0:
256,192,63153,1,0,0:0:0:0:
475,192,63231,1,0,0:0:0:0:
329,192,63309,1,0,0:0:0:0:
36,192,63387,1,0,0:0:0:0:
109,192,63387,1,0,0:0:0:0:
475,192,63465,1,0,0:0:0:0:
256,192,63543,1,0,0:0:0:0:
109,192,63621,1,0,0:0:0:0:
475,192,63700,1,0,0:0:0:0:
402,192,63700,1,0,0:0:0:0:
182,192,63778,1,0,0:0:0:0:
36,192,63856,1,0,0:0:0:0:
475,192,64012,1,0,0:0:0:0:
109,192,64090,1,0,0:0:0:0:
256,192,64168,1,0,0:0:0:0:
36,192,64246,1,0,0:0:0:0:
329,192,64325,1,0,0:0:0:0:
402,192,64403,1,0,0:0:0:0:
182,192,64481,1,0,0:0:0:0:
36,192,64637,1,0,0:0:0:0:
256,192,64637,1,0,0:0:0:0:
475,192,64715,1,0,0:0:0:0:
329,192,64793,1,0,0:0:0:0:
475,192,64950,1,0,0:0:0:0:
36,192,64950,1,0,0:0:0:0:
109,192,65106,1,0,0:0:0:0:
182,192,65184,1,0,0:0:0:0:
475,192,65262,1,0,0:0:0:0:
256,192,65262,1,0,0:0:0:0:
475,192,65418,1,0,0:0:0:0:
256,192,65496,1,0,0:0:0:0:
182,192,65575,1,0,0:0:0:0:
256,192,65653,1,0,0:0:0:0:
182,192,65731,1,0,0:0:0:0:
109,192,65731,1,0,0:0:0:0:
329,192,65809,1,0,0:0:0:0:
256,192,65809,1,0,0:0:0:0:
36,192,65887,1,0,0:0:0:0:
182,192,65887,1,0,0:0:0:0:
256,192,65965,1,0,0:0:0:0:
402,192,65965,1,0,0:0:0:0:
36,192,66043,1,0,0:0:0:0:
182,192,66043,1,0,0:0:0:0:
329,192,66121,1,0,0:0:0:0:
402,192,66121,1,0,0:0:0:0:
182,192,66200,1,0,0:0:0:0:
109,192,66200,1,0,0:0:0:0:
475,192,66278,1,0,0:0:0:0:
329,192,66356,1,0,0:0:0:0:
109,192,66434,1,0,0:0:0:0:
36,192,66512,1,0,0:0:0:0:
402,192,66512,1,0,0:0:0:0:
109,192,66668,1,0,0:0:0:0:
256,192,66746,1,0,0:0:0:0:
475,192,66825,1,0,0:0:0:0:
182,192,66903,1,0,0:0:0:0:
475,192,66981,1,0,0:0:0:0:
36,192,67137,1,0,0:0:0:0:
256,192,67137,1,0,0:0:0:0:
329,192,67293,1,0,0:0:0:0:
36,192,67371,1,0,0:0:0:0:
402,192,67450,1,0,0:0:0:0:
256,192,67606,1,0,0:0:0:0:
109,192,67762,1,0,0:0:0:0:
475,192,67918,1,0,0:0:0:0:
402,192,67996,1,0,0:0:0:0:
36,192,68075,1,0,0:0:0:0:
109,192,68153,1,0,0:0:0:0:
475,192,68231,1,0,0:0:0:0:
256,192,68387,1,0,0:0:0:0:
402,192,68387,1,0,0:0:0:0:
329,192,68543,1,0,0:0:0:0:
109,192,68621,1,0,0:0:0:0:
36,192,68700,1,0,0:0:0:0:
475,192,68856,1,0,0:0:0:0:
402,192,68934,1,0,0:0:0:0:
256,192,69012,1,0,0:0:0:0:
475,192,69168,1,0,0:0:0:0:
256,192,69246,1,0,0:0:0:0:
36,192,69325,1,0,0:0:0:0:
109,192,69403,1,0,0:0:0:0:
475,192,69481,1,0,0:0:0:0:
36,192,69637,1,0,0:0:0:0:
109,192,69637,1,0,0:0:0:0:
475,192,69715,1,0,0:0:0:0:
329,192,69793,1,0,0:0:0:0:
109,192,69871,1,0,0:0:0:0:
36,192,69950,1,0,0:0:0:0:
109,192,70106,1,0,0:0:0:0:
402,192,70184,1,0,0:0:0:0:
36,192,70262,1,0,0:0:0:0:
402,192,70418,1,0,0:0:0:0:
256,192,70496,1,0,0:0:0:0:
36,192,70575,1,0,0:0:0:0:
109,192,70731,1,0,0:0:0:0:
329,192,70809,1,0,0:0:0:0:
475,192,70887,1,0,0:0:0:0:
36,192,71043,1,0,0:0:0:0:
475,192,71043,1,0,0:0:0:0:
182,192,71200,128,0,71356:0:0:0:0:
256,192,71200,128,0,71356:0:0:0:0:
475,192,71356,1,0,0:0:0:0:
182,192,71512,128,0,71668:0:0:0:0:
109,192,71512,1,0,0:0:0:0:
256,192,71668,1,0,0:0:0:0:
36,192,71825,128,0,71981:0:0:0:0:
109,192,71981,1,0,0:0:0:0:
329,192,72137,128,0,72293:0:0:0:0:
256,192,72137,128,0,72293:0:0:0:0:
402,192,72293,1,0,0:0:0:0:
182,192,72293,1,0,0:0:0:0:
36,192,72450,128,0,72606:0:0:0:0:
475,192,72450,128,0,72606:0:0:0:0:
402,192,72606,1,0,0:0:0:0:
109,192,72606,1,0,0:0:0:0:
182,192,72762,128,0,72918:0:0:0:0:
256,192,72918,1,0,0:0:0:0:
329,192,73075,128,0,73231:0:0:0:0:
256,192,73231,1,0,0:0:0:0:
475,192,73387,1,0,0:0:0:0:
256,192,73465,1,0,0:0:0:0:
109,192,73543,1,0,0:0:0:0:
256,192,73700,128,0,73856:0:0:0:0:
109,192,73700,128,0,73856:0:0:0:0:
329,192,73856,1,0,0:0:0:0:
36,192,73856,1,0,0:0:0:0:
36,192,74012,128,0,74168:0:0:0:0:
475,192,74012,128,0,74168:0:0:0:0:
109,192,74168,1,0,0:0:0:0:
402,192,74168,1,0,0:0:0:0:
182,192,74325,128,0,74481:0:0:0:0:
109,192,74481,1,0,0:0:0:0:
256,192,74637,128,0,74793:0:0:0:0:
329,192,74793,1,0,0:0:0:0:
182,192,74950,128,0,75106:0:0:0:0:
256,192,75106,1,0,0:0:0:0:
475,192,75262,128,0,75418:0:0:0:0:
402,192,75418,1,0,0:0:0:0:
256,192,75575,1,0,0:0:0:0:
36,192,75653,1,0,0:0:0:0:
109,192,75731,1,0,0:0:0:0:
329,192,75809,1,0,0:0:0:0:
475,192,75887,1,0,0:0:0:0:
256,192,75965,1,0,0:0:0:0:
36,192,76043,1,0,0:0:0:0:
475,192,76043,1,0,0:0:0:0:
475,192,76356,1,0,0:0:0:0:
402,192,76434,1,0,0:0:0:0:
475,192,76512,1,0,0:0:0:0:
36,192,76512,1,0,0:0:0:0:
256,192,76668,1,0,0:0:0:0:
182,192,76825,1,0,0:0:0:0:
36,192,76981,1,0,0:0:0:0:
256,192,77137,1,0,0:0:0:0:
36,192,77293,1,0,0:0:0:0:
475,192,77293,128,0,77606:0:0:0:0:
36,192,77606,1,0,0:0:0:0:
109,192,77684,1,0,0:0:0:0:
256,192,77762,1,0,0:0:0:0:
475,192,77918,1,0,0:0:0:0:
402,192,77996,1,0,0:0:0:0:
329,192,78075,1,0,0:0:0:0:
36,192,78231,1,0,0:0:0:0:
109,192,78387,1,0,0:0:0:0:
182,192,78543,1,0,0:0:0:0:
256,192,78543,128,0,78856:0:0:0:0:
329,192,78543,1,0,0:0:0:0:
36,192,78856,1,0,0:0:0:0:
109,192,78934,1,0,0:0:0:0:
329,192,79012,1,0,0:0:0:0:
475,192,79168,1,0,0:0:0:0:
36,192,79168,1,0,0:0:0:0:
475,192,79325,1,0,0:0:0:0:
256,192,79325,1,0,0:0:0:0:
402,192,79481,1,0,0:0:0:0:
182,192,79637,1,0,0:0:0:0:
36,192,79793,1,0,0:0:0:0:
475,192,79950,1,0,0:0:0:0:
256,192,79950,1,0,0:0:0:0:
36,192,80106,1,0,0:0:0:0:
109,192,80184,1,0,0:0:0:0:
256,192,80262,1,0,0:0:0:0:
475,192,80418,1,0,0:0:0:0:
402,192,80496,1,0,0:0:0:0:
182,192,80575,1,0,0:0:0:0:
36,192,80731,1,0,0:0:0:0:
475,192,80887,1,0,0:0:0:0:
36,192,81043,1,0,0:0:0:0:
256,192,81278,1,0,0:0:0:0:
36,192,81356,1,0,0:0:0:0:
109,192,81434,1,0,0:0:0:0:
402,192,81512,1,0,0:0:0:0:
475,192,81668,1,0,0:0:0:0:
256,192,81746,1,0,0:0:0:0:
109,192,81825,1,0,0:0:0:0:
36,192,81981,1,0,0:0:0:0:
475,192,82137,1,0,0:0:0:0:
256,192,82293,1,0,0:0:0:0:
329,192,82528,1,0,0:0:0:0:
36,192,82606,1,0,0:0:0:0:
109,192,82684,1,0,0:0:0:0:
402,192,82762,1,0,0:0:0:0:
475,192,82918,1,0,0:0:0:0:
256,192,82996,1,0,0:0:0:0:
109,192,83075,1,0,0:0:0:0:
182,192,83231,1,0,0:0:0:0:
475,192,83387,1,0,0:0:0:0:
109,192,83543,1,0,0:0:0:0:
36,192,83856,1,0,0:0:0:0:
256,192,83934,1,0,0:0:0:0:
329,192,84012,1,0,0:0:0:0:
475,192,84090,1,0,0:0:0:0:
329,192,84168,1,0,0:0:0:0:
256,192,84246,1,0,0:0:0:0:
36,192,84325,1,0,0:0:0:0:
109,192,84481,1,0,0:0:0:0:
475,192,84637,1,0,0:0:0:0:
256,192,84715,1,0,0:0:0:0:
36,192,84793,1,0,0:0:0:0:
36,192,85106,1,0,0:0:0:0:
109,192,85184,1,0,0:0:0:0:
182,192,85262,1,0,0:0:0:0:
402,192,85340,1,0,0:0:0:0:
256,192,85418,1,0,0:0:0:0:
182,192,85496,1,0,0:0:0:0:
36,192,85575,1,0,0:0:0:0:
182,192,85653,1,0,0:0:0:0:
329,192,85731,1,0,0:0:0:0:
256,192,85731,1,0,0:0:0:0:
182,192,85809,1,0,0:0:0:0:
109,192,85809,1,0,0:0:0:0:
329,192,85887,1,0,0:0:0:0:
475,192,85887,1,0,0:0:0:0:
182,192,85965,1,0,0:0:0:0:
36,192,85965,1,0,0:0:0:0:
329,192,86043,128,0,86356:0:0:0:0:
36,192,86043,128,0,86356:0:0:0:0:
