osu file format v14

[General]
AudioFilename: SAVIOR OF SONG.mp3
AudioLeadIn: 0
PreviewTime: 0
Countdown: 0
SampleSet: Normal
StackLeniency: 0.7
Mode: 3
LetterboxInBreaks: 0
SkinPreference:All About Nozo V.1
SpecialStyle: 0
WidescreenStoryboard: 1

[Editor]
DistanceSpacing: 1.4
BeatDivisor: 4
GridSize: 4
TimelineZoom: 1

[Metadata]
Title:SAVIOR OF SONG (TV SIZE)
TitleUnicode:SAVIOR OF SONG (TV SIZE)
Artist:nano feat. MY FIRST STORY
ArtistUnicode:nano feat. MY FIRST STORY
Creator:KiraHikari
Version:KiRa
Source:Opening Aoki Hagane No Arpeggio
Tags:Aoki Hagane No Arpeggio
BeatmapID:807185
BeatmapSetID:365813

[Difficulty]
HPDrainRate:7
CircleSize:4
OverallDifficulty:8
ApproachRate:5
SliderMultiplier:3
SliderTickRate:4

[Events]
//Background and Video events
0,0,"BG.png",0,0
//Break Periods
//Storyboard Layer 0 (Background)
//Storyboard Layer 1 (Fail)
//Storyboard Layer 2 (Pass)
//Storyboard Layer 3 (Foreground)
//Storyboard Sound Samples

[TimingPoints]
569,312.5,4,1,0,5,1,0

[Colours]
Combo1 : 130,184,251
Combo2 : 84,209,101

[HitObjects]
64,192,569,128,0,1506:0:0:0:0:
320,192,569,1,0,0:0:0:0:
192,192,569,1,0,0:0:0:0:
192,192,1037,1,0,0:0:0:0:
448,192,1037,128,0,1506:0:0:0:0:
320,192,1506,1,0,0:0:0:0:
192,192,1506,1,0,0:0:0:0:
448,192,3069,128,0,4084:0:0:0:0:
320,192,3069,1,0,0:0:0:0:
64,192,3069,1,0,0:0:0:0:
192,192,3537,1,0,0:0:0:0:
320,192,3537,128,0,4084:0:0:0:0:
192,192,4084,1,0,0:0:0:0:
64,192,4084,1,0,0:0:0:0:
320,192,5490,1,0,0:0:0:0:
192,192,5490,128,0,6662:0:0:0:0:
448,192,6037,128,0,6662:0:0:0:0:
320,192,6037,1,0,0:0:0:0:
64,192,6662,1,0,0:0:0:0:
320,192,6662,1,0,0:0:0:0:
192,192,9944,1,0,0:0:0:0:
320,192,10022,1,0,0:0:0:0:
448,192,10100,1,0,0:0:0:0:
320,192,10178,1,0,0:0:0:0:
192,192,10256,1,0,0:0:0:0:
64,192,10334,1,0,0:0:0:0:
320,192,10490,1,0,0:0:0:0:
192,192,10490,1,0,0:0:0:0:
64,192,10490,1,0,0:0:0:0:
448,192,10725,128,0,11037:0:0:0:0:
320,192,10881,1,0,0:0:0:0:
192,192,11037,1,0,0:0:0:0:
64,192,11037,128,0,11350:0:0:0:0:
320,192,11350,1,0,0:0:0:0:
192,192,11350,128,0,11662:0:0:0:0:
320,192,11662,1,0,0:0:0:0:
448,192,11662,128,0,11975:0:0:0:0:
64,192,11975,1,0,0:0:0:0:
192,192,11975,128,0,12287:0:0:0:0:
64,192,12287,1,0,0:0:0:0:
448,192,12287,1,0,0:0:0:0:
320,192,12287,128,0,12600:0:0:0:0:
192,192,12600,1,0,0:0:0:0:
64,192,12600,128,0,12912:0:0:0:0:
448,192,12600,128,0,12912:0:0:0:0:
192,192,12912,1,0,0:0:0:0:
320,192,12912,1,0,0:0:0:0:
64,192,13225,128,0,13537:0:0:0:0:
320,192,13381,1,0,0:0:0:0:
448,192,13537,1,0,0:0:0:0:
192,192,13537,128,0,13850:0:0:0:0:
64,192,13850,1,0,0:0:0:0:
320,192,13850,128,0,14162:0:0:0:0:
192,192,14162,1,0,0:0:0:0:
64,192,14162,1,0,0:0:0:0:
448,192,14162,128,0,14553:0:0:0:0:
320,192,14553,1,0,0:0:0:0:
192,192,14631,1,0,0:0:0:0:
64,192,14709,1,0,0:0:0:0:
192,192,14787,1,0,0:0:0:0:
320,192,14865,1,0,0:0:0:0:
448,192,14944,1,0,0:0:0:0:
320,192,15022,1,0,0:0:0:0:
192,192,15100,1,0,0:0:0:0:
64,192,15178,1,0,0:0:0:0:
192,192,15256,1,0,0:0:0:0:
320,192,15256,128,0,15490:0:0:0:0:
448,192,15256,128,0,15490:0:0:0:0:
64,192,15490,1,0,0:0:0:0:
192,192,15490,1,0,0:0:0:0:
64,192,15725,128,0,16037:0:0:0:0:
192,192,15725,128,0,16037:0:0:0:0:
448,192,15881,1,0,0:0:0:0:
320,192,16037,1,0,0:0:0:0:
448,192,16037,128,0,16350:0:0:0:0:
192,192,16350,1,0,0:0:0:0:
64,192,16350,128,0,16662:0:0:0:0:
448,192,16662,1,0,0:0:0:0:
192,192,16662,1,0,0:0:0:0:
320,192,16662,128,0,16975:0:0:0:0:
64,192,16975,1,0,0:0:0:0:
192,192,16975,128,0,17287:0:0:0:0:
64,192,17287,1,0,0:0:0:0:
448,192,17287,128,0,17600:0:0:0:0:
320,192,17600,1,0,0:0:0:0:
64,192,17600,128,0,17912:0:0:0:0:
192,192,17600,128,0,17912:0:0:0:0:
320,192,17912,1,0,0:0:0:0:
448,192,17912,1,0,0:0:0:0:
320,192,18225,128,0,18537:0:0:0:0:
192,192,18381,1,0,0:0:0:0:
192,192,18537,1,0,0:0:0:0:
448,192,18537,1,0,0:0:0:0:
64,192,18537,128,0,18850:0:0:0:0:
192,192,18850,1,0,0:0:0:0:
448,192,18850,128,0,19162:0:0:0:0:
64,192,19162,1,0,0:0:0:0:
320,192,19162,1,0,0:0:0:0:
192,192,19162,128,0,19475:0:0:0:0:
64,192,19475,1,0,0:0:0:0:
320,192,19553,1,0,0:0:0:0:
192,192,19631,1,0,0:0:0:0:
64,192,19709,5,0,0:0:0:0:
192,192,19787,1,0,0:0:0:0:
320,192,19865,1,0,0:0:0:0:
448,192,19944,1,0,0:0:0:0:
320,192,20022,1,0,0:0:0:0:
192,192,20100,1,0,0:0:0:0:
64,192,20178,1,0,0:0:0:0:
192,192,20256,1,0,0:0:0:0:
320,192,20334,1,0,0:0:0:0:
448,192,20412,1,0,0:0:0:0:
64,192,20569,128,0,21115:0:0:0:0:
448,192,20569,128,0,21115:0:0:0:0:
192,192,21115,1,0,0:0:0:0:
320,192,21115,128,0,21428:0:0:0:0:
192,192,21428,1,0,0:0:0:0:
64,192,21428,1,0,0:0:0:0:
448,192,21428,128,0,21897:0:0:0:0:
192,192,21584,1,0,0:0:0:0:
64,192,21897,1,0,0:0:0:0:
64,192,21975,128,0,22365:0:0:0:0:
192,192,22365,1,0,0:0:0:0:
448,192,22365,128,0,22756:0:0:0:0:
320,192,22522,1,0,0:0:0:0:
64,192,22756,128,0,23069:0:0:0:0:
192,192,22756,128,0,23069:0:0:0:0:
448,192,23069,128,0,23615:0:0:0:0:
320,192,23069,128,0,23615:0:0:0:0:
64,192,23615,1,0,0:0:0:0:
192,192,23615,128,0,24006:0:0:0:0:
320,192,24006,1,0,0:0:0:0:
64,192,24006,1,0,0:0:0:0:
448,192,24006,128,0,24397:0:0:0:0:
192,192,24397,1,0,0:0:0:0:
320,192,24397,1,0,0:0:0:0:
64,192,24397,128,0,24865:0:0:0:0:
320,192,24865,1,0,0:0:0:0:
192,192,24865,128,0,25256:0:0:0:0:
320,192,25256,1,0,0:0:0:0:
448,192,25256,128,0,25569:0:0:0:0:
320,192,25569,1,0,0:0:0:0:
192,192,25569,1,0,0:0:0:0:
64,192,25569,128,0,26037:0:0:0:0:
448,192,26037,1,0,0:0:0:0:
192,192,26037,128,0,26506:0:0:0:0:
320,192,26506,1,0,0:0:0:0:
64,192,26506,128,0,26819:0:0:0:0:
320,192,26819,1,0,0:0:0:0:
448,192,26819,1,0,0:0:0:0:
192,192,26819,128,0,27287:0:0:0:0:
320,192,27287,1,0,0:0:0:0:
64,192,27287,1,0,0:0:0:0:
448,192,27287,128,0,27756:0:0:0:0:
192,192,27756,1,0,0:0:0:0:
64,192,27756,128,0,28069:0:0:0:0:
320,192,28069,1,0,0:0:0:0:
192,192,28069,1,0,0:0:0:0:
448,192,28069,128,0,28615:0:0:0:0:
192,192,28615,1,0,0:0:0:0:
64,192,28615,1,0,0:0:0:0:
320,192,28615,128,0,29084:0:0:0:0:
192,192,29084,1,0,0:0:0:0:
64,192,29084,1,0,0:0:0:0:
448,192,29084,128,0,29319:0:0:0:0:
320,192,29319,128,0,30256:0:0:0:0:
64,192,29319,128,0,30256:0:0:0:0:
192,192,30256,1,0,0:0:0:0:
448,192,30256,128,0,30569:0:0:0:0:
192,192,30569,1,0,0:0:0:0:
64,192,30569,1,0,0:0:0:0:
320,192,30569,128,0,31115:0:0:0:0:
192,192,31115,1,0,0:0:0:0:
64,192,31115,128,0,31506:0:0:0:0:
320,192,31506,1,0,0:0:0:0:
448,192,31506,128,0,31819:0:0:0:0:
320,192,31819,128,0,32287:0:0:0:0:
192,192,31819,128,0,32287:0:0:0:0:
64,192,31819,1,0,0:0:0:0:
448,192,32287,1,0,0:0:0:0:
64,192,32287,1,0,0:0:0:0:
320,192,32444,1,0,0:0:0:0:
192,192,32444,1,0,0:0:0:0:
320,192,32600,1,0,0:0:0:0:
192,192,32756,1,0,0:0:0:0:
320,192,32756,1,0,0:0:0:0:
64,192,32912,1,0,0:0:0:0:
448,192,32912,1,0,0:0:0:0:
448,192,33069,1,0,0:0:0:0:
64,192,33069,1,0,0:0:0:0:
192,192,33069,1,0,0:0:0:0:
320,192,33069,1,0,0:0:0:0:
64,192,33381,1,0,0:0:0:0:
192,192,33381,1,0,0:0:0:0:
320,192,33381,1,0,0:0:0:0:
448,192,33694,1,0,0:0:0:0:
320,192,33694,1,0,0:0:0:0:
192,192,33694,1,0,0:0:0:0:
64,192,34006,1,0,0:0:0:0:
192,192,34006,1,0,0:0:0:0:
320,192,34006,1,0,0:0:0:0:
192,192,34319,1,0,0:0:0:0:
448,192,34319,128,0,34787:0:0:0:0:
64,192,34475,1,0,0:0:0:0:
320,192,34787,1,0,0:0:0:0:
192,192,34787,128,0,35100:0:0:0:0:
64,192,35100,1,0,0:0:0:0:
448,192,35100,1,0,0:0:0:0:
192,192,35412,128,0,35569:0:0:0:0:
320,192,35412,128,0,35569:0:0:0:0:
64,192,35569,1,0,0:0:0:0:
448,192,35569,1,0,0:0:0:0:
448,192,35881,1,0,0:0:0:0:
320,192,35881,1,0,0:0:0:0:
192,192,35881,1,0,0:0:0:0:
64,192,36194,1,0,0:0:0:0:
192,192,36194,1,0,0:0:0:0:
320,192,36194,1,0,0:0:0:0:
448,192,36506,1,0,0:0:0:0:
320,192,36506,1,0,0:0:0:0:
192,192,36506,1,0,0:0:0:0:
320,192,36819,1,0,0:0:0:0:
64,192,36819,1,0,0:0:0:0:
192,192,36819,128,0,37053:0:0:0:0:
448,192,37053,1,0,0:0:0:0:
64,192,37053,128,0,37365:0:0:0:0:
192,192,37365,1,0,0:0:0:0:
320,192,37365,128,0,37600:0:0:0:0:
64,192,37600,1,0,0:0:0:0:
448,192,37600,1,0,0:0:0:0:
192,192,37912,128,0,38069:0:0:0:0:
320,192,37912,128,0,38069:0:0:0:0:
64,192,38069,1,0,0:0:0:0:
448,192,38069,1,0,0:0:0:0:
64,192,38381,1,0,0:0:0:0:
192,192,38381,1,0,0:0:0:0:
320,192,38381,1,0,0:0:0:0:
448,192,38381,1,0,0:0:0:0:
448,192,38694,1,0,0:0:0:0:
192,192,38694,1,0,0:0:0:0:
64,192,38694,1,0,0:0:0:0:
320,192,38694,1,0,0:0:0:0:
448,192,39006,1,0,0:0:0:0:
320,192,39006,1,0,0:0:0:0:
192,192,39006,1,0,0:0:0:0:
64,192,39006,1,0,0:0:0:0:
192,192,39319,1,0,0:0:0:0:
64,192,39319,128,0,39475:0:0:0:0:
448,192,39475,1,0,0:0:0:0:
320,192,39475,128,0,39709:0:0:0:0:
448,192,39709,1,0,0:0:0:0:
64,192,39709,128,0,39944:0:0:0:0:
192,192,39944,1,0,0:0:0:0:
448,192,39944,128,0,40100:0:0:0:0:
64,192,40100,1,0,0:0:0:0:
192,192,40100,128,0,40334:0:0:0:0:
320,192,40334,1,0,0:0:0:0:
320,192,40569,1,0,0:0:0:0:
448,192,40569,1,0,0:0:0:0:
320,192,40725,1,0,0:0:0:0:
448,192,40725,1,0,0:0:0:0:
320,192,40881,1,0,0:0:0:0:
448,192,40881,1,0,0:0:0:0:
192,192,41037,1,0,0:0:0:0:
64,192,41037,1,0,0:0:0:0:
64,192,41506,1,0,0:0:0:0:
192,192,41506,1,0,0:0:0:0:
192,192,41662,1,0,0:0:0:0:
64,192,41662,1,0,0:0:0:0:
192,192,41819,1,0,0:0:0:0:
64,192,41819,1,0,0:0:0:0:
448,192,41975,1,0,0:0:0:0:
320,192,41975,1,0,0:0:0:0:
64,192,43069,1,0,0:0:0:0:
192,192,43069,1,0,0:0:0:0:
320,192,43069,128,0,43381:0:0:0:0:
448,192,43225,1,0,0:0:0:0:
448,192,43381,1,0,0:0:0:0:
64,192,43381,128,0,43694:0:0:0:0:
320,192,43537,1,0,0:0:0:0:
320,192,43694,1,0,0:0:0:0:
192,192,43694,1,0,0:0:0:0:
448,192,43694,128,0,44006:0:0:0:0:
192,192,43850,1,0,0:0:0:0:
64,192,44006,128,0,44631:0:0:0:0:
192,192,44162,1,0,0:0:0:0:
320,192,44319,1,0,0:0:0:0:
320,192,44553,1,0,0:0:0:0:
192,192,44631,1,0,0:0:0:0:
320,192,44787,1,0,0:0:0:0:
448,192,44787,128,0,45256:0:0:0:0:
320,192,45100,1,0,0:0:0:0:
64,192,45256,1,0,0:0:0:0:
192,192,45412,1,0,0:0:0:0:
320,192,45412,1,0,0:0:0:0:
64,192,45881,1,0,0:0:0:0:
192,192,45881,1,0,0:0:0:0:
320,192,45881,1,0,0:0:0:0:
64,192,46037,1,0,0:0:0:0:
192,192,46037,1,0,0:0:0:0:
320,192,46037,1,0,0:0:0:0:
448,192,46037,1,0,0:0:0:0:
192,192,46350,1,0,0:0:0:0:
64,192,46350,1,0,0:0:0:0:
448,192,46350,1,0,0:0:0:0:
192,192,46506,1,0,0:0:0:0:
320,192,46506,1,0,0:0:0:0:
448,192,46506,1,0,0:0:0:0:
64,192,46819,1,0,0:0:0:0:
192,192,46819,1,0,0:0:0:0:
320,192,46819,1,0,0:0:0:0:
320,192,46975,1,0,0:0:0:0:
192,192,46975,1,0,0:0:0:0:
64,192,46975,1,0,0:0:0:0:
448,192,47131,1,0,0:0:0:0:
320,192,47131,1,0,0:0:0:0:
320,192,47287,1,0,0:0:0:0:
192,192,47287,1,0,0:0:0:0:
448,192,47522,1,0,0:0:0:0:
320,192,47522,1,0,0:0:0:0:
192,192,47522,1,0,0:0:0:0:
64,192,47756,1,0,0:0:0:0:
192,192,47756,1,0,0:0:0:0:
448,192,47756,1,0,0:0:0:0:
448,192,48069,1,0,0:0:0:0:
320,192,48069,1,0,0:0:0:0:
192,192,48069,1,0,0:0:0:0:
192,192,48225,1,0,0:0:0:0:
320,192,48225,1,0,0:0:0:0:
64,192,48381,1,0,0:0:0:0:
192,192,48381,1,0,0:0:0:0:
448,192,48381,1,0,0:0:0:0:
448,192,48537,1,0,0:0:0:0:
320,192,48537,1,0,0:0:0:0:
320,192,48850,1,0,0:0:0:0:
192,192,48850,1,0,0:0:0:0:
64,192,48850,1,0,0:0:0:0:
192,192,49006,1,0,0:0:0:0:
320,192,49006,1,0,0:0:0:0:
448,192,49006,1,0,0:0:0:0:
448,192,49319,1,0,0:0:0:0:
320,192,49319,1,0,0:0:0:0:
64,192,49319,1,0,0:0:0:0:
64,192,49475,1,0,0:0:0:0:
192,192,49475,1,0,0:0:0:0:
448,192,49475,1,0,0:0:0:0:
320,192,49631,1,0,0:0:0:0:
192,192,49631,1,0,0:0:0:0:
448,192,49631,1,0,0:0:0:0:
192,192,49787,1,0,0:0:0:0:
64,192,49787,1,0,0:0:0:0:
64,192,50100,1,0,0:0:0:0:
192,192,50100,1,0,0:0:0:0:
320,192,50100,1,0,0:0:0:0:
448,192,50100,1,0,0:0:0:0:
448,192,50256,1,0,0:0:0:0:
320,192,50256,1,0,0:0:0:0:
192,192,50256,1,0,0:0:0:0:
64,192,50256,1,0,0:0:0:0:
64,192,50569,1,0,0:0:0:0:
192,192,50569,1,0,0:0:0:0:
320,192,50569,1,0,0:0:0:0:
320,192,50725,1,0,0:0:0:0:
192,192,50725,1,0,0:0:0:0:
192,192,50881,1,0,0:0:0:0:
320,192,50881,1,0,0:0:0:0:
448,192,50881,1,0,0:0:0:0:
448,192,51194,1,0,0:0:0:0:
320,192,51194,1,0,0:0:0:0:
192,192,51194,1,0,0:0:0:0:
64,192,51506,1,0,0:0:0:0:
192,192,51506,1,0,0:0:0:0:
320,192,51506,1,0,0:0:0:0:
448,192,51819,1,0,0:0:0:0:
320,192,51819,1,0,0:0:0:0:
64,192,51819,1,0,0:0:0:0:
64,192,52131,1,0,0:0:0:0:
192,192,52131,1,0,0:0:0:0:
448,192,52131,1,0,0:0:0:0:
192,192,52444,1,0,0:0:0:0:
320,192,52444,1,0,0:0:0:0:
448,192,52756,1,0,0:0:0:0:
320,192,52756,1,0,0:0:0:0:
192,192,52756,1,0,0:0:0:0:
64,192,52756,1,0,0:0:0:0:
64,192,53069,1,0,0:0:0:0:
448,192,53069,1,0,0:0:0:0:
448,192,53381,1,0,0:0:0:0:
320,192,53381,1,0,0:0:0:0:
192,192,53381,1,0,0:0:0:0:
64,192,53381,1,0,0:0:0:0:
192,192,53694,1,0,0:0:0:0:
320,192,53694,1,0,0:0:0:0:
448,192,53694,1,0,0:0:0:0:
320,192,54006,1,0,0:0:0:0:
192,192,54006,1,0,0:0:0:0:
192,192,54319,1,0,0:0:0:0:
64,192,54319,1,0,0:0:0:0:
448,192,54319,1,0,0:0:0:0:
448,192,54631,1,0,0:0:0:0:
64,192,54631,1,0,0:0:0:0:
320,192,54631,1,0,0:0:0:0:
320,192,54944,1,0,0:0:0:0:
192,192,54944,1,0,0:0:0:0:
64,192,54944,1,0,0:0:0:0:
448,192,55256,1,0,0:0:0:0:
320,192,55256,1,0,0:0:0:0:
64,192,55256,1,0,0:0:0:0:
192,192,55256,1,0,0:0:0:0:
192,192,55569,1,0,0:0:0:0:
64,192,55569,1,0,0:0:0:0:
320,192,55647,1,0,0:0:0:0:
448,192,55647,1,0,0:0:0:0:
192,192,55725,1,0,0:0:0:0:
64,192,55725,1,0,0:0:0:0:
320,192,55803,1,0,0:0:0:0:
448,192,55803,1,0,0:0:0:0:
192,192,55881,1,0,0:0:0:0:
64,192,55881,1,0,0:0:0:0:
320,192,55959,1,0,0:0:0:0:
448,192,55959,1,0,0:0:0:0:
192,192,56037,1,0,0:0:0:0:
64,192,56037,1,0,0:0:0:0:
192,192,56350,1,0,0:0:0:0:
320,192,56350,1,0,0:0:0:0:
320,192,56506,1,0,0:0:0:0:
192,192,56506,1,0,0:0:0:0:
64,192,56506,1,0,0:0:0:0:
192,192,56819,1,0,0:0:0:0:
320,192,56819,1,0,0:0:0:0:
448,192,56819,1,0,0:0:0:0:
192,192,56975,1,0,0:0:0:0:
320,192,56975,1,0,0:0:0:0:
448,192,56975,1,0,0:0:0:0:
320,192,57131,1,0,0:0:0:0:
192,192,57131,1,0,0:0:0:0:
64,192,57131,1,0,0:0:0:0:
320,192,57287,1,0,0:0:0:0:
448,192,57287,1,0,0:0:0:0:
320,192,57600,1,0,0:0:0:0:
192,192,57600,1,0,0:0:0:0:
64,192,57600,1,0,0:0:0:0:
192,192,57756,1,0,0:0:0:0:
320,192,57756,1,0,0:0:0:0:
448,192,58069,1,0,0:0:0:0:
320,192,58069,1,0,0:0:0:0:
192,192,58069,1,0,0:0:0:0:
64,192,58069,1,0,0:0:0:0:
192,192,58225,1,0,0:0:0:0:
448,192,58225,1,0,0:0:0:0:
320,192,58381,1,0,0:0:0:0:
64,192,58381,1,0,0:0:0:0:
192,192,58537,1,0,0:0:0:0:
448,192,58537,1,0,0:0:0:0:
192,192,58850,1,0,0:0:0:0:
64,192,58850,1,0,0:0:0:0:
448,192,58850,1,0,0:0:0:0:
320,192,59006,1,0,0:0:0:0:
192,192,59006,1,0,0:0:0:0:
64,192,59006,1,0,0:0:0:0:
192,192,59319,1,0,0:0:0:0:
320,192,59319,1,0,0:0:0:0:
448,192,59319,1,0,0:0:0:0:
448,192,59475,1,0,0:0:0:0:
320,192,59475,1,0,0:0:0:0:
64,192,59475,1,0,0:0:0:0:
64,192,59631,1,0,0:0:0:0:
192,192,59631,1,0,0:0:0:0:
448,192,59631,1,0,0:0:0:0:
448,192,59787,1,0,0:0:0:0:
320,192,59787,1,0,0:0:0:0:
320,192,60100,1,0,0:0:0:0:
192,192,60100,1,0,0:0:0:0:
64,192,60100,1,0,0:0:0:0:
192,192,60256,1,0,0:0:0:0:
320,192,60256,1,0,0:0:0:0:
448,192,60256,1,0,0:0:0:0:
448,192,60569,1,0,0:0:0:0:
320,192,60569,1,0,0:0:0:0:
320,192,60725,1,0,0:0:0:0:
192,192,60725,1,0,0:0:0:0:
64,192,60725,1,0,0:0:0:0:
192,192,60881,1,0,0:0:0:0:
320,192,60881,1,0,0:0:0:0:
448,192,61194,1,0,0:0:0:0:
320,192,61194,1,0,0:0:0:0:
192,192,61194,1,0,0:0:0:0:
64,192,61194,1,0,0:0:0:0:
64,192,61506,1,0,0:0:0:0:
192,192,61506,1,0,0:0:0:0:
320,192,61506,1,0,0:0:0:0:
448,192,61506,1,0,0:0:0:0:
448,192,61819,1,0,0:0:0:0:
320,192,61819,1,0,0:0:0:0:
192,192,61819,1,0,0:0:0:0:
64,192,61819,1,0,0:0:0:0:
64,192,62131,1,0,0:0:0:0:
192,192,62131,1,0,0:0:0:0:
320,192,62131,1,0,0:0:0:0:
448,192,62444,1,0,0:0:0:0:
320,192,62444,1,0,0:0:0:0:
192,192,62444,1,0,0:0:0:0:
64,192,62756,1,0,0:0:0:0:
192,192,62756,1,0,0:0:0:0:
320,192,62756,1,0,0:0:0:0:
448,192,63069,1,0,0:0:0:0:
320,192,63069,1,0,0:0:0:0:
192,192,63069,1,0,0:0:0:0:
192,192,63381,1,0,0:0:0:0:
64,192,63381,1,0,0:0:0:0:
320,192,63694,1,0,0:0:0:0:
448,192,63694,1,0,0:0:0:0:
192,192,64006,1,0,0:0:0:0:
64,192,64006,1,0,0:0:0:0:
320,192,64319,1,0,0:0:0:0:
448,192,64319,1,0,0:0:0:0:
320,192,64631,1,0,0:0:0:0:
64,192,64631,1,0,0:0:0:0:
192,192,64944,1,0,0:0:0:0:
448,192,64944,1,0,0:0:0:0:
320,192,65256,1,0,0:0:0:0:
64,192,65256,1,0,0:0:0:0:
64,192,65569,1,0,0:0:0:0:
192,192,65569,1,0,0:0:0:0:
320,192,65647,1,0,0:0:0:0:
448,192,65647,1,0,0:0:0:0:
192,192,65725,1,0,0:0:0:0:
64,192,65725,1,0,0:0:0:0:
320,192,65803,1,0,0:0:0:0:
448,192,65803,1,0,0:0:0:0:
192,192,65881,1,0,0:0:0:0:
64,192,65881,1,0,0:0:0:0:
320,192,65959,1,0,0:0:0:0:
448,192,65959,1,0,0:0:0:0:
192,192,66037,1,0,0:0:0:0:
64,192,66037,1,0,0:0:0:0:
320,192,66115,1,0,0:0:0:0:
448,192,66115,1,0,0:0:0:0:
192,192,66194,1,0,0:0:0:0:
320,192,66194,1,0,0:0:0:0:
64,192,66194,128,0,67444:0:0:0:0:
320,192,66506,1,0,0:0:0:0:
448,192,66506,1,0,0:0:0:0:
320,192,66819,1,0,0:0:0:0:
192,192,66819,1,0,0:0:0:0:
320,192,66975,1,0,0:0:0:0:
448,192,66975,1,0,0:0:0:0:
320,192,67131,1,0,0:0:0:0:
192,192,67131,1,0,0:0:0:0:
448,192,67444,128,0,68772:0:0:0:0:
320,192,67444,1,0,0:0:0:0:
192,192,67756,1,0,0:0:0:0:
64,192,67756,1,0,0:0:0:0:
320,192,68069,1,0,0:0:0:0:
192,192,68069,1,0,0:0:0:0:
192,192,68225,1,0,0:0:0:0:
64,192,68225,1,0,0:0:0:0:
192,192,68381,1,0,0:0:0:0:
320,192,68381,1,0,0:0:0:0:
320,192,68772,1,0,0:0:0:0:
192,192,68772,128,0,69944:0:0:0:0:
64,192,69006,1,0,0:0:0:0:
320,192,69006,1,0,0:0:0:0:
448,192,69319,1,0,0:0:0:0:
320,192,69319,1,0,0:0:0:0:
320,192,69475,1,0,0:0:0:0:
64,192,69475,1,0,0:0:0:0:
448,192,69631,1,0,0:0:0:0:
64,192,69631,1,0,0:0:0:0:
320,192,69631,1,0,0:0:0:0:
64,192,69944,128,0,71272:0:0:0:0:
320,192,69944,1,0,0:0:0:0:
448,192,70256,1,0,0:0:0:0:
320,192,70256,1,0,0:0:0:0:
320,192,70569,1,0,0:0:0:0:
192,192,70569,1,0,0:0:0:0:
320,192,70725,1,0,0:0:0:0:
448,192,70725,1,0,0:0:0:0:
448,192,70881,1,0,0:0:0:0:
192,192,70881,1,0,0:0:0:0:
320,192,70881,1,0,0:0:0:0:
192,192,71272,1,0,0:0:0:0:
320,192,71272,1,0,0:0:0:0:
448,192,71272,1,0,0:0:0:0:
320,192,71584,1,0,0:0:0:0:
192,192,71584,1,0,0:0:0:0:
320,192,71819,1,0,0:0:0:0:
192,192,71819,1,0,0:0:0:0:
320,192,71975,1,0,0:0:0:0:
320,192,72131,1,0,0:0:0:0:
192,192,72131,1,0,0:0:0:0:
64,192,72131,1,0,0:0:0:0:
192,192,72287,1,0,0:0:0:0:
192,192,72444,1,0,0:0:0:0:
320,192,72444,1,0,0:0:0:0:
448,192,72444,1,0,0:0:0:0:
320,192,72756,1,0,0:0:0:0:
192,192,72756,1,0,0:0:0:0:
64,192,72756,1,0,0:0:0:0:
192,192,72912,1,0,0:0:0:0:
320,192,73069,1,0,0:0:0:0:
448,192,73069,1,0,0:0:0:0:
192,192,73225,1,0,0:0:0:0:
192,192,73381,1,0,0:0:0:0:
64,192,73381,1,0,0:0:0:0:
320,192,73537,1,0,0:0:0:0:
320,192,73694,1,0,0:0:0:0:
448,192,73694,1,0,0:0:0:0:
192,192,73694,1,0,0:0:0:0:
448,192,74006,1,0,0:0:0:0:
320,192,74006,1,0,0:0:0:0:
192,192,74006,1,0,0:0:0:0:
64,192,74006,1,0,0:0:0:0:
64,192,74319,1,0,0:0:0:0:
192,192,74319,1,0,0:0:0:0:
320,192,74319,1,0,0:0:0:0:
448,192,74319,1,0,0:0:0:0:
320,192,74475,1,0,0:0:0:0:
192,192,74631,1,0,0:0:0:0:
64,192,74631,1,0,0:0:0:0:
320,192,74787,1,0,0:0:0:0:
320,192,74944,1,0,0:0:0:0:
448,192,74944,1,0,0:0:0:0:
192,192,75100,1,0,0:0:0:0:
64,192,75256,1,0,0:0:0:0:
192,192,75256,1,0,0:0:0:0:
448,192,75256,1,0,0:0:0:0:
448,192,75569,1,0,0:0:0:0:
64,192,75569,1,0,0:0:0:0:
192,192,75647,1,0,0:0:0:0:
64,192,75725,1,0,0:0:0:0:
192,192,75803,1,0,0:0:0:0:
320,192,75881,1,0,0:0:0:0:
448,192,75959,1,0,0:0:0:0:
320,192,76037,1,0,0:0:0:0:
192,192,76037,1,0,0:0:0:0:
448,192,76350,128,0,76662:0:0:0:0:
320,192,76506,1,0,0:0:0:0:
192,192,76662,1,0,0:0:0:0:
64,192,76662,128,0,76975:0:0:0:0:
192,192,76975,128,0,77287:0:0:0:0:
320,192,76975,1,0,0:0:0:0:
320,192,77287,1,0,0:0:0:0:
448,192,77287,128,0,77600:0:0:0:0:
192,192,77600,128,0,77912:0:0:0:0:
64,192,77600,1,0,0:0:0:0:
320,192,77912,128,0,78225:0:0:0:0:
448,192,77912,1,0,0:0:0:0:
64,192,77912,1,0,0:0:0:0:
192,192,78225,1,0,0:0:0:0:
64,192,78225,128,0,78537:0:0:0:0:
448,192,78225,128,0,78537:0:0:0:0:
192,192,78537,1,0,0:0:0:0:
320,192,78537,1,0,0:0:0:0:
64,192,78850,128,0,79162:0:0:0:0:
320,192,79006,1,0,0:0:0:0:
448,192,79162,1,0,0:0:0:0:
192,192,79162,128,0,79475:0:0:0:0:
320,192,79475,128,0,79787:0:0:0:0:
64,192,79475,1,0,0:0:0:0:
64,192,79787,1,0,0:0:0:0:
448,192,79787,128,0,80178:0:0:0:0:
192,192,79787,1,0,0:0:0:0:
320,192,80178,1,0,0:0:0:0:
192,192,80256,1,0,0:0:0:0:
64,192,80334,1,0,0:0:0:0:
192,192,80412,1,0,0:0:0:0:
320,192,80490,1,0,0:0:0:0:
448,192,80569,1,0,0:0:0:0:
320,192,80647,1,0,0:0:0:0:
192,192,80725,1,0,0:0:0:0:
64,192,80803,1,0,0:0:0:0:
448,192,80881,128,0,81115:0:0:0:0:
320,192,80881,128,0,81115:0:0:0:0:
192,192,80881,1,0,0:0:0:0:
192,192,81115,1,0,0:0:0:0:
64,192,81115,1,0,0:0:0:0:
64,192,81350,128,0,81662:0:0:0:0:
192,192,81350,128,0,81662:0:0:0:0:
448,192,81506,1,0,0:0:0:0:
320,192,81662,1,0,0:0:0:0:
448,192,81662,128,0,81975:0:0:0:0:
64,192,81975,128,0,82287:0:0:0:0:
192,192,81975,1,0,0:0:0:0:
192,192,82287,1,0,0:0:0:0:
448,192,82287,1,0,0:0:0:0:
320,192,82287,128,0,82600:0:0:0:0:
64,192,82600,1,0,0:0:0:0:
192,192,82600,128,0,82912:0:0:0:0:
448,192,82912,128,0,83225:0:0:0:0:
64,192,82912,1,0,0:0:0:0:
320,192,83225,1,0,0:0:0:0:
192,192,83225,128,0,83537:0:0:0:0:
64,192,83225,128,0,83537:0:0:0:0:
448,192,83537,1,0,0:0:0:0:
320,192,83537,1,0,0:0:0:0:
64,192,83850,128,0,84162:0:0:0:0:
320,192,83850,128,0,84162:0:0:0:0:
448,192,84006,1,0,0:0:0:0:
448,192,84162,128,0,84475:0:0:0:0:
192,192,84162,1,0,0:0:0:0:
192,192,84475,1,0,0:0:0:0:
320,192,84475,128,0,84787:0:0:0:0:
192,192,84787,1,0,0:0:0:0:
448,192,84787,1,0,0:0:0:0:
64,192,84787,128,0,85022:0:0:0:0:
192,192,85022,1,0,0:0:0:0:
320,192,85100,1,0,0:0:0:0:
192,192,85178,1,0,0:0:0:0:
64,192,85256,1,0,0:0:0:0:
192,192,85334,1,0,0:0:0:0:
320,192,85412,1,0,0:0:0:0:
448,192,85490,1,0,0:0:0:0:
320,192,85569,1,0,0:0:0:0:
192,192,85647,1,0,0:0:0:0:
64,192,85725,1,0,0:0:0:0:
192,192,85803,1,0,0:0:0:0:
320,192,85881,1,0,0:0:0:0:
448,192,85959,1,0,0:0:0:0:
64,192,86115,128,0,86819:0:0:0:0:
192,192,86115,128,0,86819:0:0:0:0:
320,192,86115,128,0,86819:0:0:0:0:
448,192,86115,128,0,86819:0:0:0:0:
