osu file format v13

[General]
AudioFilename: Savior Of Song.mp3
AudioLeadIn: 1500
PreviewTime: 111890
Countdown: 0
SampleSet: Normal
StackLeniency: 0.5
Mode: 0
LetterboxInBreaks: 0
WidescreenStoryboard: 1

[Editor]
Bookmarks: 66888,192512,213762,223605
DistanceSpacing: 1.4
BeatDivisor: 4
GridSize: 4
TimelineZoom: 1.3

[Metadata]
Title:SAVIOR OF SONG
TitleUnicode:SAVIOR OF SONG
Artist:nano feat. MY FIRST STORY
ArtistUnicode:nano feat. MY FIRST STORY
Creator:Frostings
Version:Hard
Source:蒼き鋼のアルペジオ
Tags:Aoki Hagane Arpeggio Opening Blue Steel FlawlessTea
BeatmapID:364936
BeatmapSetID:147431

[Difficulty]
HPDrainRate:6
CircleSize:4
OverallDifficulty:6
ApproachRate:8
SliderMultiplier:1.5
SliderTickRate:1

[Events]
//Background and Video events
0,0,"BG.jpg",0,0
//Break Periods
2,76933,86890
2,145215,151733
2,172715,181733
//Storyboard Layer 0 (Background)
//Storyboard Layer 1 (Fail)
//Storyboard Layer 2 (Pass)
//Storyboard Layer 3 (Foreground)
//Storyboard Sound Samples
//Background Colour Transformations
3,100,255,255,255

[TimingPoints]
1265,312.5,4,2,1,15,1,0
1265,-133.333333333333,4,2,1,15,0,0
1577,-133.333333333333,4,2,1,25,0,0
5483,-133.333333333333,4,2,1,20,0,0
6108,-133.333333333333,4,2,1,25,0,0
8608,-166.666666666667,4,2,1,20,0,0
10640,-100,4,1,1,30,0,0
11108,-100,4,1,1,60,0,0
12358,-125,4,2,1,70,0,0
13608,-100,4,1,1,60,0,0
20796,-100,4,1,1,40,0,0
21265,-133.333333333333,4,2,1,30,0,0
23765,-133.333333333333,4,2,1,30,0,0
25171,-133.333333333333,4,2,1,15,0,0
25952,-133.333333333333,4,2,1,30,0,0
28765,-133.333333333333,4,2,1,20,0,0
29077,-133.333333333333,4,2,1,30,0,0
31733,-133.333333333333,4,2,1,35,0,0
33140,-111.111111111111,4,1,1,35,0,0
38765,-100,4,1,1,50,0,0
41265,-100,4,1,1,60,0,0
43140,-100,4,2,1,60,0,0
46265,-133.333333333333,4,2,1,40,0,0
46577,-133.333333333333,4,2,1,5,0,0
46733,-100,4,1,1,60,0,1
46890,312.5,4,1,1,60,1,1
66890,-100,4,1,1,60,0,0
71890,-100,4,1,1,30,0,0
73140,-100,4,1,1,40,0,0
74233,-100,4,1,1,50,0,0
75483,-100,4,1,1,60,0,0
89077,-100,4,1,1,45,0,0
89390,-111.111111111111,4,2,1,45,0,0
99390,-125,4,2,1,35,0,0
106890,-111.111111111111,4,1,1,60,0,0
108765,-111.111111111111,4,2,1,60,0,0
111890,-133.333333333333,4,2,1,20,0,0
112358,-100,4,1,1,60,0,1
112515,312.5,4,1,1,60,1,1
132515,-100,4,1,1,60,0,0
137515,-100,4,1,1,50,0,0
138765,-100,4,1,1,60,0,0
139858,-100,4,1,1,70,0,0
141108,-100,4,1,1,80,0,0
145015,-100,4,1,1,60,0,0
152515,-100,4,1,1,70,0,0
172515,-125,4,2,1,50,0,0
182515,-111.111111111111,4,2,1,50,0,0
189858,-111.111111111111,4,2,1,25,0,0
193140,-100,4,1,1,20,0,0
193608,-100,4,1,1,60,0,1
193765,312.5,4,1,1,60,1,1
213765,-100,4,1,1,60,0,0
218765,-100,4,1,1,50,0,0
220015,-100,4,1,1,60,0,0
221108,-100,4,1,1,70,0,0
222358,-100,4,1,1,80,0,0
223608,-100,4,1,1,60,0,0
243686,-100,4,2,1,30,0,0

[Colours]
Combo1 : 188,254,234
Combo2 : 0,128,255
Combo3 : 100,255,255

[HitObjects]
452,268,1265,6,0,P|405:292|329:303,1,112.500004291535,4|0,0:0|0:0,0:0:0:0:
268,300,1733,1,0,0:0:0:0:
304,228,1890,2,0,P|293:172|268:122,1,112.500004291535
220,60,2358,1,2,0:0:0:0:
148,200,2671,1,2,0:0:0:0:
268,300,2983,1,2,0:0:0:0:
120,356,3296,1,0,0:0:0:0:
220,236,3608,6,0,P|272:192|312:172,1,112.500004291535,2|0,0:0|0:0,0:0:0:0:
383,204,4077,2,0,P|366:226|344:243,1,56.2500021457673
272,100,4390,2,0,P|328:96|379:124,1,112.500004291535,0|0,0:0|0:0,0:0:0:0:
384,204,4858,1,2,0:0:0:0:
228,224,5171,1,2,0:0:0:0:
172,76,5483,1,2,0:0:0:0:
172,76,6108,6,0,P|148:152|172:220,1,112.500004291535
224,220,6577,2,0,P|230:192|228:164,1,56.2500021457673
159,264,6890,2,0,P|227:300|259:292,1,112.500004291535
304,232,7358,2,0,L|352:196,2,56.2500021457673
428,232,7983,2,0,P|432:176|400:128,1,112.500004291535
176,160,8608,5,2,0:0:0:0:
176,160,10640,2,0,L|136:140,4,37.5,0|0|0|0|0,0:0|0:0|0:0|0:0|0:0,0:0:0:0:
224,228,11108,6,0,P|220:304|276:356,1,150,4|0,0:0|0:0,0:0:0:0:
348,324,11577,1,8,0:0:0:0:
208,148,11890,2,0,P|176:128|152:96,1,75
100,44,12202,1,8,0:0:0:0:
80,120,12358,2,0,L|48:236,1,120,2|2,1:0|1:0,0:0:0:0:
144,384,12983,2,0,L|176:268,1,120,2|2,1:0|1:0,0:0:0:0:
200,192,13452,1,8,1:0:0:0:
224,112,13608,1,4,0:0:0:0:
384,100,13921,6,0,P|432:155|433:228,1,150
364,272,14390,2,0,L|340:364,2,75,0|0|8,0:0|0:0|0:0,0:0:0:0:
340,193,14858,2,0,P|268:207|204:172,1,150
176,96,15327,2,0,L|181:58,2,37.5,8|0|0,0:0|2:0|2:0,0:0:0:0:
124,160,15640,2,0,L|89:173,2,37.5,0|0|0,0:0|2:0|2:0,0:0:0:0:
204,172,15952,2,0,L|268:220,1,75,8|4,0:0|0:0,0:0:0:0:
428,192,16421,6,0,B|444:144|456:92|456:92|432:28,2,150
348,336,17358,1,2,0:0:0:0:
328,172,17671,1,2,0:0:0:0:
440,292,17983,1,2,0:0:0:0:
276,260,18296,1,2,0:0:0:0:
428,192,18608,6,0,P|416:112|360:76,1,150,4|0,0:0|0:0,0:0:0:0:
280,76,19077,2,0,B|236:78|236:78|130:183,1,150,8|0,0:0|0:0,0:0:0:0:
79,131,19546,2,0,P|48:112|11:106,1,75,0|8,0:0|0:0,0:0:0:0:
20,188,19858,1,0,0:0:0:0:
100,212,20015,2,0,P|132:232|180:236,2,75,0|0|8,0:0|0:0|0:0,0:0:0:0:
160,152,20483,1,0,0:0:0:0:
244,148,20640,1,0,0:0:0:0:
320,188,20796,6,0,L|372:172,6,37.5,0|0|0|0|0|0|2,0:0|0:0|0:0|0:0|0:0|0:0|0:0,0:0:0:0:
320,188,23452,1,0,0:0:0:0:
188,204,23765,6,0,P|132:264|128:348,1,168.750006437302,4|0,1:0|0:0,0:0:0:0:
236,136,24702,2,0,P|212:57|141:12,1,168.750006437302,2|4,0:0|0:0,0:0:0:0:
92,248,25952,1,0,0:0:0:0:
212,276,26265,6,0,P|292:292|372:264,1,168.750006437302,2|0,0:0|0:0,0:0:0:0:
192,196,27202,2,0,P|128:264|152:336,1,168.750006437302,2|0,0:0|0:0,0:0:0:0:
372,264,28140,2,0,L|436:208,2,56.2500021457673,2|0|2,0:0|0:0|0:0,0:0:0:0:
272,340,28765,5,4,0:0:0:0:
300,220,29077,2,0,P|304:156|300:104,1,112.500004291535,2|0,0:0|0:0,0:0:0:0:
144,148,29702,2,0,P|145:180|150:207,1,56.2500021457673,2|0,0:0|0:0,0:0:0:0:
224,164,30015,2,0,P|220:100|212:52,1,112.500004291535,2|0,0:0|0:0,0:0:0:0:
72,192,30952,1,0,0:0:0:0:
56,316,31265,6,0,P|129:302|243:328,1,168.750006437302,4|0,0:0|0:0,0:0:0:0:
376,216,32202,2,0,P|302:229|188:203,1,168.750006437302,0|0,0:0|0:0,0:0:0:0:
40,140,33140,2,0,P|44:112|40:72,1,67.4999979400635,0|0,0:0|0:0,0:0:0:0:
104,24,33452,2,0,P|126:41|162:58,1,67.4999979400635,0|0,0:0|2:0,0:0:0:0:
240,84,33765,5,4,0:0:0:0:
136,216,34077,1,8,0:0:0:0:
264,316,34390,1,0,0:0:0:0:
364,192,34702,1,8,0:0:0:0:
154,124,35015,5,0,0:0:0:0:
173,285,35327,1,8,0:0:0:0:
332,268,35640,1,0,0:0:0:0:
321,104,35952,1,8,0:0:0:0:
154,124,36265,5,4,0:0:0:0:
321,104,36577,2,0,P|420:116|440:140,2,134.999995880127,8|0|8,0:0|0:0|0:0,0:0:0:0:
252,148,37358,1,0,0:0:0:0:
236,228,37515,2,0,P|176:307|145:313,1,134.999995880127,0|8,0:0|0:0,0:0:0:0:
36,196,38140,2,0,P|95:116|126:110,1,134.999995880127,0|8,0:0|0:0,0:0:0:0:
288,128,38765,5,4,0:0:0:0:
428,216,39077,2,0,B|415:303|414:323|414:323|440:355,2,150,8|0|8,0:0|0:0|0:0,0:0:0:0:
456,140,39858,1,0,0:0:0:0:
396,96,40015,2,0,P|388:60|396:24,2,75,0|0|8,0:0|0:0|0:0,0:0:0:0:
364,164,40483,2,0,P|316:236|256:248,1,150
184,244,40952,1,8,0:0:0:0:
64,188,41265,5,6,0:0:0:0:
82,113,41421,1,0,0:0:0:0:
9,99,41577,1,0,0:0:0:0:
26,25,41733,1,2,0:0:0:0:
280,96,42202,5,2,0:0:0:0:
352,116,42358,1,0,0:0:0:0:
329,188,42514,1,0,0:0:0:0:
402,210,42670,1,2,0:0:0:0:
168,292,43140,6,0,P|136:212|156:152,1,150
196,84,43608,1,0,0:0:0:0:
280,96,43765,2,0,L|300:24,1,75
356,120,44077,2,0,P|380:93|412:69,1,75
420,164,44390,2,0,P|456:156|492:164,1,75
456,240,44702,2,0,P|420:248|384:240,1,75
235,208,45015,6,0,P|271:199|308:209,2,75
234,342,45483,2,0,P|259:315|272:280,1,75
155,209,45796,2,0,P|166:244|192:272,2,75
236,208,46265,5,0,0:0:0:0:
236,208,46421,2,0,B|232:164|232:164|232:152,1,56.2500021457673
220,76,46733,6,0,P|140:36|88:56,1,150,4|0,0:0|0:0,0:0:0:0:
12,100,47202,2,0,P|92:140|144:120,1,150,8|0,0:0|0:0,0:0:0:0:
332,92,47827,1,8,0:0:0:0:
404,132,47983,2,0,P|450:208|435:261,1,150,0|0,0:0|0:0,0:0:0:0:
356,288,48452,2,0,P|352:247|367:216,1,75,8|0,0:0|0:0,0:0:0:0:
435,263,48765,1,0,0:0:0:0:
264,312,48921,2,0,P|232:284|212:244,1,75,0|8,0:0|0:0,0:0:0:0:
164,332,49233,6,0,P|127:250|132:192,1,150,4|0,0:0|0:0,0:0:0:0:
164,116,49702,1,8,0:0:0:0:
84,124,49858,1,0,0:0:0:0:
132,192,50015,2,0,P|206:194|272:160,1,150,0|8,0:0|0:0,0:0:0:0:
332,104,50483,5,0,0:0:0:0:
180,36,50796,1,0,0:0:0:0:
204,200,51108,2,0,B|236:268|288:260|288:260|305:248|332:232,1,150,0|0,0:0|0:0,0:0:0:0:
388,196,51577,1,8,0:0:0:0:
492,68,51890,6,0,P|440:56|416:60,1,75,4|0,0:0|0:0,0:0:0:0:
336,52,52202,2,0,P|351:103|367:121,1,75,8|0,0:0|0:0,0:0:0:0:
388,196,52515,2,0,P|372:276|332:336,1,150,0|8,0:0|0:0,0:0:0:0:
260,296,52983,2,0,P|185:293|115:318,1,150,0|0,0:0|0:0,0:0:0:0:
40,352,53452,1,8,0:0:0:0:
40,352,53765,2,0,P|24:272|32:200,1,150,0|8,0:0|0:0,0:0:0:0:
60,128,54233,1,0,0:0:0:0:
112,192,54390,6,0,P|186:198|259:182,1,150,6|10,0:0|0:0,0:0:0:0:
236,104,54858,2,0,P|273:102|313:117,2,75,0|0|2,0:0|0:0|0:0,0:0:0:0:
84,164,55483,2,0,P|77:238|93:311,1,150,2|0,0:0|0:0,0:0:0:0:
192,341,55952,2,0,P|175:307|164:272,1,75,10|0,0:0|0:0,0:0:0:0:
256,288,56265,2,0,P|272:320|280:332,4,37.5,2|0|0|0|0,0:0|0:0|0:0|0:0|0:0,0:0:0:0:
336,268,56733,5,4,0:0:0:0:
344,104,57046,1,0,0:0:0:0:
344,104,57202,1,8,0:0:0:0:
180,88,57515,2,0,P|94:99|31:91,1,150,0|8,0:0|0:0,0:0:0:0:
4,168,57983,2,0,P|56:236|81:294,1,150
104,376,58452,1,8,0:0:0:0:
180,348,58608,2,0,P|213:331|247:308,1,75
175,268,58921,2,0,P|204:245|232:219,1,75,0|8,0:0|0:0,0:0:0:0:
160,184,59233,6,0,P|208:128|248:64,1,150,4|0,0:0|0:0,0:0:0:0:
84,36,59702,2,0,P|36:92|28:104,1,75,8|0,0:0|0:0,0:0:0:0:
52,188,60015,2,0,P|106:129|150:75,1,150,0|8,0:0|0:0,0:0:0:0:
208,16,60483,1,0,0:0:0:0:
300,152,60796,2,0,P|274:179|246:204,1,75,0|8,0:0|0:0,0:0:0:0:
160,184,61108,2,0,P|244:92|284:64,1,150,0|0,0:0|0:0,0:0:0:0:
336,36,61577,1,8,0:0:0:0:
420,180,61890,5,4,0:0:0:0:
340,324,62202,1,8,0:0:0:0:
188,260,62515,2,0,P|119:228|47:213,1,150,4|8,0:0|0:0,0:0:0:0:
28,132,62983,2,0,P|89:88|138:33,1,150,0|0,0:0|0:0,0:0:0:0:
220,52,63452,2,0,P|227:126|249:197,1,150,8|0,0:0|0:0,0:0:0:0:
272,276,63921,1,0,0:0:0:0:
340,324,64077,2,0,P|384:328|432:316,1,75,8|0,0:0|0:0,0:0:0:0:
468,260,64390,6,0,P|474:185|464:112,1,150,6|8,0:0|0:0,0:0:0:0:
400,56,64858,1,2,0:0:0:0:
400,56,65171,2,0,B|364:72|364:72|328:72,1,75,2|8,0:0|0:0,0:0:0:0:
268,128,65483,2,0,P|261:202|272:276,1,150,2|0,0:0|0:0,0:0:0:0:
344,316,65952,2,0,P|351:266|345:238,1,75,8|0,0:0|0:0,0:0:0:0:
184,272,66265,2,0,L|184:232,3,37.5
176,192,66577,2,0,L|176:152,3,37.5
180,108,66890,6,0,P|189:25|194:7,2,75,4|0|8,0:0|0:0|0:0,0:0:0:0:
256,140,67358,2,0,B|328:156|328:156|336:132|352:112|380:100,1,150
460,116,67827,1,8,0:0:0:0:
404,176,67983,1,0,0:0:0:0:
460,236,68140,2,0,L|504:296,1,75,0|0,0:0|0:0,0:0:0:0:
380,260,68452,2,0,L|391:335,1,75,8|8,0:0|0:0,0:0:0:0:
296,260,68765,2,0,L|284:335,1,75
216,236,69077,2,0,L|172:296,1,75,8|0,0:0|0:0,0:0:0:0:
164,168,69390,6,0,P|132:112|120:72,2,75,0|0|8,0:0|0:0|0:0,0:0:0:0:
244,156,69858,2,0,P|316:112|380:108,1,150,4|0,0:0|0:0,0:0:0:0:
460,136,70327,1,8,0:0:0:0:
444,56,70483,1,0,0:0:0:0:
460,136,70640,2,0,L|512:192,1,75,0|0,0:0|0:0,0:0:0:0:
483,270,70952,2,0,L|432:216,1,75,8|8,0:0|0:0,0:0:0:0:
404,300,71265,1,0,0:0:0:0:
344,356,71421,1,0,0:0:0:0:
288,296,71577,1,8,0:0:0:0:
228,352,71733,1,0,0:0:0:0:
228,240,71890,6,0,P|231:205|228:165,1,75,8|8,0:0|0:0,0:0:0:0:
120,136,72202,2,0,P|116:170|119:210,1,75,8|8,0:0|0:0,0:0:0:0:
116,56,72515,2,0,P|88:36|51:18,1,75,8|8,0:0|0:0,0:0:0:0:
188,92,72827,2,0,P|222:89|261:79,1,75,8|8,0:0|0:0,0:0:0:0:
120,136,73140,2,0,P|116:170|119:210,1,75,8|8,0:0|0:0,0:0:0:0:
196,180,73452,2,0,P|204:224|216:268,1,75,8|8,0:0|0:0,0:0:0:0:
284,212,73765,2,0,P|300:256|316:288,1,75,8|8,0:0|0:0,0:0:0:0:
372,228,74077,1,8,0:0:0:0:
428,168,74233,6,0,P|464:91|472:22,1,150,6|0,0:0|0:0,0:0:0:0:
312,60,74702,2,0,P|286:140|290:182,1,75,10|0,0:0|0:0,0:0:0:0:
284,212,75015,1,2,0:0:0:0:
292,296,75171,1,0,0:0:0:0:
216,328,75327,1,8,1:0:0:0:
152,276,75483,2,0,P|100:209|78:142,1,150,6|0,0:0|0:0,0:0:0:0:
246,148,75952,2,0,P|287:221|292:262,1,75,10|0,0:0|0:0,0:0:0:0:
192,208,76265,2,0,B|144:144|148:72|148:72|108:48|68:60,1,225,4|4,0:0|0:0,0:0:0:0:
40,88,89077,37,0,0:0:0:0:
200,64,89390,6,0,P|236:57|273:55,1,67.4999979400635,4|0,1:1|0:0,0:0:0:0:
248,136,89702,2,0,P|281:132|315:133,1,67.4999979400635,0|0,1:1|0:0,0:0:0:0:
396,140,90015,1,8,1:0:0:0:
360,296,90327,6,0,P|326:296|292:293,1,67.4999979400635,0|0,1:1|0:0,0:0:0:0:
256,220,90640,2,0,P|289:219|323:222,1,67.4999979400635,0|0,1:1|0:0,0:0:0:0:
404,228,90952,1,8,1:0:0:0:
268,140,91265,5,0,1:2:0:0:
268,140,91421,1,0,1:2:0:0:
268,140,91577,2,0,P|272:96|280:68,1,67.4999979400635,8|0,1:0|0:0,0:0:0:0:
348,116,91890,2,0,P|359:73|372:47,1,67.4999979400635,4|0,1:1|0:0,0:0:0:0:
448,40,92202,2,0,P|437:83|424:109,1,67.4999979400635,0|0,1:1|0:0,0:0:0:0:
400,180,92515,1,8,1:0:0:0:
300,308,92827,6,0,P|288:350|275:376,1,67.4999979400635,0|0,1:0|0:0,0:0:0:0:
220,312,93140,2,0,P|232:270|245:244,1,67.4999979400635,0|0,1:0|0:0,0:0:0:0:
276,176,93452,1,8,1:0:0:0:
408,80,93765,6,0,P|450:68|479:66,1,67.4999979400635,0|0,1:0|0:1,0:0:0:0:
328,68,94077,2,0,P|296:36|280:12,1,67.4999979400635,0|0,1:0|0:0,0:0:0:0:
360,144,94390,1,4,1:0:0:0:
360,144,94546,1,0,1:2:0:0:
360,144,94702,2,0,P|349:186|336:212,1,67.4999979400635,0|0,1:0|0:1,0:0:0:0:
312,284,95015,1,8,1:0:0:0:
156,320,95327,6,0,P|116:308|75:280,1,67.4999979400635,0|0,1:0|0:0,0:0:0:0:
152,240,95640,2,0,P|121:225|95:202,2,67.4999979400635,0|0|8,1:2|1:2|1:0,0:0:0:0:
360,356,96265,5,0,1:0:0:0:
360,356,96421,1,0,1:0:0:0:
360,356,96577,2,0,P|405:358|440:353,1,67.4999979400635,8|0,1:0|0:0,0:0:0:0:
392,280,96890,6,0,P|316:276|256:284,1,134.999995880127,8|0,1:0|0:0,0:0:0:0:
224,212,97358,2,0,P|265:148|288:92,1,134.999995880127,8|0,1:0|0:0,0:0:0:0:
368,92,97827,2,0,P|402:159|439:207,1,134.999995880127,8|0,1:0|0:0,0:0:0:0:
472,280,98296,1,0,0:0:0:0:
392,280,98452,2,0,P|368:256|348:228,1,67.4999979400635,0|0,1:0|1:0,0:0:0:0:
224,283,98765,2,0,P|248:259|268:232,1,67.4999979400635,0|0,1:0|1:0,0:0:0:0:
308,160,99077,1,0,1:0:0:0:
308,160,99390,5,4,0:0:0:0:
308,160,99702,2,0,B|304:112|304:112|264:60|188:60,1,180
164,136,100327,2,0,P|152:163|138:189,1,60,2|0,0:0|0:0,0:0:0:0:
83,132,100640,2,0,P|49:180|7:223,1,120,2|0,0:0|0:0,0:0:0:0:
28,300,101108,2,0,P|103:307|154:322,1,120,2|0,0:0|0:0,0:0:0:0:
220,340,101577,1,2,0:0:0:0:
164,136,101890,5,4,0:0:0:0:
408,68,102202,2,0,P|440:136|436:200,1,120,2|0,0:0|0:0,0:0:0:0:
424,256,102671,1,0,0:0:0:0:
368,204,102827,2,0,P|336:196|308:196,1,60,2|0,0:0|0:0,0:0:0:0:
252,252,103140,2,0,P|200:192|184:152,1,120,2|2,0:0|0:0,0:0:0:0:
108,336,103765,2,0,P|185:320|228:327,1,120,2|0,0:0|0:0,0:0:0:0:
108,160,104390,5,4,0:0:0:0:
248,92,104702,2,0,P|308:68|376:60,2,120,2|0|2,0:0|0:0|0:0,0:0:0:0:
184,140,105483,1,0,0:0:0:0:
164,216,105640,2,0,L|148:292,2,60,2|0|2,0:0|0:0|0:0,0:0:0:0:
240,196,106108,2,0,P|292:224|348:208,1,120,4|0,0:0|0:0,0:0:0:0:
428,212,106577,2,0,L|415:153,1,60,0|0,0:0|0:0,0:0:0:0:
344,132,106890,5,2,0:0:0:0:
328,60,107046,1,0,0:0:0:0:
256,88,107202,1,0,0:0:0:0:
240,16,107358,1,2,0:0:0:0:
84,120,107827,5,2,0:0:0:0:
139,169,107983,1,0,0:0:0:0:
79,218,108139,1,0,0:0:0:0:
133,268,108295,1,2,0:0:0:0:
280,280,108765,6,0,P|344:256|412:272,1,134.999995880127
388,340,109233,1,0,0:0:0:0:
460,324,109390,2,0,P|480:288|480:260,1,67.4999979400635
436,200,109703,2,0,L|420:132,1,67.4999979400635
360,184,110015,2,0,L|324:128,1,67.4999979400635
288,204,110327,2,0,L|236:160,1,67.4999979400635
164,148,110640,6,0,P|136:160|100:164,2,67.4999979400635
212,92,111108,2,0,P|215:61|230:28,1,67.4999979400635
288,84,111421,2,0,P|306:59|335:38,2,67.4999979400635
260,152,111890,5,0,0:0:0:0:
260,152,112046,2,0,L|248:220,1,56.2500021457673
208,276,112358,6,0,P|150:244|144:164,1,150,4|0,0:0|0:0,0:0:0:0:
120,92,112827,2,0,B|160:84|192:108|192:108|232:56|248:44,1,150
320,40,113296,1,0,0:0:0:0:
396,64,113452,1,8,0:0:0:0:
416,144,113608,2,0,P|432:232|428:308,1,150
404,372,114077,1,8,0:0:0:0:
352,308,114233,2,0,P|331:276|302:246,1,75
210,281,114546,2,0,P|243:299|272:324,1,75,0|8,0:0|0:0,0:0:0:0:
200,364,114858,6,0,P|123:327|60:308,1,150,4|0,0:0|0:0,0:0:0:0:
56,224,115327,1,8,0:0:0:0:
56,224,115483,1,0,0:0:0:0:
56,224,115640,2,0,P|125:176|174:130,1,150,0|8,0:0|0:0,0:0:0:0:
236,80,116108,1,0,0:0:0:0:
72,60,116421,1,0,0:0:0:0:
56,224,116733,2,0,P|116:300|160:332,1,150
232,372,117202,1,8,0:0:0:0:
312,224,117515,5,4,0:0:0:0:
152,220,117827,1,8,0:0:0:0:
312,224,118140,2,0,P|376:192|440:144,1,150,0|8,0:0|0:0,0:0:0:0:
508,188,118608,2,0,P|503:259|513:338,1,150
440,384,119077,2,0,P|380:344|306:313,1,150,8|0,0:0|0:0,0:0:0:0:
236,272,119546,1,0,0:0:0:0:
156,296,119702,2,0,P|134:322|110:368,1,75,8|0,0:0|0:0,0:0:0:0:
60,296,120015,6,0,P|119:219|160:180,1,150,6|8,0:0|0:0,0:0:0:0:
184,104,120483,2,0,L|153:35,1,75,2|0,0:0|0:0,0:0:0:0:
240,164,120796,1,2,0:0:0:0:
240,164,120952,1,8,0:0:0:0:
240,164,121108,2,0,P|328:192|384:200,1,150,2|0,0:0|0:0,0:0:0:0:
487,92,121577,2,0,P|468:124|456:160,1,75,10|0,0:0|0:0,0:0:0:0:
456,244,121890,2,0,L|484:280,4,37.5,2|0|0|0|0,0:0|0:0|0:0|0:0|0:0,0:0:0:0:
384,200,122358,5,4,0:0:0:0:
244,112,122671,1,0,0:0:0:0:
244,112,122827,1,8,0:0:0:0:
84,164,123140,2,0,P|137:227|179:317,1,150,0|8,0:0|0:0,0:0:0:0:
252,288,123608,2,0,P|280:209|337:128,1,150
400,144,124077,1,8,0:0:0:0:
351,76,124233,2,0,P|336:42|318:9,1,75
232,12,124546,2,0,P|253:43|272:76,1,75,0|8,0:0|0:0,0:0:0:0:
188,80,124858,6,0,P|112:120|72:168,1,150,4|0,0:0|0:0,0:0:0:0:
216,236,125327,2,0,P|253:212|276:192,1,75,8|0,0:0|0:0,0:0:0:0:
180,164,125640,2,0,P|122:227|101:286,1,150,0|8,0:0|0:0,0:0:0:0:
96,368,126108,1,0,0:0:0:0:
216,236,126421,1,0,0:0:0:0:
336,104,126733,2,0,P|393:167|414:226,1,150,0|0,0:0|0:0,0:0:0:0:
420,308,127202,1,8,0:0:0:0:
256,340,127515,5,4,0:0:0:0:
92,308,127827,1,8,0:0:0:0:
256,340,128140,2,0,P|300:268|328:208,1,150,0|8,0:0|0:0,0:0:0:0:
284,140,128608,2,0,P|199:137|133:143,1,150,0|0,0:0|0:0,0:0:0:0:
96,216,129077,2,0,P|136:290|174:344,1,150,8|0,0:0|0:0,0:0:0:0:
256,340,129546,1,0,0:0:0:0:
320,288,129702,2,0,P|360:256|384:232,1,75,8|0,0:0|0:0,0:0:0:0:
300,204,130015,6,0,P|348:116|340:68,1,150,6|8,0:0|0:0,0:0:0:0:
272,28,130483,1,2,0:0:0:0:
148,136,130796,1,2,0:0:0:0:
216,188,130952,1,8,0:0:0:0:
300,204,131108,2,0,P|398:184|426:149,1,150,2|0,0:0|0:0,0:0:0:0:
432,68,131577,1,10,0:0:0:0:
272,28,131890,2,0,L|260:64,3,37.5
288,76,132202,2,0,L|276:112,3,37.5
308,116,132515,6,0,P|278:186|256:214,2,75,0|0|8,0:0|0:0|0:0,0:0:0:0:
272,28,132983,2,0,P|168:8|112:32,1,150
56,68,133452,1,8,0:0:0:0:
56,68,133608,1,0,0:0:0:0:
16,144,133765,2,0,L|1:217,1,75,0|0,0:0|0:0,0:0:0:0:
92,148,134077,2,0,L|103:222,1,75,8|8,0:0|0:0,0:0:0:0:
164,120,134390,2,0,L|202:184,1,75,0|0,0:0|0:0,0:0:0:0:
220,68,134702,2,0,L|284:108,1,75,8|0,0:0|0:0,0:0:0:0:
352,63,135015,6,0,P|372:32|389:0,2,75,0|0|8,0:0|0:0|0:0,0:0:0:0:
360,144,135483,2,0,B|403:182|403:182|361:226|364:282,1,150,4|0,0:0|0:0,0:0:0:0:
360,348,135952,1,8,0:0:0:0:
360,348,136108,1,0,0:0:0:0:
276,336,136265,2,0,L|188:332,1,75,0|0,0:0|0:0,0:0:0:0:
141,244,136577,2,0,L|216:252,1,75,8|8,0:0|0:0,0:0:0:0:
180,172,136890,1,0,0:0:0:0:
152,92,137046,1,0,0:0:0:0:
220,44,137202,1,8,0:0:0:0:
292,84,137358,1,0,0:0:0:0:
268,168,137515,6,0,P|260:208|268:240,1,75,8|8,0:0|0:0,0:0:0:0:
340,276,137827,2,0,P|348:236|340:204,1,75,8|8,0:0|0:0,0:0:0:0:
404,152,138140,2,0,P|434:178|466:188,1,75,8|8,0:0|0:0,0:0:0:0:
476,272,138452,2,0,P|437:285|413:308,1,75,8|8,0:0|0:0,0:0:0:0:
340,276,138765,2,0,P|348:236|340:204,1,75,0|8,0:0|0:0,0:0:0:0:
268,240,139077,2,0,P|260:280|268:312,1,75
200,356,139390,2,0,P|169:329|137:320,1,75,8|8,0:0|0:0,0:0:0:0:
56,320,139702,5,8,0:0:0:0:
96,248,139858,2,0,P|103:159|86:98,1,150,6|0,0:0|0:0,0:0:0:0:
172,104,140327,2,0,P|226:137|272:155,1,75,8|0,0:0|0:0,0:0:0:0:
240,224,140640,2,0,P|185:257|139:275,1,75,0|0,0:0|0:0,0:0:0:0:
124,324,140952,1,8,0:0:0:0:
204,344,141108,2,0,P|280:304|332:256,1,150,2|0,0:0|0:0,0:0:0:0:
392,312,141577,2,0,P|408:260|408:240,1,75,8|0,0:0|0:0,0:0:0:0:
348,180,141890,2,0,L|320:136,3,37.5,0|0|0|0,0:0|0:0|0:0|0:0,0:0:0:0:
288,164,142202,2,0,L|244:135,3,37.5,0|0|0|0,0:0|0:0|0:0|0:0,0:0:0:0:
216,148,142515,1,0,0:0:0:0:
256,192,142671,12,4,145015,0:0:0:0:
372,196,152515,38,0,P|384:236|384:268,1,75,2|0,0:0|0:0,0:0:0:0:
392,112,152827,2,0,P|420:81|448:65,1,75,8|0,0:0|0:0,0:0:0:0:
312,136,153140,2,0,P|271:126|188:56,1,150,0|8,0:0|0:0,0:0:0:0:
116,96,153608,2,0,P|128:136|108:243,1,150,0|0,0:0|0:0,0:0:0:0:
73,320,154077,1,8,0:0:0:0:
32,244,154233,2,0,P|120:248|156:300,1,150
204,364,154702,1,12,0:0:0:0:
204,364,155015,6,0,P|244:328|256:304,1,75,2|0,0:0|0:0,0:0:0:0:
316,364,155327,2,0,P|330:329|331:292,1,75,8|0,0:0|0:0,0:0:0:0:
412,320,155640,2,0,P|392:229|356:188,1,150,0|8,0:0|0:0,0:0:0:0:
284,228,156108,2,0,P|210:237|141:210,1,150
80,156,156577,1,8,0:0:0:0:
124,84,156733,1,0,0:0:0:0:
200,120,156890,1,0,0:0:0:0:
244,48,157046,1,8,0:0:0:0:
320,84,157202,2,0,B|400:114|400:114|384:140|384:176,1,150,4|2,0:0|0:0,0:0:0:0:
468,168,157671,5,0,0:0:0:0:
472,80,157827,1,8,0:0:0:0:
396,32,157983,1,0,0:0:0:0:
320,84,158140,2,0,P|280:120|272:140,1,75
248,216,158452,1,8,0:0:0:0:
208,288,158608,2,0,P|128:332|68:332,1,150
248,216,159233,1,0,0:0:0:0:
332,208,159390,2,0,P|410:255|432:288,1,75
460,296,159702,2,0,P|482:221|481:141,1,150,12|2,0:0|0:0,0:0:0:0:
452,72,160171,5,0,0:0:0:0:
372,48,160327,2,0,P|322:32|289:27,1,75,8|0,0:0|0:0,0:0:0:0:
216,40,160640,1,0,0:0:0:0:
140,184,160952,1,8,0:0:0:0:
140,184,161108,2,0,P|224:132|280:120,1,150,0|0,0:0|0:0,0:0:0:0:
396,228,161733,1,0,0:0:0:0:
396,228,161890,2,0,P|301:199|257:203,1,75,0|8,0:0|0:0,0:0:0:0:
452,292,162202,2,0,P|480:197|476:153,1,75,4|0,0:0|0:0,0:0:0:0:
476,140,162515,5,2,0:0:0:0:
436,68,162671,2,0,P|417:35|392:7,2,75
388,136,163140,2,0,P|347:73|294:20,1,150
212,32,163608,2,0,P|182:85|154:214,1,150
196,244,164077,2,0,P|236:264|268:276,1,75
288,196,164390,2,0,P|332:210|364:214,1,75,0|8,0:0|0:0,0:0:0:0:
388,136,164702,1,12,0:0:0:0:
388,136,165015,5,2,0:0:0:0:
328,80,165171,1,0,0:0:0:0:
252,44,165327,2,0,P|164:24|144:24,1,75
120,84,165640,2,0,B|94:131|94:131|1:158,1,150
52,224,166108,2,0,L|112:288,1,75
184,300,166421,2,0,B|187:245|187:245|259:182,1,150
324,132,166890,1,0,0:0:0:0:
324,132,167046,1,8,0:0:0:0:
324,132,167202,1,12,0:0:0:0:
236,336,167515,5,2,0:0:0:0:
236,336,167671,1,0,0:0:0:0:
236,336,167827,2,0,P|192:312|172:296,1,75
152,216,168140,2,0,P|192:136|192:72,1,150
272,56,168608,2,0,P|321:130|376:162,1,150
364,244,169077,2,0,P|324:260|288:292,1,75
236,336,169390,1,0,0:0:0:0:
236,336,169546,1,8,0:0:0:0:
236,336,169702,1,12,0:0:0:0:
216,172,170015,5,2,0:0:0:0:
288,132,170171,2,0,P|328:112|344:88,1,75
340,4,170483,1,0,0:0:0:0:
272,56,170640,2,0,P|312:120|368:172,1,150
356,252,171108,2,0,P|280:254|207:277,1,150
280,206,171577,2,0,P|287:169|288:132,1,75
212,160,171890,2,0,P|209:122|200:86,1,75,0|8,0:0|0:0,0:0:0:0:
132,136,172202,1,12,0:0:0:0:
132,136,172515,5,4,0:0:0:0:
184,200,182515,6,0,P|164:236|152:296,1,67.4999979400635,2|0,1:1|0:0,0:0:0:0:
200,120,182827,2,0,P|178:84|132:44,1,67.4999979400635,0|0,1:1|0:0,0:0:0:0:
264,176,183140,2,0,P|348:168|420:136,1,134.999995880127,0|0,1:0|1:0,0:0:0:0:
456,200,183608,2,0,P|420:276|412:355,1,134.999995880127,0|0,0:0|0:0,0:0:0:0:
480,372,184077,1,0,1:0:0:0:
492,292,184233,2,0,P|415:256|336:248,1,134.999995880127
292,284,184702,1,0,1:0:0:0:
364,320,184858,6,0,P|362:237|325:144,1,134.999995880127,2|0,0:0|0:0,0:0:0:0:
212,268,185327,2,0,P|216:315|228:336,1,67.4999979400635,0|0,1:0|0:0,0:0:0:0:
292,284,185640,2,0,P|273:203|217:119,1,134.999995880127,0|0,1:0|0:0,0:0:0:0:
200,92,186108,1,0,0:0:0:0:
280,80,186265,2,0,P|316:56|360:40,1,67.4999979400635,0|0,1:0|0:0,0:0:0:0:
420,44,186577,1,0,0:0:0:0:
384,116,186733,2,0,P|384:156|400:196,1,67.4999979400635,0|0,0:0|1:0,0:0:0:0:
428,256,187046,1,0,0:0:0:0:
368,312,187202,1,0,1:0:0:0:
292,284,187358,6,0,P|204:268|128:280,1,134.999995880127,2|0,0:0|0:0,0:0:0:0:
88,312,187827,1,0,1:0:0:0:
160,352,187983,1,0,0:0:0:0:
160,272,188140,2,0,P|174:199|222:139,1,134.999995880127,0|0,1:0|1:0,0:0:0:0:
280,112,188608,1,0,0:0:0:0:
212,68,188765,2,0,P|156:29|90:18,1,134.999995880127,0|0,1:0|1:0,0:0:0:0:
12,36,189233,1,0,0:0:0:0:
28,116,189390,2,0,P|45:180|87:232,1,134.999995880127,0|0,1:0|1:0,0:0:0:0:
160,272,189858,5,4,0:0:0:0:
256,192,190015,12,0,192046,0:0:0:0:
256,288,193140,22,0,B|256:256|256:256|272:232|272:232|240:200|255:149,1,150,0|8,0:0|0:0,0:0:0:0:
324,116,193608,6,0,B|356:104|356:104|416:132|472:116,1,150,4|0,0:0|0:0,0:0:0:0:
380,214,194077,2,0,B|352:244|352:244|308:240|256:288,1,150,8|0,0:0|0:0,0:0:0:0:
192,344,194546,1,0,0:0:0:0:
116,320,194702,1,8,0:0:0:0:
96,240,194858,2,0,B|84:208|84:208|96:172|96:172|76:128|84:88,1,150
108,16,195327,1,8,0:0:0:0:
164,76,195483,2,0,B|185:108|185:108|220:132,1,75
314,91,195796,2,0,B|281:83|281:83|248:60,1,75,0|8,0:0|0:0,0:0:0:0:
316,16,196108,6,0,B|352:20|376:48|376:48|420:40|448:72,1,150,4|0,0:0|0:0,0:0:0:0:
456,156,196577,1,8,0:0:0:0:
456,156,196733,1,0,0:0:0:0:
456,156,196890,2,0,B|416:180|416:180|392:224|392:224|338:250,1,150,0|8,0:0|0:0,0:0:0:0:
276,304,197358,1,0,0:0:0:0:
344,156,197671,1,0,0:0:0:0:
376,308,197983,2,0,B|368:264|368:264|324:228|272:200,1,150
200,160,198452,1,8,0:0:0:0:
276,304,198765,5,4,0:0:0:0:
368,168,199077,1,8,0:0:0:0:
200,160,199390,2,0,P|136:192|72:240,1,150,0|8,0:0|0:0,0:0:0:0:
4,196,199858,2,0,P|9:125|-1:46,1,150
72,0,200327,2,0,P|132:40|206:71,1,150,8|0,0:0|0:0,0:0:0:0:
276,112,200796,1,0,0:0:0:0:
356,88,200952,2,0,P|378:62|402:16,1,75,8|0,0:0|0:0,0:0:0:0:
452,88,201265,6,0,P|393:165|352:204,1,150,6|8,0:0|0:0,0:0:0:0:
359,349,201733,2,0,L|328:280,1,75,2|0,0:0|0:0,0:0:0:0:
272,220,202046,1,2,0:0:0:0:
272,220,202202,1,8,0:0:0:0:
272,220,202358,2,0,P|184:192|128:184,1,150,2|0,0:0|0:0,0:0:0:0:
25,292,202827,2,0,P|44:260|56:224,1,75,10|0,0:0|0:0,0:0:0:0:
56,140,203140,2,0,L|28:104,4,37.5,2|0|0|0|0,0:0|0:0|0:0|0:0|0:0,0:0:0:0:
128,184,203608,1,4,0:0:0:0:
272,268,203921,5,0,0:0:0:0:
272,268,204077,1,8,0:0:0:0:
428,228,204390,2,0,B|386:205|386:133|386:133|350:113,1,150,0|8,0:0|0:0,0:0:0:0:
268,112,204858,2,0,B|232:132|232:132|232:204|188:228,1,150
112,240,205327,1,8,0:0:0:0:
160,308,205483,2,0,P|175:341|193:374,1,75
279,371,205796,2,0,P|258:340|240:307,1,75,0|8,0:0|0:0,0:0:0:0:
324,304,206108,6,0,B|352:280|352:280|392:276|392:276|396:240|440:216,1,150,4|0,0:0|0:0,0:0:0:0:
288,140,206577,2,0,P|251:164|228:184,1,75,8|0,0:0|0:0,0:0:0:0:
304,224,206890,2,0,B|360:188|360:188|362:161|383:102,1,150,0|8,0:0|0:0,0:0:0:0:
412,32,207358,1,0,0:0:0:0:
288,140,207671,1,0,0:0:0:0:
164,248,207983,2,0,B|152:208|152:208|112:192|112:192|92:176|86:126,1,150
88,52,208452,1,8,0:0:0:0:
256,44,208765,5,4,0:0:0:0:
420,76,209077,1,8,0:0:0:0:
256,44,209390,2,0,P|212:116|184:176,1,150,0|8,0:0|0:0,0:0:0:0:
228,244,209858,2,0,P|313:247|379:241,1,150
416,168,210327,2,0,P|376:94|338:40,1,150,8|0,0:0|0:0,0:0:0:0:
256,44,210796,1,0,0:0:0:0:
192,96,210952,2,0,P|152:128|128:152,1,75,8|0,0:0|0:0,0:0:0:0:
212,180,211265,6,0,B|168:228|168:228|164:268|172:316,1,150,2|8,0:0|0:0,0:0:0:0:
240,356,211733,1,2,0:0:0:0:
364,248,212046,1,2,0:0:0:0:
288,212,212202,1,8,0:0:0:0:
212,180,212358,2,0,B|160:172|160:172|114:200|86:235,1,150,2|0,0:0|0:0,0:0:0:0:
80,316,212827,1,10,0:0:0:0:
240,356,213140,2,0,L|252:320,3,37.5
228,308,213452,2,0,L|240:272,3,37.5
208,272,213765,6,0,P|238:202|260:174,2,75,4|0|8,0:0|0:0|0:0,0:0:0:0:
240,356,214233,2,0,B|276:360|300:348|300:348|316:324|316:324|348:316|388:324,1,150
444,368,214702,1,8,0:0:0:0:
512,320,214858,1,0,0:0:0:0:
496,240,215015,2,0,L|511:167,1,75,0|0,0:0|0:0,0:0:0:0:
420,236,215327,2,0,L|409:162,1,75,8|8,0:0|0:0,0:0:0:0:
348,264,215640,2,0,L|310:200,1,75,0|0,0:0|0:0,0:0:0:0:
292,316,215952,2,0,L|228:276,1,75,8|0,0:0|0:0,0:0:0:0:
159,320,216265,6,0,P|139:351|122:384,2,75,0|0|8,0:0|0:0|0:0,0:0:0:0:
156,236,216733,2,0,B|113:198|113:198|132:148|108:108,1,150,0|0,0:0|0:0,0:0:0:0:
72,32,217202,1,8,0:0:0:0:
152,40,217358,1,0,0:0:0:0:
236,48,217515,2,0,L|324:52,1,75,0|0,0:0|0:0,0:0:0:0:
370,139,217827,2,0,L|296:132,1,75,8|8,0:0|0:0,0:0:0:0:
332,212,218140,1,0,0:0:0:0:
360,292,218296,1,0,0:0:0:0:
292,340,218452,1,8,0:0:0:0:
220,300,218608,1,0,0:0:0:0:
244,216,218765,6,0,P|252:176|244:144,1,75,0|8,0:0|0:0,0:0:0:0:
172,108,219077,2,0,P|164:148|172:180,1,75,8|8,0:0|0:0,0:0:0:0:
108,232,219390,2,0,P|77:205|45:196,1,75,8|8,0:0|0:0,0:0:0:0:
36,112,219702,2,0,P|74:98|98:76,1,75,8|8,0:0|0:0,0:0:0:0:
172,108,220015,2,0,P|164:148|172:180,1,75,8|8,0:0|0:0,0:0:0:0:
244,144,220327,2,0,P|252:104|244:72,1,75,8|8,0:0|0:0,0:0:0:0:
312,28,220640,2,0,P|342:54|374:64,1,75,8|8,0:0|0:0,0:0:0:0:
456,64,220952,1,8,0:0:0:0:
416,136,221108,6,0,P|408:224|425:285,1,150,6|0,0:0|0:0,0:0:0:0:
340,280,221577,2,0,P|285:246|239:228,1,75,8|0,0:0|0:0,0:0:0:0:
272,160,221890,2,0,P|326:126|372:108,1,75,0|0,0:0|0:0,0:0:0:0:
388,60,222202,1,0,0:0:0:0:
308,40,222358,2,0,P|232:80|180:128,1,150,6|0,0:0|0:0,0:0:0:0:
120,72,222827,2,0,P|104:124|104:144,1,75,8|0,0:0|0:0,0:0:0:0:
108,228,223140,1,8,0:0:0:0:
160,292,223296,1,8,0:0:0:0:
236,320,223452,1,8,0:0:0:0:
316,308,223608,6,0,B|345:273|345:273|336:240|336:240|376:228|392:192,1,150,4|0,0:0|0:0,0:0:0:0:
271,107,224077,2,0,P|290:138|318:163,1,75,8|0,0:0|0:0,0:0:0:0:
248,32,224390,2,0,P|216:51|196:84,1,75
172,160,224702,1,8,0:0:0:0:
128,228,224858,2,0,L|85:289,1,75,2|0,0:0|0:0,0:0:0:0:
208,315,225171,2,0,L|208:240,1,75,2|8,0:0|0:0,0:0:0:0:
288,228,225483,2,0,L|315:297,1,75,2|0,0:0|0:0,0:0:0:0:
408,236,225796,2,0,L|356:180,1,75,2|8,0:0|0:0,0:0:0:0:
408,116,226108,6,0,B|460:136|460:136|496:88|496:48,1,150,4|0,0:0|0:0,0:0:0:0:
424,8,226577,2,0,P|328:0|276:16,1,150,8|0,0:0|0:0,0:0:0:0:
208,60,227046,1,0,0:0:0:0:
168,132,227202,2,0,P|152:172|152:204,1,75,8|0,0:0|0:0,0:0:0:0:
216,256,227515,1,0,0:0:0:0:
256,184,227671,1,0,0:0:0:0:
296,256,227827,2,8,L|330:283,2,37.5,0|0|0,0:0|0:0|0:0,0:0:0:0:
216,256,228140,2,0,L|182:283,2,37.5,0|0|0,0:0|0:0|0:0,0:0:0:0:
256,184,228452,2,0,L|256:108,1,75,8|4,0:0|0:0,0:0:0:0:
124,344,228921,6,0,P|100:264|100:196,1,150
92,116,229390,2,0,P|61:89|-6:54,2,75,0|0|8,0:0|0:0|0:0,0:0:0:0:
172,96,229858,2,0,P|200:65|225:45,1,75,0|0,0:0|0:0,0:0:0:0:
260,120,230171,2,0,P|295:98|325:85,1,75,2|8,0:0|0:0,0:0:0:0:
328,168,230483,2,0,P|368:156|400:152,1,75,2|0,0:0|0:0,0:0:0:0:
380,232,230796,2,0,P|422:230|454:235,1,75,2|8,0:0|0:0,0:0:0:0:
416,308,231108,1,4,0:0:0:0:
260,252,231421,6,0,P|220:248|168:268,1,75,0|8,0:0|0:0,0:0:0:0:
132,196,231733,2,0,L|84:120,2,75
208,164,232202,1,8,0:0:0:0:
244,88,232358,1,0,0:0:0:0:
292,156,232515,2,0,P|364:181|388:188,1,75,0|0,0:0|0:0,0:0:0:0:
424,124,232827,2,0,P|352:99|328:92,1,75,8|0,0:0|0:0,0:0:0:0:
484,184,233140,2,0,L|512:144,2,37.5,0|0|0,0:0|0:0|0:0,0:0:0:0:
460,256,233452,1,8,0:0:0:0:
460,256,233608,1,4,0:0:0:0:
312,272,233921,5,0,0:0:0:0:
232,256,234077,2,0,P|140:196|116:160,1,150,8|0,0:0|0:0,0:0:0:0:
80,88,234546,1,0,0:0:0:0:
164,88,234702,2,0,P|216:56|240:28,1,75,8|2,0:0|0:0,0:0:0:0:
252,124,235015,1,0,0:0:0:0:
336,120,235171,2,0,P|394:102|424:81,1,75,2|8,0:0|0:0,0:0:0:0:
504,200,235483,2,0,P|467:192|433:175,1,75,2|0,0:0|0:0,0:0:0:0:
336,280,235796,2,0,P|372:272|406:256,1,75,2|8,0:0|0:0,0:0:0:0:
480,296,236108,1,4,0:0:0:0:
352,192,236421,6,0,P|316:176|280:176,2,75,0|8|0,0:0|0:0|0:0,0:0:0:0:
408,256,236890,1,0,0:0:0:0:
408,256,237046,2,0,L|456:196,1,75,0|8,0:0|0:0,0:0:0:0:
408,132,237358,2,0,P|356:96|272:96,1,150
196,132,237827,2,0,L|161:160,2,37.5,8|0|0,0:0|0:0|0:0,0:0:0:0:
204,48,238139,2,0,L|196:10,2,37.5
272,96,238452,2,0,P|308:102|345:104,1,75,8|4,0:0|0:0,0:0:0:0:
128,84,238921,5,0,0:0:0:0:
104,164,239077,2,0,P|112:264|152:304,1,150,8|0,0:0|0:0,0:0:0:0:
224,272,239546,2,0,P|252:249|289:229,1,75,0|8,0:0|0:0,0:0:0:0:
316,312,239858,1,2,0:0:0:0:
372,240,240015,2,0,P|404:208|416:180,1,75,0|2,0:0|0:0,0:0:0:0:
336,168,240327,1,8,0:0:0:0:
256,156,240483,2,0,P|212:148|182:130,1,75,2|0,0:0|0:0,0:0:0:0:
128,196,240796,2,0,P|143:238|142:272,1,75,2|8,0:0|0:0,0:0:0:0:
92,340,241108,1,4,0:0:0:0:
92,340,241421,6,0,L|44:280,2,75,0|8|0,0:0|0:0|0:0,0:0:0:0:
176,348,241890,1,0,0:0:0:0:
244,304,242046,2,0,P|272:276|288:236,1,75
292,160,242358,1,0,0:0:0:0:
280,79,242515,2,0,P|221:123|221:195,1,150,0|8,0:0|0:0,0:0:0:0:
288,244,242983,1,0,0:0:0:0:
372,236,243140,1,0,0:0:0:0:
404,160,243296,1,0,0:0:0:0:
368,88,243452,6,0,L|364:48,3,37.5
