osu file format v13

[General]
AudioFilename: Savior Of Song.mp3
AudioLeadIn: 1500
PreviewTime: 111890
Countdown: 0
SampleSet: Normal
StackLeniency: 0.3
Mode: 0
LetterboxInBreaks: 0
WidescreenStoryboard: 1

[Editor]
Bookmarks: 192512,223605
DistanceSpacing: 1.5
BeatDivisor: 2
GridSize: 4
TimelineZoom: 1

[Metadata]
Title:SAVIOR OF SONG
TitleUnicode:SAVIOR OF SONG
Artist:nano feat. MY FIRST STORY
ArtistUnicode:nano feat. MY FIRST STORY
Creator:Frostings
Version:Easy
Source:蒼き鋼のアルペジオ
Tags:Aoki Hagane Arpeggio Opening Blue Steel FlawlessTea
BeatmapID:390138
BeatmapSetID:147431

[Difficulty]
HPDrainRate:2
CircleSize:3
OverallDifficulty:2
ApproachRate:3
SliderMultiplier:0.6
SliderTickRate:1

[Events]
//Background and Video events
0,0,"BG.jpg",0,0
//Break Periods
2,76933,86890
2,145215,150952
2,172715,180952
2,190058,192046
//Storyboard Layer 0 (Background)
//Storyboard Layer 1 (Fail)
//Storyboard Layer 2 (Pass)
//Storyboard Layer 3 (Foreground)
//Storyboard Sound Samples
//Background Colour Transformations
3,100,163,162,255

[TimingPoints]
1265,312.5,4,2,1,60,1,0
21186,-100,4,2,1,40,0,0
23765,-100,4,2,1,30,0,0
25171,-100,4,2,1,15,0,0
25952,-100,4,2,1,30,0,0
28765,-100,4,2,1,20,0,0
29077,-100,4,2,1,35,0,0
31265,-100,4,2,1,25,0,0
33765,-100,4,2,1,35,0,0
38765,-100,4,2,1,45,0,0
41265,-100,4,2,1,70,0,0
46733,-100,4,1,1,60,0,1
46890,312.5,4,1,1,60,1,1
66890,-100,4,1,1,60,0,0
89077,-100,4,1,1,40,0,0
99390,-100,4,2,1,35,0,0
99702,-100,4,2,1,30,0,0
101890,-100,4,2,1,35,0,0
104390,-100,4,2,1,40,0,0
106890,-100,4,2,1,70,0,0
112358,-100,4,1,1,60,0,1
112515,312.5,4,1,1,60,1,1
132515,-100,4,1,1,60,0,0
145015,-100,4,1,1,60,0,0
162515,-100,4,1,1,30,0,0
165015,-100,4,1,1,40,0,0
167515,-100,4,1,1,50,0,0
170015,-100,4,1,1,60,0,0
172515,-100,4,2,1,40,0,0
182515,-100,4,1,1,40,0,0
189858,-100,4,2,1,30,0,0
193608,-100,4,1,1,60,0,1
193765,312.5,4,1,1,60,1,1
213765,-100,4,1,1,60,0,0

[Colours]
Combo1 : 188,254,234
Combo2 : 4,118,172
Combo3 : 100,255,255

[HitObjects]
332,132,11108,6,0,P|384:144|424:124,2,90,4|0|0,1:2|0:0|1:0,0:0:0:0:
260,76,12358,2,0,P|200:32|108:84,1,180,0|0,1:0|1:0,0:0:0:0:
72,156,13608,1,0,1:0:0:0:
164,256,14077,6,0,L|124:336,2,90,0|0|0,1:0|1:0|1:0,0:0:0:0:
252,268,15327,2,0,B|298:292|298:292|352:288|391:259,1,150,0|4,1:0|1:0,0:0:0:0:
476,156,16577,6,0,P|476:116|500:68,1,90,0|0,1:0|1:0,0:0:0:0:
408,48,17358,2,0,L|332:48,1,60,2|2,1:0|1:0,0:0:0:0:
284,108,17983,2,0,L|208:108,1,60,2|2,1:0|1:0,0:0:0:0:
144,148,18608,6,0,P|132:108|148:60,2,90,4|0|0,1:0|1:0|1:0,0:0:0:0:
204,216,19858,2,0,P|280:260|360:248,1,150,0|0,1:0|1:0,0:0:0:0:
472,128,21265,5,2,0:0:0:0:
472,128,23452,1,0,0:0:0:0:
388,164,23765,6,0,P|336:180|276:168,1,90,4|0,1:0|0:0,0:0:0:0:
192,96,24702,2,0,P|140:80|80:92,1,90,2|4,0:0|0:0,0:0:0:0:
64,304,25952,1,0,0:0:0:0:
148,336,26265,6,0,P|200:352|260:340,1,90,2|0,0:0|0:0,0:0:0:0:
196,220,27202,2,0,P|249:207|294:167,1,90,2|0,0:0|0:0,0:0:0:0:
180,92,28140,2,0,P|204:72|220:40,1,60,2|0,0:0|0:0,0:0:0:0:
136,12,28765,5,4,0:0:0:0:
68,72,29077,2,0,P|34:131|41:185,2,120,0|0|2,0:0|0:0|0:0,0:0:0:0:
240,24,30952,1,2,0:0:0:0:
328,52,31265,6,0,P|364:84|380:136,1,90,4|0,0:0|0:0,0:0:0:0:
264,196,32202,2,0,P|279:241|267:294,1,90,2|0,0:0|0:0,0:0:0:0:
144,244,33140,2,0,L|120:300,2,60,0|0|4,1:0|1:0|1:0,0:0:0:0:
148,152,34077,6,0,B|120:84|120:84|76:60,1,120,0|0,1:0|1:0,0:0:0:0:
0,104,35015,2,0,B|28:172|28:172|72:196,1,120,0|0,1:0|1:0,0:0:0:0:
144,244,35952,1,0,1:0:0:0:
312,148,36577,6,0,L|384:100,2,60,0|8|0,1:0|1:0|1:0,0:0:0:0:
224,160,37515,2,0,P|168:140|137:90,1,120,0|0,1:0|1:0,0:0:0:0:
120,0,38452,1,8,1:0:0:0:
44,164,39077,6,0,L|8:244,2,60,0|8|0,1:0|1:0|1:0,0:0:0:0:
124,204,40015,2,0,P|188:264|288:244,1,180,4|8,1:0|1:1,0:0:0:0:
344,196,41265,6,0,L|416:136,1,90,6|2,1:0|1:0,0:0:0:0:
304,60,42202,2,0,L|232:120,1,90,2|2,1:0|1:0,0:0:0:0:
256,192,43608,12,0,45640,0:0:0:0:
180,260,46733,6,0,P|232:216|324:224,1,150,4|0,0:0|1:0,0:0:0:0:
340,300,47827,2,0,P|384:268|396:204,1,120,8|8,0:0|0:0,0:0:0:0:
376,120,48765,1,0,0:0:0:0:
252,64,49233,6,0,P|180:64|116:132,1,150,4|0,0:0|0:0,0:0:0:0:
116,204,50327,2,0,P|100:268|72:296,1,90,8|0,0:0|0:0,0:0:0:0:
132,364,51108,2,0,P|195:345|233:356,1,90,0|8,0:0|0:0,0:0:0:0:
272,280,51890,5,4,0:0:0:0:
360,292,52202,2,0,L|408:328,2,60,0|0|8,0:0|0:0|0:0,0:0:0:0:
328,208,53140,2,0,L|340:84,1,120
284,16,54077,1,8,0:0:0:0:
196,28,54390,6,0,P|124:44|80:104,1,150,6|2,0:0|0:0,0:0:0:0:
140,168,55483,2,0,P|156:200|152:268,1,90,2|10,0:0|0:0,0:0:0:0:
128,340,56264,1,4,0:0:0:0:
392,280,57202,6,0,P|420:264|440:236,1,60,8|0,0:0|0:0,0:0:0:0:
360,192,57827,2,0,P|300:120|276:112,1,120,8|8,0:0|0:0,0:0:0:0:
188,100,58765,1,0,0:0:0:0:
68,160,59233,6,0,P|32:196|64:296,1,150,0|0,0:0|0:0,0:0:0:0:
120,344,60327,2,0,L|212:356,1,90,8|0,0:0|0:0,0:0:0:0:
268,288,61108,2,0,L|232:205,1,90,0|8,0:0|0:0,0:0:0:0:
244,116,61890,6,0,L|280:68,2,60,4|8|0,0:0|0:0|0:0,0:0:0:0:
164,152,62827,1,8,0:0:0:0:
72,152,63140,2,0,L|12:144,2,60,0|8|0,0:0|0:0|0:0,0:0:0:0:
116,228,64077,1,8,0:0:0:0:
164,304,64390,6,0,B|196:348|196:348|292:348,1,150,6|2,0:0|0:0,0:0:0:0:
332,268,65483,2,0,B|300:224|300:224|204:224,1,150,2|2,0:0|0:0,0:0:0:0:
48,132,66890,6,0,L|16:76,1,60,4|8,0:0|0:0,0:0:0:0:
68,4,67515,2,0,L|132:4,1,60,0|8,0:0|0:0,0:0:0:0:
172,84,68140,2,0,L|141:135,1,60,0|8,0:0|0:0,0:0:0:0:
160,224,68765,2,0,L|189:276,1,60,0|8,0:0|0:0,0:0:0:0:
268,320,69390,6,0,B|340:320|340:320|376:288,1,120,4|0,0:0|0:0,0:0:0:0:
440,224,70327,1,8,0:0:0:0:
352,196,70640,2,0,B|342:148|342:148|378:86,1,120,0|0,0:0|0:0,0:0:0:0:
436,16,71577,1,8,0:0:0:0:
348,4,71890,6,0,L|288:4,1,60,14|8,0:0|0:0,0:0:0:0:
240,80,72515,2,0,L|180:80,1,60,10|8,0:0|0:0,0:0:0:0:
136,156,73140,2,0,L|165:207,1,60,10|8,0:0|0:0,0:0:0:0:
256,220,73765,2,0,L|286:168,1,60,10|0,0:0|0:0,0:0:0:0:
336,92,74390,6,0,P|392:68|456:92,1,120,10|10,0:0|0:0,0:0:0:0:
396,160,75327,1,10,0:0:0:0:
348,236,75640,2,0,L|318:288,1,60
240,332,76265,2,0,P|168:324|156:312,1,90,0|4,0:0|0:0,0:0:0:0:
136,72,89077,37,0,0:0:0:0:
112,152,89390,6,0,P|116:220|152:256,1,120,4|8,0:2|0:0,0:0:0:0:
232,248,90327,2,0,P|289:236|340:266,1,120,0|8,0:0|0:0,0:0:0:0:
424,280,91265,2,0,L|484:224,1,60
468,156,91890,6,0,B|468:124|468:124|448:80|404:64,1,120,4|8,0:2|0:0,0:0:0:0:
384,148,92827,2,0,B|349:176|301:171|301:171|274:155,1,120,0|8,0:0|0:0,0:0:0:0:
212,100,93765,2,0,L|208:40,1,60
128,68,94390,6,0,P|68:80|40:128,1,120,4|8,0:2|0:0,0:0:0:0:
52,212,95327,1,0,0:0:0:0:
80,292,95640,2,0,L|60:352,2,60,0|8|0,0:0|0:0|0:0,0:0:0:0:
132,228,96577,1,8,0:0:0:0:
208,260,96890,6,0,P|268:280|332:248,1,120,4|0,0:2|0:0,0:0:0:0:
320,176,97827,2,0,P|260:156|196:188,1,120,8|8,0:0|0:0,0:0:0:0:
128,148,98765,2,0,L|100:92,1,60,0|8,0:0|0:0,0:0:0:0:
68,16,99390,5,6,0:0:0:0:
152,24,99702,2,0,L|272:28,1,120
336,80,100640,2,0,P|300:168|336:240,1,180
420,252,101890,5,4,0:0:0:0:
368,320,102202,2,0,L|340:376,2,60
336,240,103140,2,0,L|304:188,2,60
420,252,104077,1,0,0:0:0:0:
480,192,104390,5,4,0:0:0:0:
452,112,104702,2,0,P|432:64|368:28,1,120
296,52,105640,2,0,L|204:96,2,90,0|0|0,0:0|1:0|0:0,0:0:0:0:
360,108,106890,6,0,L|356:212,1,90,6|2,1:0|1:0,0:0:0:0:
252,272,107827,2,0,L|256:168,1,90,2|2,1:0|1:0,0:0:0:0:
256,192,109233,12,0,111265,0:0:0:0:
244,124,112358,6,0,L|152:144,1,90,4|8,0:0|0:0,0:0:0:0:
72,112,113140,2,0,B|56:164|76:204|116:224|116:224|112:272,1,180,0|8,0:0|0:0,0:0:0:0:
100,360,114390,1,0,0:0:0:0:
228,320,114858,6,0,B|284:320|320:336|320:336|360:264,1,150,4|0,0:0|0:0,0:0:0:0:
316,204,115952,2,0,P|306:147|342:98,1,120,8|8,0:0|0:0,0:0:0:0:
272,40,116890,2,0,P|227:76|167:70,1,120,0|4,0:0|0:0,0:0:0:0:
88,108,117827,6,0,L|36:136,2,60,8|0|8,0:0|0:0|0:0,0:0:0:0:
156,168,118765,2,0,L|136:232,2,60,0|8|0,0:0|0:0|0:0,0:0:0:0:
244,152,119702,1,8,0:0:0:0:
324,192,120015,6,0,P|400:200|448:148,1,150,2|2,0:0|0:0,0:0:0:0:
364,112,121108,2,0,P|336:76|332:32,1,90,2|10,0:0|0:0,0:0:0:0:
420,44,121890,1,6,0:0:0:0:
204,104,122671,6,0,L|116:132,1,90,0|0,0:0|0:0,0:0:0:0:
96,220,123452,2,0,L|76:307,2,90,8|0|0,0:0|0:0|0:0,0:0:0:0:
216,280,124858,6,0,P|272:304|356:276,1,150,4|0,0:0|0:0,0:0:0:0:
376,192,125952,2,0,P|387:119|404:92,1,90,8|0,0:0|0:0,0:0:0:0:
324,48,126733,2,0,P|255:74|223:73,1,90,0|8,0:0|0:0,0:0:0:0:
148,68,127515,5,4,0:0:0:0:
112,152,127827,2,0,L|80:220,2,60,8|0|8,0:0|0:0|0:0,0:0:0:0:
200,144,128765,2,0,P|252:156|332:120,1,120
372,68,129702,1,8,0:0:0:0:
404,152,130015,6,0,B|432:248|432:248|404:296,1,150,6|2,0:0|0:0,0:0:0:0:
316,280,131108,2,0,B|272:268|272:268|224:284,1,90,2|10,0:0|0:0,0:0:0:0:
148,320,131890,1,2,0:0:0:0:
96,148,132515,6,0,B|84:76|84:76|116:40,1,120,4|0,0:0|0:0,0:0:0:0:
204,28,133452,1,8,0:0:0:0:
288,60,133765,2,0,B|354:90|354:90|397:68,1,120
472,24,134702,1,8,0:0:0:0:
480,112,135015,6,0,L|472:256,1,120,4|0,0:0|0:0,0:0:0:0:
472,320,135952,1,8,0:0:0:0:
392,276,136265,2,0,P|340:256|276:268,1,120
192,296,137202,1,8,0:0:0:0:
128,232,137515,6,0,L|84:188,1,60,10|8,0:0|0:0,0:0:0:0:
108,104,138140,2,0,L|168:87,1,60,10|8,0:0|0:0,0:0:0:0:
236,144,138765,2,0,L|219:204,1,60,10|8,0:0|0:0,0:0:0:0:
288,264,139390,2,0,L|348:247,1,60,10|8,0:0|0:0,0:0:0:0:
368,160,140015,6,0,L|323:116,2,60,10|8|10,0:0|0:0|0:0,0:0:0:0:
432,224,140952,1,10,0:0:0:0:
408,312,141265,2,0,L|391:372,2,60,2|8|8,0:0|0:0|0:0,0:0:0:0:
256,192,142202,12,4,145015,0:0:0:0:
456,80,152515,6,0,B|337:43|337:43|289:71,1,180,4|8,0:0|0:0,0:0:0:0:
188,148,153921,1,0,0:0:0:0:
248,208,154233,2,0,P|280:276|252:340,1,150,0|4,0:0|0:0,0:0:0:0:
196,276,155327,6,0,P|128:247|63:279,1,150,8|0,0:0|0:0,0:0:0:0:
0,224,156421,2,0,L|32:128,1,90
56,60,157202,1,12,0:0:0:0:
112,124,157515,6,0,P|204:152|252:156,1,120,4|0,0:0|0:0,0:0:0:0:
280,220,158452,2,0,P|266:264|264:308,1,90,8|0,0:0|0:0,0:0:0:0:
388,288,159390,2,0,L|460:284,1,60,0|8,0:0|0:0,0:0:0:0:
456,200,160015,6,0,P|450:135|481:88,1,120,4|0,0:0|0:0,0:0:0:0:
416,32,160952,2,0,P|363:68|306:65,1,120,8|8,0:0|0:0,0:0:0:0:
236,108,161890,2,0,L|204:160,1,60,0|8,0:0|0:0,0:0:0:0:
128,188,162515,6,0,P|76:208|52:272,1,120,2|0,0:0|0:0,0:0:0:0:
60,348,163452,2,0,P|112:328|136:264,1,120,8|8,0:0|0:0,0:0:0:0:
208,228,164390,2,0,L|288:228,1,60,0|0,0:0|0:0,0:0:0:0:
344,196,165015,6,0,B|372:164|372:164|360:84,1,120,2|0,0:0|0:0,0:0:0:0:
292,36,165952,2,0,B|250:27|250:27|187:78,1,120,8|8,0:0|0:0,0:0:0:0:
112,104,166890,2,0,L|56:76,1,60,0|0,0:0|0:0,0:0:0:0:
36,160,167515,6,0,P|48:220|32:276,1,120,2|0,0:0|0:0,0:0:0:0:
100,328,168452,2,0,P|145:287|202:273,1,120,8|8,0:0|0:0,0:0:0:0:
260,212,169390,2,0,L|272:152,1,60,0|0,0:0|0:0,0:0:0:0:
324,88,170015,6,0,P|368:127|425:142,1,120,2|0,0:0|0:0,0:0:0:0:
488,88,170952,2,0,P|508:148|484:200,1,120,8|0,0:0|0:0,0:0:0:0:
404,224,171890,2,0,L|364:268,1,60,8|8,0:0|0:0,0:0:0:0:
304,328,172515,5,4,0:0:0:0:
320,152,182515,6,0,P|352:160|380:152,2,60,0|8|0,1:1|0:0|0:0,0:0:0:0:
244,112,183452,1,8,0:0:0:0:
172,68,183765,2,0,P|140:60|112:64,1,60,0|8,0:0|0:0,0:0:0:0:
140,148,184390,2,0,P|108:157|88:176,1,60,0|8,0:0|0:0,0:0:0:0:
152,232,185015,6,0,P|172:284|244:304,1,120
308,280,185952,1,8,0:0:0:0:
376,232,186265,2,0,L|420:192,1,60,0|8,0:0|0:0,0:0:0:0:
412,108,186890,2,0,L|355:89,1,60,0|8,0:0|0:0,0:0:0:0:
284,136,187515,6,0,L|296:194,2,60,0|8|0,0:0|0:0|0:0,0:0:0:0:
208,100,188452,1,8,0:0:0:0:
128,76,188765,2,0,L|115:17,2,60,0|8|0,0:0|0:0|0:0,0:0:0:0:
120,212,189858,1,4,0:0:0:0:
244,260,193608,6,0,L|152:240,1,90,4|8,0:0|0:0,0:0:0:0:
72,276,194390,2,0,B|48:204|92:172|112:160|112:160|112:104,1,180,0|8,0:0|0:0,0:0:0:0:
104,24,195640,1,0,0:0:0:0:
232,60,196108,6,0,B|288:60|324:44|324:44|364:116,1,150,4|0,0:0|0:0,0:0:0:0:
328,180,197202,2,0,P|318:237|354:286,1,120,8|8,0:0|0:0,0:0:0:0:
288,348,198140,2,0,P|243:312|183:318,1,120,0|4,0:0|0:0,0:0:0:0:
100,284,199077,6,0,L|20:296,2,60,8|0|8,0:0|0:0|0:0,0:0:0:0:
168,224,200015,2,0,L|112:184,2,60,0|8|0,0:0|0:0|0:0,0:0:0:0:
256,232,200952,1,8,0:0:0:0:
336,188,201265,6,0,P|412:180|464:232,1,150,6|2,0:0|0:0,0:0:0:0:
380,268,202358,2,0,P|352:304|348:348,1,90,2|10,0:0|0:0,0:0:0:0:
436,340,203140,1,6,0:0:0:0:
296,112,204077,6,0,P|278:135|252:150,1,60,8|0,0:0|0:0,0:0:0:0:
160,160,204702,2,0,P|208:232|244:240,1,120,8|8,0:0|0:0,0:0:0:0:
324,256,205640,1,0,0:0:0:0:
452,212,206108,6,0,P|488:176|456:76,1,150,4|0,0:0|0:0,0:0:0:0:
392,40,207202,2,0,L|300:28,1,90,8|0,0:0|0:0,0:0:0:0:
248,100,207983,2,0,L|284:183,1,90,0|8,0:0|0:0,0:0:0:0:
272,272,208765,6,0,L|236:320,2,60,4|8|0,0:0|0:0|0:0,0:0:0:0:
356,240,209702,1,8,0:0:0:0:
444,232,210015,2,0,L|504:240,2,60,0|8|0,0:0|0:0|0:0,0:0:0:0:
396,156,210952,1,8,0:0:0:0:
348,80,211265,6,0,B|316:36|316:36|220:36,1,150,6|2,0:0|0:0,0:0:0:0:
180,116,212358,2,0,B|212:160|212:160|308:160,1,150,2|2,0:0|0:0,0:0:0:0:
456,264,213765,6,0,B|424:329|424:329|377:340,1,120,4|0,0:0|0:0,0:0:0:0:
288,356,214702,1,8,0:0:0:0:
204,320,215015,2,0,B|138:290|138:290|95:312,1,120
20,364,215952,1,8,0:0:0:0:
16,272,216265,6,0,L|24:128,1,120,4|0,0:0|0:0,0:0:0:0:
48,64,217202,1,8,0:0:0:0:
108,132,217515,2,0,P|160:152|224:140,1,120
300,96,218452,1,8,0:0:0:0:
360,164,218765,6,0,L|404:208,1,60,10|8,0:0|0:0,0:0:0:0:
372,292,219390,2,0,L|312:309,1,60,10|8,0:0|0:0,0:0:0:0:
256,240,220015,2,0,L|273:180,1,60,10|8,0:0|0:0,0:0:0:0:
208,120,220640,2,0,L|148:137,1,60,10|8,0:0|0:0,0:0:0:0:
128,224,221265,6,0,L|173:268,2,60,10|8|2,0:0|0:0|0:0,0:0:0:0:
64,160,222202,1,8,0:0:0:0:
96,76,222515,2,0,L|113:16,2,60,2|8|4,0:0|0:0|0:0,0:0:0:0:
196,164,223608,6,0,P|248:192|296:196,2,90,4|8|0,0:0|0:0|0:0,0:0:0:0:
268,108,224858,2,0,P|340:112|400:96,1,120
460,156,225796,2,0,L|476:220,1,60
392,320,226577,6,0,P|349:333|304:328,2,90,8|0|0,0:0|0:0|0:0,0:0:0:0:
340,244,227827,2,0,P|270:219|224:161,1,150,8|0,0:0|0:0,0:0:0:0:
360,148,229077,6,0,P|360:108|384:60,1,90,8|0,1:0|1:0,0:0:0:0:
296,32,229858,2,0,L|220:32,1,60,2|2,1:0|1:0,0:0:0:0:
192,112,230483,2,0,L|116:112,1,60,2|2,1:0|1:0,0:0:0:0:
84,188,231108,6,0,L|56:279,2,90,4|8|0,0:0|0:0|1:0,0:0:0:0:
168,220,232358,2,0,P|240:204|276:140,1,150,0|0,1:0|1:0,0:0:0:0:
244,12,233608,1,0,0:0:0:0:
144,100,234077,6,0,P|92:108|60:144,1,90,8|0,0:0|0:0,0:0:0:0:
60,224,234858,2,0,L|44:296,1,60,2|2,0:0|0:0,0:0:0:0:
132,312,235483,2,0,L|118:370,1,60,2|2,0:0|0:0,0:0:0:0:
208,360,236108,6,0,P|256:376|296:368,2,90,4|8|0,0:0|0:0|0:0,0:0:0:0:
212,272,237358,1,0,0:0:0:0:
264,200,237671,2,0,P|268:152|244:82,1,120
184,20,238608,1,4,0:0:0:0:
76,100,239077,6,0,P|83:153|94:189,1,90,8|0,0:0|0:0,0:0:0:0:
176,224,239858,2,0,L|232:204,1,60,2|2,0:0|0:0,0:0:0:0:
304,260,240483,2,0,L|360:240,1,60,2|2,0:0|0:0,0:0:0:0:
448,264,241108,6,0,P|488:312|492:340,2,90,0|8|0,0:0|0:0|0:0,0:0:0:0:
412,180,242358,2,0,P|372:132|368:104,1,90,0|8,0:0|0:0,0:0:0:0:
364,16,243140,1,0,0:0:0:0:
288,64,243452,6,0,L|248:80,1,30,0|4,0:0|2:0,0:0:0:0:
