osu file format v14

[General]
AudioFilename: SABLE.mp3
AudioLeadIn: 2000
PreviewTime: 60847
Countdown: 0
SampleSet: Soft
StackLeniency: 0.7
Mode: 0
LetterboxInBreaks: 0
WidescreenStoryboard: 0

[Editor]
DistanceSpacing: 1
BeatDivisor: 2
GridSize: 4
TimelineZoom: 1.5

[Metadata]
Title:SABLE
TitleUnicode:SABLE
Artist:nano
ArtistUnicode:ナノ
Creator:NewIpas
Version:Easy
Source:M3~ソノ黒キ鋼~
Tags:M3: Sono Kuroki Hagane M3 The Dark Metal Ending Niva IamKwaN tutuhaha HabiHolic
BeatmapID:698511
BeatmapSetID:305836

[Difficulty]
HPDrainRate:2
CircleSize:3
OverallDifficulty:2
ApproachRate:3
SliderMultiplier:0.8
SliderTickRate:1

[Events]
//Background and Video events
Video,1250,"video.flv"
0,0,"BG.jpg",0,0
//Break Periods
2,58946,59857
//Storyboard Layer 0 (Background)
//Storyboard Layer 1 (Fail)
//Storyboard Layer 2 (Pass)
//Storyboard Layer 3 (Foreground)
//Storyboard Sound Samples

[TimingPoints]
1297,300,4,2,1,45,1,0
10897,-100,4,2,1,60,0,0
20647,-100,4,2,1,30,0,0
22897,-100,4,2,1,50,0,0
42397,-100,4,2,1,40,0,0
51997,-100,4,2,1,50,0,0
56797,-100,4,2,1,60,0,0
59197,-100,4,2,1,20,0,0
61297,-100,4,2,1,70,0,1
75697,-100,4,2,1,65,0,0
80497,-100,4,2,1,70,0,0
81097,-100,4,2,1,60,0,0
85297,-100,4,2,1,80,0,0
88747,-100,4,2,1,40,0,0

[Colours]
Combo1 : 0,136,202
Combo2 : 192,192,192
Combo3 : 128,128,192
Combo4 : 128,128,128

[HitObjects]
48,116,1297,5,2,0:1:0:0:
52,236,1747,2,0,L|132:236,1,80,2|2,0:1|0:1,0:0:0:0:
188,176,2347,1,2,0:1:0:0:
224,104,2647,2,0,P|264:148|256:216,1,120,2|2,0:1|0:1,0:0:0:0:
224,276,3397,2,0,L|224:360,1,80,2|2,0:1|0:1,0:0:0:0:
340,332,4147,6,0,P|380:324|420:336,1,80,2|2,0:1|0:1,0:0:0:0:
464,268,4747,1,2,0:1:0:0:
424,196,5047,2,0,B|424:160|424:160|448:128|448:128|448:80,1,120,2|2,0:1|0:1,0:0:0:0:
368,72,5797,2,0,L|284:72,1,80,2|2,0:1|0:1,0:0:0:0:
172,40,6547,6,0,P|128:48|104:72,1,80,2|2,0:1|0:1,0:0:0:0:
168,120,7147,1,2,0:1:0:0:
236,160,7447,2,0,L|236:284,1,120,2|2,0:1|0:1,0:0:0:0:
276,348,8197,2,0,P|232:360|196:348,1,80,2|2,0:1|0:1,0:0:0:0:
80,340,8947,6,0,L|80:260,1,80,2|2,0:1|0:1,0:0:0:0:
128,196,9547,2,0,L|128:112,1,80,2|2,0:1|0:1,0:0:0:0:
172,48,10147,2,0,P|228:64|284:44,1,120,2|8,0:1|0:3,0:0:0:0:
356,76,10897,6,0,L|356:324,1,240,6|8,0:0|0:0,0:0:0:0:
196,324,12397,2,0,P|156:332|116:324,2,80,8|0|8,0:0|0:0|0:0,0:0:0:0:
236,256,13297,2,0,L|236:168,1,80,2|8,0:0|0:0,0:0:0:0:
152,40,14197,6,0,P|192:32|232:40,1,80,8|2,0:0|0:0,0:0:0:0:
292,88,14797,2,0,P|332:96|372:88,1,80,8|2,0:0|0:0,0:0:0:0:
436,44,15397,2,0,P|448:80|440:124,2,80,8|2|12,0:0|0:0|0:0,0:0:0:0:
356,184,16597,6,0,L|276:184,1,80,8|2,0:0|0:0,0:0:0:0:
196,180,17197,2,0,P|172:220|172:256,1,80,8|2,0:0|0:0,0:0:0:0:
196,328,17797,2,0,L|280:328,2,80,8|2|8,0:0|0:0|0:0,0:0:0:0:
36,320,18997,6,0,L|36:236,1,80,8|2,0:0|0:0,0:0:0:0:
116,240,19597,2,0,L|116:156,1,80,8|2,0:0|0:0,0:0:0:0:
176,108,20197,1,8,0:0:0:0:
256,96,20497,6,0,B|300:120|344:96|344:96|396:112|396:112|436:88|488:108,2,240,2|2|2,0:1|0:1|0:1,0:0:0:0:
112,28,22897,6,0,P|88:104|112:180,1,160,6|0,0:0|0:0,0:0:0:0:
232,284,24097,2,0,L|392:284,2,160,0|2|2,0:0|0:0|0:0,0:0:0:0:
164,324,25597,6,0,P|152:284|164:244,1,80,8|2,0:0|0:0,0:0:0:0:
228,204,26197,2,0,L|308:204,1,80,8|2,0:0|0:0,0:0:0:0:
384,184,26797,2,0,P|420:136|412:80,1,120,8|8,0:0|0:0,0:0:0:0:
340,116,27547,6,0,B|252:120|252:32|164:36,1,200,8|2,0:0|0:0,0:0:0:0:
100,196,28897,2,0,B|76:276|76:276|96:312|140:312,2,160,0|2|2,0:0|0:0|0:0,0:0:0:0:
164,144,30397,6,0,L|244:144,1,80,8|2,0:0|0:0,0:0:0:0:
296,84,30997,2,0,P|320:120|324:160,1,80,8|2,0:0|0:0,0:0:0:0:
336,236,31597,2,0,L|336:324,1,80,8|8,0:0|0:0,0:0:0:0:
256,320,32197,2,0,L|256:236,1,80,10|8,0:0|0:0,0:0:0:0:
184,204,32797,2,0,P|152:180|132:136,1,80,12|0,0:0|0:0,0:0:0:0:
212,124,33397,6,0,P|284:156|356:124,2,160,8|8|8,0:0|0:0|0:0,0:0:0:0:
140,88,34897,2,0,L|56:88,1,80,2|8,0:0|0:0,0:0:0:0:
104,244,35797,6,0,P|144:252|184:244,1,80,8|2,0:0|0:0,0:0:0:0:
252,204,36397,2,0,L|336:204,2,80,8|2|8,0:0|0:0|0:0,0:0:0:0:
252,124,37297,6,0,B|360:124|360:124|428:160|412:236,1,240,4|8,0:0|0:0,0:0:0:0:
356,292,38497,1,2,0:0:0:0:
288,336,38797,2,0,B|208:336|208:232|124:232,1,200,8|12,0:0|0:0,0:0:0:0:
100,116,39997,6,0,L|100:32,2,80,8|2|12,0:0|0:0|0:0,0:0:0:0:
168,156,40897,2,0,P|208:172|240:196,1,80,2|8,0:0|0:0,0:0:0:0:
288,256,41497,2,0,P|348:304|424:280,1,160,2|2,0:0|0:0,0:0:0:0:
364,224,42397,5,8,0:0:0:0:
260,100,42997,1,8,0:0:0:0:
152,220,43597,2,0,L|152:300,1,80,8|2,0:0|0:0,0:0:0:0:
220,344,44197,2,0,P|260:352|300:344,1,80,2|2,0:0|0:0,0:0:0:0:
364,304,44797,5,8,0:0:0:0:
476,192,45397,1,8,0:0:0:0:
364,76,45997,2,0,L|280:76,1,80,8|2,0:0|0:0,0:0:0:0:
232,16,46597,2,0,P|208:56|208:96,1,80,2|2,0:0|0:0,0:0:0:0:
240,160,47197,6,0,L|240:328,1,160,8|8,0:0|0:0,0:0:0:0:
80,312,48397,2,0,L|80:232,1,80,8|2,0:0|0:0,0:0:0:0:
40,164,48997,2,0,L|40:80,1,80,2|2,0:0|0:0,0:0:0:0:
104,36,49597,6,0,B|148:36|176:64|176:64|208:36|252:36,1,160,8|8,0:0|0:0,0:0:0:0:
316,180,50797,2,0,P|352:196|376:228,1,80,8|2,0:0|0:0,0:0:0:0:
304,260,51397,2,0,L|304:348,2,80,2|8|12,0:0|0:0|0:0,0:0:0:0:
144,256,52597,6,0,P|88:224|84:136,1,160,8|8,0:0|0:0,0:0:0:0:
152,176,53497,2,0,L|232:176,1,80,2|2,0:0|0:0,0:0:0:0:
284,112,54097,2,0,L|364:112,1,80,2|8,0:0|0:0,0:0:0:0:
456,240,54997,6,0,B|416:252|396:288|396:288|376:324|336:340,1,160,8|8,0:0|0:0,0:0:0:0:
256,344,55897,2,0,L|256:264,2,80,2|2|2,0:0|0:0|0:0,0:0:0:0:
176,340,56797,6,0,B|136:324|116:288|116:288|96:252|56:240,1,160,8|8,0:0|0:0,0:0:0:0:
116,92,57997,2,0,B|188:92|188:92|228:124|228:124|304:124,1,200,8|8,0:0|0:0,0:0:0:0:
256,208,61297,6,0,L|336:208,1,80,6|10,0:0|0:0,0:0:0:0:
384,272,61897,2,0,L|468:272,1,80,2|8,0:0|0:0,0:0:0:0:
452,192,62497,2,0,P|464:148|452:112,1,80,2|8,0:0|0:0,0:0:0:0:
400,56,63097,2,0,P|356:44|320:56,1,80,2|8,0:0|0:0,0:0:0:0:
284,124,63697,1,2,0:0:0:0:
196,256,64297,6,0,L|112:256,2,80,2|8|2,0:0|0:0|0:0,0:0:0:0:
268,288,65197,2,0,L|352:288,2,80,8|2|8,0:0|0:0|0:0,0:0:0:0:
200,332,66097,6,0,L|120:332,1,80,6|8,0:0|0:0,0:0:0:0:
60,280,66697,2,0,P|44:240|48:204,1,80,2|12,0:0|0:0,0:0:0:0:
116,164,67297,2,0,P|132:124|128:88,1,80,2|8,0:0|0:0,0:0:0:0:
200,52,67897,2,0,L|280:52,1,80,2|8,0:0|0:0,0:0:0:0:
352,88,68497,1,6,0:0:0:0:
416,232,69097,6,0,P|456:244|496:232,2,80,2|8|2,0:0|0:0|0:0,0:0:0:0:
344,196,69997,2,0,P|304:184|264:196,2,80,8|2|8,0:0|0:0|0:0,0:0:0:0:
304,264,70897,6,0,L|304:344,1,80,6|8,0:0|0:0,0:0:0:0:
224,356,71497,2,0,P|183:362|140:356,1,80,2|8,0:0|0:0,0:0:0:0:
120,280,72097,2,0,L|120:196,1,80,2|8,0:0|0:0,0:0:0:0:
48,168,72697,2,0,L|48:80,1,80,2|8,0:0|0:0,0:0:0:0:
116,48,73297,1,2,0:0:0:0:
256,128,73897,6,0,L|336:128,2,80,2|8|2,0:0|0:0|0:0,0:0:0:0:
188,172,74797,2,0,L|108:172,2,80,8|2|8,0:0|0:0|0:0,0:0:0:0:
256,216,75697,6,0,B|304:236|360:320|360:320|384:268|384:268|436:296|492:244,2,320,6|2|2,0:0|0:0|0:0,0:0:0:0:
116,136,78697,2,0,L|32:136,1,80,8|0,0:0|0:0,0:0:0:0:
36,56,79297,2,0,L|120:56,1,80,2|8,0:0|0:0,0:0:0:0:
188,92,79897,2,0,P|232:100|268:92,1,80,2|8,0:0|0:0,0:0:0:0:
336,56,80497,1,6,0:0:0:0:
392,204,81097,6,0,L|392:288,2,80,2|8|2,0:0|0:0|0:0,0:0:0:0:
440,140,81997,2,0,L|440:56,2,80,8|2|8,0:0|0:0|0:0,0:0:0:0:
484,208,82897,2,0,L|484:288,1,80,2|8,0:0|0:0,0:0:0:0:
424,340,83497,6,0,P|384:348|340:340,1,80,2|8,0:0|0:0,0:0:0:0:
280,296,84097,2,0,P|240:288|196:296,1,80,2|8,0:0|0:0,0:0:0:0:
132,336,84697,2,0,P|92:344|48:336,1,80,2|8,0:0|0:0,0:0:0:0:
32,260,85297,6,0,B|56:180|136:188|136:188|132:104|212:80,2,280,12|2|8,0:0|0:0|0:0,0:0:0:0:
53,338,87697,6,0,P|93:343|132:336,1,80,8|2,0:0|0:0,0:0:0:0:
200,292,88297,2,0,B|280:292|280:292|312:268,1,120,2|2,0:0|0:0,0:0:0:0:
364,208,89047,6,0,P|376:172|368:128,1,80,2|2,0:1|0:1,0:0:0:0:
296,100,89647,2,0,B|216:100|216:100|180:120,1,120,2|0,0:1|0:0,0:0:0:0:
