osu file format v13

[General]
AudioFilename: Palette.mp3
AudioLeadIn: 0
PreviewTime: 77900
Countdown: 0
SampleSet: Soft
StackLeniency: 0.7
Mode: 0
LetterboxInBreaks: 0
WidescreenStoryboard: 0

[Editor]
Bookmarks: 92984,136650,138650,139650,140650,141650,142650,143650,144650,145650,146650,147650,148650,149650,150650,155650,156650,158650,160650,161650,162650,164650,207984
DistanceSpacing: 1
BeatDivisor: 4
GridSize: 4
TimelineZoom: 3.799999

[Metadata]
Title:Palette
TitleUnicode:Palette
Artist:nano
ArtistUnicode:ナノ
Creator:Qc321die
Version:Normal
Source:
Tags:Vocaloid Nanoir
BeatmapID:486389
BeatmapSetID:197759

[Difficulty]
HPDrainRate:5
CircleSize:3
OverallDifficulty:5
ApproachRate:6
SliderMultiplier:1.03
SliderTickRate:2

[Events]
//Background and Video events
0,0,"Nano_PaletteBG.jpg",0,0
//Break Periods
2,110184,112267
2,126184,128934
//Storyboard Layer 0 (Background)
//Storyboard Layer 1 (Fail)
//Storyboard Layer 2 (Pass)
//Storyboard Layer 3 (Foreground)
//Storyboard Sound Samples
//Background Colour Transformations
3,100,163,162,255

[TimingPoints]
651,333.333333333333,3,2,1,50,1,0
31672,-80,3,1,1,85,0,0
32650,-80,3,3,1,85,0,0
32984,-80,3,1,1,85,0,0
35984,-80,3,3,1,85,0,0
36317,-80,3,1,1,85,0,0
36650,-80,3,2,1,85,0,0
36734,-80,3,1,1,85,0,0
40650,-80,3,2,1,85,0,0
40984,-80,3,1,1,85,0,0
48650,-100,3,2,1,50,0,0
77650,-100,3,2,1,65,0,0
77984,-80,3,2,1,85,0,1
97317,-80,3,3,1,85,0,1
97650,-80,3,2,1,85,0,1
109984,-80,3,2,1,50,0,0
113317,-133.333333333333,3,2,1,25,0,0
122984,-133.333333333333,3,1,1,25,0,0
123317,-133.333333333333,3,2,1,25,0,0
129984,-133.333333333333,3,2,1,5,0,0
138650,-133.333333333333,3,2,1,25,0,0
138650,-133.333333333333,3,2,1,50,0,0
138817,-133.333333333333,3,2,1,50,0,0
144650,-133.333333333333,3,2,1,25,0,0
145067,-133.333333333333,3,2,1,50,0,0
147650,-133.333333333333,3,2,1,25,0,0
147984,-133.333333333333,3,2,1,50,0,0
149650,-133.333333333333,3,2,1,25,0,0
149931,-133.333333333333,3,2,1,50,0,0
172650,-200,3,2,1,50,0,0
174650,-200,3,2,1,5,0,0
175650,-100,3,2,1,45,0,0
176650,-100,3,2,1,85,0,1
215650,-50,3,2,1,85,0,1
216650,-50,3,2,1,85,0,0
224650,-100,3,2,1,5,0,0

[HitObjects]
154,127,32650,6,0,P|143:169|155:263,2,128.75,4|0|0,0:0|0:0|0:0,0:0:0:0:
269,185,33650,2,0,P|347:167|405:124,1,128.75,0|0,0:0|0:0,0:0:0:0:
360,268,34317,2,0,P|391:264|417:246,2,64.375,0|0|0,0:0|0:0|0:0,0:0:0:0:
252,340,34984,2,0,P|188:344|124:308,1,128.75
132,188,35650,2,0,P|112:160|80:152,2,64.375,0|0|0,0:0|0:0|0:0,0:0:0:0:
180,144,36150,2,0,P|160:116|128:108,2,64.375,0|0|0,0:0|0:0|0:0,0:0:0:0:
240,120,36650,2,8,P|271:98|347:130,1,128.75,12|8,0:0|0:0,0:0:0:0:
412,240,37317,6,0,P|416:200|400:168,2,64.375,0|0|0,0:0|0:0|0:0,0:0:0:0:
308,316,37984,1,0,0:0:0:0:
180,324,38317,2,0,P|143:280|159:211,1,128.75
56,132,38984,1,0,0:0:0:0:
173,80,39317,1,0,0:0:0:0:
274,159,39650,2,0,P|336:140|401:160,1,128.75,0|8,0:0|0:0,0:0:0:0:
405,220,40150,2,0,P|434:232|449:261,2,64.375,0|0|0,0:0|0:0|0:0,0:0:0:0:
361,267,40650,1,12,0:0:0:0:
234,240,40984,6,0,P|193:214|206:135,1,128.75
317,90,41650,1,0,0:0:0:0:
437,135,41984,2,0,P|478:161|465:240,2,128.75,0|0|0,0:0|0:0|0:0,0:0:0:0:
317,90,42984,1,0,0:0:0:0:
192,56,43317,2,0,P|134:37|129:27,2,64.375,0|0|0,0:0|0:0|0:0,0:0:0:0:
91,136,43984,1,0,0:0:0:0:
167,239,44317,2,0,P|167:274|150:299,2,64.375,0|0|0,0:0|0:0|0:0,0:0:0:0:
268,159,44984,6,0,P|304:188|291:266,1,128.75
332,314,45484,2,0,P|367:326|404:318,2,64.375,0|0|0,0:0|0:0|0:0,0:0:0:0:
425,271,45984,2,0,P|447:244|438:133,1,128.75
361,60,46650,1,0,0:0:0:0:
235,89,46984,1,0,0:0:0:0:
177,204,47317,1,0,0:0:0:0:
224,323,47650,2,0,P|187:337|142:322,2,64.375,0|0|0,0:0|0:0|0:0,0:0:0:0:
351,305,48317,2,0,L|413:330,1,64.375,0|0,0:0|0:0,0:0:0:0:
458,309,48650,6,0,P|457:250|426:213,1,103,4|0,0:0|0:0,0:0:0:0:
401,208,49150,2,0,P|356:218|298:191,1,103,8|0,0:0|0:0,0:0:0:0:
297,167,49650,2,0,P|323:126|310:73,1,103,0|0,0:0|0:0,0:0:0:0:
209,64,50317,1,0,0:0:0:0:
115,107,50650,2,0,P|113:154|142:222,1,103
150,254,51150,2,0,P|178:269|203:267,1,51.5,0|4,0:0|0:0,0:0:0:0:
297,275,51650,6,0,P|331:248|340:226,1,51.5,8|8,0:0|0:0,0:0:0:0:
352,216,51984,2,0,P|383:200|449:226,1,103,12|2,0:0|0:0,0:0:0:0:
460,194,52484,2,0,P|469:154|432:102,1,103,8|0,0:0|0:0,0:0:0:0:
407,94,52984,2,0,P|360:70|312:94,1,103,2|0,0:0|0:0,0:0:0:0:
267,181,53650,2,0,P|258:143|161:97,1,154.5,0|8,0:0|0:0,0:0:0:0:
122,229,54484,5,2,0:0:0:0:
122,229,54650,2,0,P|144:268|192:301,1,103,0|8,0:0|0:0,0:0:0:0:
241,290,55150,1,2,0:0:0:0:
278,254,55317,2,0,P|320:236|374:262,1,103,4|0,0:0|0:0,0:0:0:0:
389,233,55817,2,0,P|365:193|387:140,1,103,8|2,0:0|0:0,0:0:0:0:
355,130,56317,2,0,P|328:151|258:125,1,103,8|0,0:0|0:0,0:0:0:0:
284,56,56984,5,0,0:0:0:0:
379,93,57317,2,0,L|398:142,1,51.5,0|8,0:0|0:0,0:0:0:0:
372,241,57817,2,0,L|336:191,1,51.5,0|2,0:0|0:0,0:0:0:0:
238,201,58317,2,0,P|204:206|185:203,1,51.5,8|8,0:0|0:0,0:0:0:0:
158,148,58650,6,0,P|123:147|66:238,1,154.5,12|8,0:0|0:0,0:0:0:0:
156,288,59484,1,0,0:0:0:0:
181,304,59650,2,2,P|215:304|285:281,1,103
375,323,60317,1,0,0:0:0:0:
418,229,60650,1,0,0:0:0:0:
418,229,60817,2,0,P|374:219|317:240,1,103,8|0,0:0|0:0,0:0:0:0:
323,190,61317,2,0,P|322:139|283:101,1,103,0|8,0:0|0:0,0:0:0:0:
238,88,61817,1,0,0:0:0:0:
204,128,61984,6,0,L|156:96,2,51.5,0|0|0,0:0|0:0|0:0,0:0:0:0:
208,180,62484,2,0,L|260:216,1,51.5
328,144,62984,2,0,L|328:84,2,51.5,0|0|0,0:0|0:0|0:0,0:0:0:0:
376,164,63484,2,0,L|376:216,2,51.5,0|0|0,0:0|0:0|0:0,0:0:0:0:
405,248,63984,2,0,P|334:316|223:318,1,206,6|8,0:0|0:0,0:0:0:0:
342,178,64984,2,0,P|310:239|208:176,1,206,8|8,0:0|0:0,0:0:0:0:
173,175,65817,2,0,P|145:163|121:168,1,51.5,8|12,0:0|0:0,0:0:0:0:
256,192,66150,12,8,67650,0:0:0:0:
161,151,67984,6,0,P|146:208|162:261,1,103
249,206,68650,1,8,0:0:0:0:
362,197,68984,2,0,P|345:148|308:113,1,103
206,67,69650,2,0,P|172:75|116:125,2,103,0|0|0,0:0|0:0|0:0,0:0:0:0:
206,170,70650,1,12,0:0:0:0:
132,242,70984,1,0,0:0:0:0:
215,301,71317,1,0,0:0:0:0:
317,294,71650,6,0,L|369:255,2,51.5,8|0|0,0:0|0:0|0:0,0:0:0:0:
328,191,72317,1,0,0:0:0:0:
369,96,72650,2,0,L|413:127,2,51.5,8|0|8,0:0|0:0|0:0,0:0:0:0:
273,56,73317,1,0,0:0:0:0:
171,74,73650,1,0,0:0:0:0:
171,74,73817,2,0,L|126:102,2,51.5,8|8|8,0:0|0:0|0:0,0:0:0:0:
202,115,74317,2,0,P|218:179|246:208,1,103
340,168,74984,6,0,P|338:124|368:67,2,103,8|0|0,0:0|0:0|0:0,0:0:0:0:
236,168,75984,2,0,P|238:124|208:67,2,103,8|0|0,0:0|0:0|0:0,0:0:0:0:
278,263,76984,2,0,P|290:306|281:327,2,51.5,12|8|8,0:0|0:0|0:0,0:0:0:0:
324,240,77484,2,0,P|363:258|388:256,1,51.5,0|2,0:0|0:0,0:0:0:0:
409,163,77984,6,0,P|392:108|333:66,1,128.75,12|0,0:0|0:0,0:0:0:0:
310,96,78484,2,0,P|286:128|201:124,1,128.75,2|0,0:0|0:0,0:0:0:0:
171,147,78984,1,8,0:0:0:0:
260,240,79317,6,0,P|264:280|248:304,2,64.375,0|0|0,0:0|0:0|0:0,0:0:0:0:
364,168,79984,1,0,0:0:0:0:
364,168,80150,2,0,P|352:108|404:64,2,128.75,0|0|0,0:0|0:0|0:0,0:0:0:0:
424,196,80984,2,0,P|452:216|452:256,1,64.375
452,300,81317,2,0,P|390:325|319:325,2,128.75,8|0|4,0:0|0:0|0:0,0:0:0:0:
344,222,82317,1,0,0:0:0:0:
344,222,82484,6,0,P|280:235|218:205,1,128.75
206,175,82984,2,0,P|163:162|78:187,1,128.75,8|0,0:0|0:0,0:0:0:0:
60,244,83484,2,0,P|80:276|120:288,1,64.375
219,353,83984,2,0,P|279:348|347:241,2,193.125,0|4|8,0:0|0:0|0:0,0:0:0:0:
128,262,85317,1,0,0:0:0:0:
128,133,85650,1,0,0:0:0:0:
219,41,85984,1,4,0:0:0:0:
256,192,86150,12,8,86984,0:0:0:0:
254,50,87650,5,0,0:0:0:0:
254,50,87984,2,4,B|247:133|256:144|266:190|324:209|413:182,1,257.5
472,242,88984,2,0,B|489:208|497:170|487:134|468:109|421:80|379:110|337:109,1,257.5,12|4,0:0|0:0,0:0:0:0:
256,192,89984,12,12,92984,0:0:0:0:
152,88,93317,6,0,L|152:24,1,64.375
208,88,93650,2,0,L|208:24,1,64.375,0|0,0:0|0:0,0:0:0:0:
264,88,93984,2,0,P|286:138|352:173,1,128.75,4|0,0:0|0:0,0:0:0:0:
335,208,94484,2,0,P|295:243|299:327,1,128.75
256,299,94984,2,0,P|222:271|189:186,1,128.75,8|2,0:0|0:0,0:0:0:0:
152,183,95484,2,0,P|117:202|114:236,1,64.375,8|0,0:0|0:0,0:0:0:0:
92,96,95984,6,0,P|139:65|209:80,1,128.75
236,136,96484,2,0,P|268:116|365:137,1,128.75
388,184,96984,2,0,L|428:240,1,64.375
360,244,97317,2,0,L|400:300,1,64.375
332,304,97650,2,0,P|275:301|210:345,1,128.75,4|0,0:0|0:0,0:0:0:0:
181,319,98150,2,0,P|158:274|190:196,2,128.75,0|2|0,0:0|0:0|0:0,0:0:0:0:
238,262,98984,1,8,0:0:0:0:
303,341,99484,5,8,0:0:0:0:
303,341,99650,2,0,P|359:315|393:248,1,128.75
281,93,100484,1,0,0:0:0:0:
295,285,100984,1,8,0:0:0:0:
201,242,101317,1,0,0:0:0:0:
144,156,101650,1,0,0:0:0:0:
225,55,101984,2,0,L|290:55,2,64.375,0|0|0,0:0|0:0|0:0,0:0:0:0:
228,124,102484,2,0,L|293:124,2,64.375,2|0|0,0:0|0:0|0:0,0:0:0:0:
318,168,102984,6,0,P|353:188|279:270,1,193.125,12|8,0:0|0:0,0:0:0:0:
237,253,103650,2,0,P|208:212|136:229,2,128.75,0|2|4,0:0|0:0|0:0,0:0:0:0:
299,140,104650,2,0,P|251:109|174:139,1,128.75,0|8,0:0|0:0,0:0:0:0:
138,82,105150,2,0,P|136:38|148:18,2,64.375,0|0|0,0:0|0:0|0:0,0:0:0:0:
74,90,105650,2,0,P|56:131|66:219,1,128.75,4|0,0:0|0:0,0:0:0:0:
127,204,106150,2,0,P|167:243|152:311,1,128.75
211,338,106650,2,0,P|264:347|315:273,1,128.75,0|8,0:0|0:0,0:0:0:0:
383,159,107484,5,8,0:0:0:0:
383,159,107650,2,0,P|426:139|421:54,1,128.75,8|0,0:0|0:0,0:0:0:0:
256,192,108150,12,0,109984,0:0:0:0:
113,254,113317,5,0,0:0:0:0:
142,182,113650,2,0,L|152:141,1,38.6250014734269,0|8,0:0|0:0,0:0:0:0:
228,143,114150,2,0,L|218:180,1,38.6250014734269,8|8,0:0|0:0,0:0:0:0:
282,223,114650,2,0,P|321:232|361:215,2,77.2500029468538,4|0|0,0:0|0:0|0:0,0:0:0:0:
248,243,115484,2,0,P|233:270|186:283,1,77.2500029468538,10|0,0:0|0:0,0:0:0:0:
154,271,115984,2,0,P|115:259|86:276,1,77.2500029468538,10|0,0:0|0:0,0:0:0:0:
60,203,116650,6,0,L|74:126,1,77.2500029468538
118,113,117150,2,0,L|154:191,1,77.2500029468538,10|0,0:0|0:0,0:0:0:0:
193,166,117650,2,0,L|230:89,1,77.2500029468538,10|0,0:0|0:0,0:0:0:0:
272,95,118150,2,0,L|289:137,1,38.6250014734269,2|4,0:0|0:0,0:0:0:0:
292,207,118650,2,0,L|324:241,2,38.6250014734269,0|10|0,0:0|0:0|0:0,0:0:0:0:
350,156,119317,1,8,0:0:0:0:
408,206,119650,6,0,L|429:248,1,38.6250014734269,0|0,0:0|0:0,0:0:0:0:
398,278,119984,2,0,P|370:303|323:304,1,77.2500029468538,4|0,0:0|0:0,0:0:0:0:
296,276,120484,2,0,P|259:251|218:258,1,77.2500029468538,8|8,0:0|0:0,0:0:0:0:
182,262,120984,2,0,P|140:230|135:169,1,115.875004420281,12|0,0:0|0:0,0:0:0:0:
105,133,121650,2,0,P|70:145|47:183,1,77.2500029468538
19,141,122150,2,0,P|4:93|4:64,1,77.2500029468538,8|0,0:0|0:0,0:0:0:0:
37,46,122650,2,0,P|57:33|88:31,2,38.6250014734269,0|0|0,0:0|0:0|0:0,0:0:0:0:
146,46,123317,6,0,P|175:65|194:141,1,115.875004420281,4|0,0:0|0:0,0:0:0:0:
302,180,124317,2,0,P|301:211|324:258,2,77.2500029468538,0|0|0,0:0|0:0|0:0,0:0:0:0:
226,250,125484,2,0,B|242:289|252:317|304:334,1,115.875004420281
314,138,129984,6,0,P|263:113|209:128,2,115.875004420281,0|0|0,0:0|0:0|0:0,0:0:0:0:
256,192,131317,1,0,0:0:0:0:
314,246,131650,2,0,P|263:271|209:256,2,115.875004420281,0|0|0,0:0|0:0|0:0,0:0:0:0:
256,192,134650,12,0,136650,0:0:0:0:
208,128,138650,6,0,P|256:112|288:128,2,77.2500029468538,4|0|0,0:0|0:0|0:0,0:0:0:0:
183,184,139650,2,0,P|146:224|69:115,1,231.750008840561,2|0,0:0|0:0,0:0:0:0:
172,66,141317,1,0,0:0:0:0:
172,66,141650,2,0,P|220:65|259:88,1,77.2500029468538,2|0,0:0|0:0,0:0:0:0:
199,147,142317,1,0,0:0:0:0:
199,147,142650,2,0,P|202:197|186:222,2,77.2500029468538,2|0|0,0:0|0:0|0:0,0:0:0:0:
263,140,143650,1,2,0:0:0:0:
326,125,143984,5,0,0:0:0:0:
378,93,144317,1,0,0:0:0:0:
381,154,144650,2,0,P|388:218|246:229,1,231.750008840561,4|0,0:0|0:0,0:0:0:0:
194,133,146317,1,0,0:0:0:0:
147,173,146650,2,0,P|123:196|117:246,2,77.2500029468538,2|0|0,0:0|0:0|0:0,0:0:0:0:
128,112,147650,2,0,P|161:56|290:111,1,231.750008840561,4|0,0:0|0:0,0:0:0:0:
209,123,149650,2,0,P|248:178|369:115,1,231.750008840561,4|0,0:0|0:0,0:0:0:0:
450,128,150984,5,0,0:0:0:0:
447,143,151317,1,0,0:0:0:0:
439,156,151650,2,0,P|436:190|401:230,2,77.2500029468538,0|0|0,0:0|0:0|0:0,0:0:0:0:
362,168,152650,2,0,P|359:202|324:242,2,77.2500029468538,0|0|0,0:0|0:0|0:0,0:0:0:0:
286,183,153650,2,0,P|283:217|248:257,2,77.2500029468538,0|0|0,0:0|0:0|0:0,0:0:0:0:
202,160,154650,6,0,P|147:158|197:52,1,231.750008840561,4|8,0:0|0:0,0:0:0:0:
342,104,156317,1,0,0:0:0:0:
342,104,156650,2,0,P|388:137|389:170,1,77.2500029468538,4|0,0:0|0:0,0:0:0:0:
338,210,157317,1,2,0:0:0:0:
338,210,157650,2,0,P|307:247|310:279,1,77.2500029468538,10|0,0:0|0:0,0:0:0:0:
233,292,158317,1,0,0:0:0:0:
233,292,158650,2,0,P|203:292|164:188,1,154.500005893708,4|0,0:0|0:0,0:0:0:0:
225,151,159650,2,0,P|319:170|359:124,1,154.500005893708,8|0,0:0|0:0,0:0:0:0:
285,98,160650,2,0,P|191:79|151:125,1,154.500005893708,0|2,0:0|0:0,0:0:0:0:
145,191,161650,5,12,0:0:0:0:
89,232,161984,1,0,0:0:0:0:
81,163,162317,1,0,0:0:0:0:
145,191,162650,2,0,P|169:224|321:172,2,231.750008840561,4|8|2,0:0|0:0|0:0,0:0:0:0:
264,106,165317,5,2,0:0:0:0:
264,106,165650,2,0,P|288:73|440:125,2,231.750008840561,8|4|10,0:0|0:0|0:0,0:0:0:0:
140,198,168317,2,0,P|138:166|173:125,1,77.2500029468538
301,199,169317,2,0,P|303:167|268:126,1,77.2500029468538,0|8,0:0|0:0,0:0:0:0:
221,81,170317,1,0,0:0:0:0:
221,81,170650,2,0,L|220:162,1,77.2500029468538,4|0,0:0|0:0,0:0:0:0:
221,305,171317,1,0,0:0:0:0:
221,305,171650,2,0,L|220:224,2,77.2500029468538,8|0|0,0:0|0:0|0:0,0:0:0:0:
267,326,172650,2,0,P|313:324|258:163,1,309,4|0,0:0|0:0,0:0:0:0:
224,224,175650,6,2,P|208:288|320:224,1,309,0|0,0:0|0:0,0:0:0:0:
250,148,176984,6,0,P|234:128|238:100,1,51.5
143,148,177484,2,0,P|159:128|155:100,1,51.5,0|12,0:0|0:0,0:0:0:0:
147,206,177984,1,0,0:0:0:0:
249,205,178317,1,0,0:0:0:0:
338,154,178650,2,0,P|290:146|251:110,1,103
200,100,179150,1,0,0:0:0:0:
96,101,179484,2,0,P|66:103|38:94,1,51.5,0|10,0:0|0:0,0:0:0:0:
60,199,179984,5,8,0:0:0:0:
138,265,180317,2,0,P|162:303|169:325,2,51.5,0|0|0,0:0|0:0|0:0,0:0:0:0:
238,240,180984,1,0,0:0:0:0:
238,240,181150,2,0,P|297:239|352:216,1,103
356,176,181650,1,8,0:0:0:0:
332,78,181984,5,0,0:0:0:0:
236,115,182317,1,0,0:0:0:0:
180,201,182650,2,0,P|218:233|277:231,1,103
278,284,183150,2,0,P|316:316|375:314,1,103
408,286,183650,1,8,0:0:0:0:
411,182,183984,1,0,0:0:0:0:
411,182,184317,1,0,0:0:0:0:
411,182,184650,2,0,P|385:134|158:168,1,309,4|8,0:0|0:0,0:0:0:0:
59,300,186318,5,0,0:0:0:0:
44,198,186650,2,0,P|74:190|138:145,1,103,4|0,0:0|0:0,0:0:0:0:
183,136,187150,2,0,P|215:149|222:214,1,103
263,237,187650,2,0,P|342:252|381:241,1,103,10|8,0:0|0:0,0:0:0:0:
405,219,188150,1,0,0:0:0:0:
256,192,188650,12,0,191483,0:0:0:0:
422,48,191984,6,0,L|466:83,1,51.5
423,112,192317,2,0,L|467:147,1,51.5
422,176,192650,2,0,P|420:219|378:264,1,103,4|0,0:0|0:0,0:0:0:0:
330,268,193150,2,0,P|271:283|219:264,1,103,2|0,0:0|0:0,0:0:0:0:
186,246,193650,2,0,P|161:231|157:115,1,154.5,8|0,0:0|0:0,0:0:0:0:
200,95,194317,1,0,0:0:0:0:
278,161,194650,6,0,P|314:144|340:74,1,103
392,92,195150,2,0,P|410:138|454:163,1,103
365,184,195650,1,12,0:0:0:0:
294,259,195984,1,12,0:0:0:0:
206,313,196317,2,0,L|179:265,1,51.5,8|8,0:0|0:0,0:0:0:0:
155,227,196650,2,0,P|111:203|93:150,1,103,12|0,0:0|0:0,0:0:0:0:
72,108,197150,2,0,P|46:51|78:30,1,103,2|0,0:0|0:0,0:0:0:0:
121,33,197650,2,0,P|224:104|320:97,1,206,12|0,0:0|0:0,0:0:0:0:
400,140,198650,6,0,P|425:181|409:290,2,154.5,0|0|8,0:0|0:0|0:0,0:0:0:0:
325,67,199984,1,0,0:0:0:0:
222,67,200317,1,0,0:0:0:0:
135,122,200650,2,0,P|117:154|127:219,1,103,4|0,0:0|0:0,0:0:0:0:
90,254,201150,1,0,0:0:0:0:
179,304,201484,2,0,P|162:330|141:337,1,51.5,0|8,0:0|0:0,0:0:0:0:
289,284,201984,1,0,0:0:0:0:
369,220,202317,1,0,0:0:0:0:
272,183,202650,6,0,P|329:79|407:94,1,206,4|0,0:0|0:0,0:0:0:0:
272,182,203650,2,0,P|333:284|281:344,1,206,12|0,0:0|0:0,0:0:0:0:
272,182,204650,2,0,P|153:185|136:158,1,154.5,4|8,0:0|0:0,0:0:0:0:
101,135,205317,2,0,P|100:172|42:204,2,103,0|0|8,0:0|0:0|0:0,0:0:0:0:
130,92,206150,2,0,L|82:64,2,51.5,0|8|0,0:0|0:0|0:0,0:0:0:0:
174,71,206650,1,0,0:0:0:0:
253,137,206984,6,0,P|254:177|249:195,1,51.5,4|0,0:0|0:0,0:0:0:0:
206,162,207317,2,0,P|207:202|202:220,1,51.5,8|8,0:0|0:0,0:0:0:0:
164,180,207650,2,0,P|165:220|160:238,1,51.5
119,201,207984,2,0,P|120:241|115:259,1,51.5,8|8,0:0|0:0,0:0:0:0:
70,230,208317,2,0,P|53:252|76:319,1,103,12|0,0:0|0:0,0:0:0:0:
124,326,208817,6,0,P|170:332|177:348,2,51.5,0|8|0,0:0|0:0|0:0,0:0:0:0:
220,312,209317,2,0,P|259:321|323:277,1,103,12|8,0:0|0:0,0:0:0:0:
307,242,209817,2,0,L|319:189,2,51.5,0|0|0,0:0|0:0|0:0,0:0:0:0:
274,167,210317,2,0,P|273:135|209:119,2,103,12|8|8,0:0|0:0|0:0,0:0:0:0:
234,203,211150,2,0,L|174:241,2,51.5,8|8|8,0:0|0:0|0:0,0:0:0:0:
133,225,211650,2,0,P|106:216|79:146,1,103,12|0,0:0|0:0,0:0:0:0:
105,108,212150,1,0,0:0:0:0:
144,75,212317,6,0,P|169:95|238:67,1,103,8|8,0:0|0:0,0:0:0:0:
260,106,212817,1,0,0:0:0:0:
292,131,212984,1,0,0:0:0:0:
330,144,213150,1,0,0:0:0:0:
370,153,213317,2,0,L|372:100,2,51.5,12|8|8,0:0|0:0|0:0,0:0:0:0:
394,186,213817,5,0,0:0:0:0:
420,217,213984,1,0,0:0:0:0:
429,256,214150,1,0,0:0:0:0:
406,290,214317,2,0,L|443:334,2,51.5,12|8|8,0:0|0:0|0:0,0:0:0:0:
357,307,214817,2,0,L|334:353,1,51.5
309,279,215150,2,0,L|280:334,1,51.5
272,247,215484,1,0,0:0:0:0:
237,197,215650,6,0,L|237:141,12,51.5,12|8|8|8|8|8|8|8|8|8|8|8|12,0:0|0:0|0:0|0:0|0:0|0:0|0:0|0:0|0:0|0:0|0:0|0:0|0:0,0:0:0:0:
256,192,216817,12,0,224650,0:0:0:0:
