osu file format v13

[General]
AudioFilename: Palette.mp3
AudioLeadIn: 0
PreviewTime: 77900
Countdown: 0
SampleSet: Soft
StackLeniency: 0.7
Mode: 0
LetterboxInBreaks: 0
WidescreenStoryboard: 0

[Editor]
Bookmarks: 138650,139650,140650,141650,142650,143650,144650,145650,146650,147650,148650,149650,150650,155650,156650,158650,160650,161650,162650,164650
DistanceSpacing: 0.5
BeatDivisor: 4
GridSize: 16
TimelineZoom: 3.799999

[Metadata]
Title:Palette
TitleUnicode:Palette
Artist:nano
ArtistUnicode:ナノ
Creator:Qc321die
Version:Insane
Source:
Tags:Vocaloid Nanoir
BeatmapID:469026
BeatmapSetID:197759

[Difficulty]
HPDrainRate:7
CircleSize:4
OverallDifficulty:8
ApproachRate:9
SliderMultiplier:1.8
SliderTickRate:1

[Events]
//Background and Video events
0,0,"Nano_PaletteBG.jpg",0,0
//Break Periods
2,126183,129384
2,132849,134050
2,173850,175050
//Storyboard Layer 0 (Background)
//Storyboard Layer 1 (Fail)
//Storyboard Layer 2 (Pass)
//Storyboard Layer 3 (Foreground)
//Storyboard Sound Samples
//Background Colour Transformations
3,100,163,162,255

[TimingPoints]
651,333.333333333333,3,2,1,50,1,0
31672,-80,3,1,1,85,0,0
32650,-80,3,3,1,85,0,0
32984,-80,3,1,1,85,0,0
35984,-80,3,3,1,85,0,0
36317,-80,3,1,1,85,0,0
48650,-100,3,2,1,50,0,0
77984,-100,3,2,1,85,0,1
109984,-100,3,2,1,85,0,0
112650,-100,3,2,1,5,0,0
113317,-133.333333333333,3,2,1,25,0,0
122984,-133.333333333333,3,1,1,25,0,0
123317,-133.333333333333,3,2,1,25,0,0
129984,-133.333333333333,3,2,1,5,0,0
138650,-133.333333333333,3,2,1,50,0,0
172650,-200,3,2,1,50,0,0
175650,-100,3,2,1,45,0,0
176650,-100,3,2,1,85,0,1
216650,-100,3,2,1,85,0,0
224650,-100,3,2,1,5,0,0

[HitObjects]
256,48,32650,5,12,0:0:0:0:
256,256,32984,1,8,0:0:0:0:
256,272,33067,1,8,0:0:0:0:
256,288,33150,2,8,L|256:144,1,112.5,0|8,0:0|0:0,0:0:0:0:
126,240,33484,1,0,0:0:0:0:
28,332,33650,2,8,P|32:236|144:128,1,225
264,46,34150,6,0,L|256:176,1,112.5,0|8,0:0|0:0,0:0:0:0:
267,184,34400,1,8,0:0:0:0:
286,204,34484,1,8,0:0:0:0:
310,217,34567,1,8,0:0:0:0:
337,221,34650,2,0,P|410:215|453:162,1,112.5,0|8,0:0|0:0,0:0:0:0:
339,330,34984,1,0,0:0:0:0:
191,249,35150,1,0,0:0:0:0:
238,338,35317,1,0,0:0:0:0:
376,241,35484,1,0,0:0:0:0:
402,75,35650,2,0,L|290:32,1,112.5,0|8,0:0|0:0,0:0:0:0:
152,75,35984,6,8,L|176:144,1,56.25
107,134,36150,2,8,L|160:176,1,56.25
104,203,36317,1,8,0:0:0:0:
256,148,36484,1,8,0:0:0:0:
397,71,36650,1,8,0:0:0:0:
342,223,36817,1,0,0:0:0:0:
184,183,36984,2,0,L|272:96,2,112.5,8|0|8,0:0|0:0|0:0,0:0:0:0:
325,261,37484,1,8,0:0:0:0:
480,304,37650,1,8,0:0:0:0:
267,260,37817,5,0,0:0:0:0:
102,219,37984,1,8,0:0:0:0:
175,269,38150,1,0,0:0:0:0:
68,137,38317,1,8,0:0:0:0:
232,98,38484,1,0,0:0:0:0:
68,58,38650,1,8,0:0:0:0:
194,169,38817,1,0,0:0:0:0:
204,337,38984,1,8,0:0:0:0:
302,280,39150,6,0,L|368:160,1,112.5
283,209,39484,2,0,L|272:64,1,112.5,0|8,0:0|0:0,0:0:0:0:
255,117,39734,1,8,0:0:0:0:
236,138,39817,2,0,L|168:44,1,112.5,8|0,0:0|0:0,0:0:0:0:
160,57,40025,2,4,L|122:94,6,28.125
126,104,40317,2,8,L|120:167,4,56.25,8|8|8|8|8,0:0|0:0|0:0|0:0|0:0,0:0:0:0:
139,272,40817,5,0,0:0:0:0:
233,264,40984,2,0,P|220:321|179:358,2,112.5,0|0|0,0:0|0:0|0:0,0:0:0:0:
332,210,41484,1,0,0:0:0:0:
431,262,41650,2,0,P|444:319|485:356,2,112.5,0|0|0,0:0|0:0|0:0,0:0:0:0:
332,210,42150,1,0,0:0:0:0:
334,97,42317,1,0,0:0:0:0:
307,68,42400,1,0,0:0:0:0:
268,57,42484,1,0,0:0:0:0:
229,64,42567,1,0,0:0:0:0:
203,93,42650,6,0,P|148:121|109:92,1,112.5
45,139,42984,2,0,P|41:197|75:241,1,112.5
141,276,43317,2,0,P|145:218|111:174,1,112.5
235,293,43650,1,0,0:0:0:0:
274,294,43734,1,0,0:0:0:0:
311,282,43817,1,0,0:0:0:0:
340,256,43900,1,0,0:0:0:0:
356,219,43984,1,0,0:0:0:0:
358,207,44067,1,0,0:0:0:0:
360,195,44150,1,0,0:0:0:0:
362,183,44234,1,0,0:0:0:0:
364,172,44317,2,0,P|368:103|338:71,1,112.5
341,73,44650,1,0,0:0:0:0:
172,61,44817,5,0,0:0:0:0:
95,143,44984,1,0,0:0:0:0:
254,197,45150,1,0,0:0:0:0:
177,279,45317,2,0,P|110:307|66:301,2,112.5,0|0|0,0:0|0:0|0:0,0:0:0:0:
345,295,45817,1,0,0:0:0:0:
418,142,45984,1,0,0:0:0:0:
438,313,46150,2,0,P|425:243|391:211,1,112.5
295,78,46484,1,0,0:0:0:0:
295,78,46650,1,0,0:0:0:0:
155,173,46817,2,0,P|129:113|83:95,1,112.5
75,264,47150,1,0,0:0:0:0:
75,264,47317,1,0,0:0:0:0:
235,317,47484,1,0,0:0:0:0:
324,249,47650,6,0,L|365:209,3,56.25,0|0|0|0,0:0|0:0|0:0|0:0,0:0:0:0:
279,246,47984,2,0,L|220:227,3,56.25,0|0|0|0,0:0|0:0|0:0|0:0,0:0:0:0:
205,219,48317,1,0,0:0:0:0:
186,206,48400,1,0,0:0:0:0:
168,191,48484,1,0,0:0:0:0:
153,174,48567,1,0,0:0:0:0:
153,156,48650,6,0,P|188:94|299:95,1,180,4|0,0:0|0:0,0:0:0:0:
288,87,49150,1,0,0:0:0:0:
194,318,49484,5,0,0:0:0:0:
194,318,49650,2,0,P|267:306|303:278,1,90,0|0,0:0|0:0,0:0:0:0:
252,211,49984,1,0,0:0:0:0:
333,174,50150,2,0,P|397:187|433:224,1,90
347,261,50484,1,0,0:0:0:0:
252,211,50650,1,0,0:0:0:0:
142,94,50817,2,0,B|217:146|220:8|317:94,1,180,8|0,0:0|0:0,0:0:0:0:
419,153,51317,1,0,0:0:0:0:
393,285,51484,1,0,0:0:0:0:
235,302,51650,2,0,L|305:324,3,45,8|8|8|0,0:0|0:0|0:0|0:0,0:0:0:0:
208,291,51984,6,0,P|123:253|129:177,1,180,12|0,0:0|0:0,0:0:0:0:
188,220,52484,2,0,P|198:158|177:125,1,90,8|0,0:0|0:0,0:0:0:0:
296,172,52817,1,0,0:0:0:0:
402,122,52984,2,0,P|392:183|412:215,1,90
320,288,53317,1,0,0:0:0:0:
217,139,53484,1,0,0:0:0:0:
83,120,53650,2,0,P|66:201|119:279,1,180
251,295,54150,6,0,P|211:258|206:212,1,90,8|0,0:0|0:0,0:0:0:0:
335,188,54484,1,0,0:0:0:0:
220,117,54650,2,0,P|248:74|230:33,1,90
372,56,54984,2,0,P|419:107|419:143,1,90,8|0,0:0|0:0,0:0:0:0:
287,161,55317,2,0,P|280:232|390:260,1,180
287,161,55817,2,0,P|218:163|185:209,1,90,8|0,0:0|0:0,0:0:0:0:
323,124,56150,5,0,0:0:0:0:
323,259,56317,1,0,0:0:0:0:
188,259,56484,1,0,0:0:0:0:
188,124,56650,2,0,P|96:160|105:238,2,180
161,190,57484,2,0,P|117:116|179:52,1,180,8|0,0:0|0:0,0:0:0:0:
305,69,57984,1,0,0:0:0:0:
407,155,58150,1,0,0:0:0:0:
310,249,58317,1,8,0:0:0:0:
310,249,58400,1,8,0:0:0:0:
310,249,58484,1,8,0:0:0:0:
310,249,58567,1,8,0:0:0:0:
310,249,58650,6,0,P|236:283|218:278,1,90,12|0,0:0|0:0,0:0:0:0:
182,155,58984,1,0,0:0:0:0:
129,278,59150,1,8,0:0:0:0:
63,159,59317,1,0,0:0:0:0:
128,40,59484,2,0,P|182:58|212:86,1,90
341,85,59817,2,0,P|394:118|415:150,1,90
287,197,60150,2,0,P|327:227|345:278,1,90
207,271,60484,1,0,0:0:0:0:
329,327,60650,1,0,0:0:0:0:
207,271,60817,2,0,P|128:260|98:280,1,90,8|0,0:0|0:0,0:0:0:0:
102,128,61150,5,0,0:0:0:0:
221,64,61317,1,0,0:0:0:0:
102,128,61484,2,0,P|153:170|193:183,1,90,0|8,0:0|0:0,0:0:0:0:
176,336,61817,1,0,0:0:0:0:
176,336,61983,6,0,P|128:336|80:304,1,90,4|2,0:0|0:0,0:0:0:0:
336,336,62317,2,0,P|384:336|416:304,1,90,2|0,0:0|0:0,0:0:0:0:
176,208,62650,2,0,P|128:208|80:176,1,90,12|2,0:0|0:0,0:0:0:0:
336,208,62984,2,0,P|384:208|416:176,1,90,0|10,0:0|0:0,0:0:0:0:
256,96,63317,2,0,L|256:192,2,90,0|4|8,0:0|0:0|0:0,0:0:0:0:
256,320,63817,1,8,0:0:0:0:
427,120,63984,2,0,P|450:169|431:313,1,180,4|0,0:0|0:0,0:0:0:0:
85,264,64650,2,0,P|62:215|81:71,1,180,8|8,0:0|0:0,0:0:0:0:
336,48,65317,1,4,0:0:0:0:
192,272,65650,1,8,0:0:0:0:
320,256,65817,5,8,0:0:0:0:
324,255,65900,1,8,0:0:0:0:
328,254,65984,2,0,P|379:209|378:165,1,90,12|0,0:0|0:0,0:0:0:0:
303,80,66317,1,2,0:0:0:0:
167,80,66484,1,0,0:0:0:0:
104,198,66650,1,8,0:0:0:0:
173,314,66817,1,0,0:0:0:0:
308,320,66984,2,0,P|362:310|414:285,1,90,4|0,0:0|0:0,0:0:0:0:
419,163,67317,5,4,0:0:0:0:
295,218,67484,1,0,0:0:0:0:
336,90,67650,1,8,0:0:0:0:
216,152,67817,1,0,0:0:0:0:
258,23,67984,1,4,0:0:0:0:
144,94,68150,2,0,P|98:126|68:179,1,90
208,193,68484,2,0,P|281:160|299:124,1,90,4|8,0:0|0:0,0:0:0:0:
314,286,68817,2,0,P|371:317|386:364,1,90,2|8,0:0|0:0,0:0:0:0:
397,320,69067,1,8,0:0:0:0:
410,302,69150,1,8,0:0:0:0:
419,281,69234,1,8,0:0:0:0:
424,259,69317,2,0,L|417:208,4,45,8|8|8|8|8,0:0|0:0|0:0|0:0|0:0,0:0:0:0:
318,92,69817,5,8,0:0:0:0:
182,90,69984,2,0,P|137:90|120:52,2,90,4|0|0,0:0|0:0|0:0,0:0:0:0:
144,219,70484,2,0,P|189:232|245:209,1,90,2|0,0:0|0:0,0:0:0:0:
349,158,70817,1,0,0:0:0:0:
395,285,70984,2,0,P|382:239|349:208,1,90
223,170,71317,1,0,0:0:0:0:
269,297,71484,2,0,P|256:251|223:220,1,90,0|8,0:0|0:0,0:0:0:0:
96,185,71817,1,0,0:0:0:0:
142,312,71984,2,0,P|129:266|96:235,1,90
127,104,72317,5,0,0:0:0:0:
255,60,72484,1,0,0:0:0:0:
382,103,72650,2,0,P|406:168|305:227,1,180,8|8,0:0|0:0,0:0:0:0:
334,158,73150,1,0,0:0:0:0:
222,234,73317,2,0,P|169:218|144:181,1,90
95,316,73650,1,8,0:0:0:0:
117,316,73734,1,8,0:0:0:0:
139,314,73817,1,8,0:0:0:0:
161,311,73900,1,8,0:0:0:0:
183,306,73984,1,8,0:0:0:0:
269,283,74150,1,8,0:0:0:0:
375,200,74317,2,0,P|432:248|395:351,2,180,8|8|0,0:0|0:0|0:0,0:0:0:0:
308,82,75150,6,0,P|259:126|236:126,1,90
102,114,75484,2,0,P|151:70|174:70,1,90
167,204,75817,2,0,P|118:248|95:248,1,90
292,242,76150,2,0,L|389:288,1,90
248,335,76484,1,0,0:0:0:0:
373,280,76650,2,0,P|421:235|432:192,1,90,8|0,0:0|0:0,0:0:0:0:
379,86,76984,5,8,0:0:0:0:
356,83,77067,1,8,0:0:0:0:
333,80,77150,2,0,L|285:74,6,45,0|0|0|0|0|0|8,0:0|0:0|0:0|0:0|0:0|0:0|0:0,0:0:0:0:
319,278,77984,6,0,P|379:309|466:240,2,180
288,146,78817,1,0,0:0:0:0:
175,289,78984,1,8,0:0:0:0:
351,239,79150,1,0,0:0:0:0:
179,177,79317,1,0,0:0:0:0:
281,328,79484,1,8,0:0:0:0:
288,146,79650,2,0,P|280:76|174:61,2,180
127,231,80484,6,0,P|136:278|175:301,1,90
385,153,80817,2,0,P|376:106|337:83,1,90,0|8,0:0|0:0,0:0:0:0:
238,259,81150,2,0,P|247:306|286:329,1,90,8|0,0:0|0:0,0:0:0:0:
496,181,81484,2,0,P|487:134|448:111,1,90
93,86,81984,1,0,0:0:0:0:
430,170,82317,5,0,0:0:0:0:
375,293,82484,1,0,0:0:0:0:
300,181,82650,1,0,0:0:0:0:
430,170,82817,1,0,0:0:0:0:
375,293,82984,1,8,0:0:0:0:
300,181,83150,2,0,P|245:138|207:131,1,90
189,263,83484,1,8,0:0:0:0:
156,132,83650,2,0,P|181:71|235:56,1,90
329,99,83984,5,0,0:0:0:0:
248,137,84150,1,0,0:0:0:0:
139,280,84317,5,0,0:0:0:0:
220,242,84483,1,0,0:0:0:0:
384,168,84650,5,0,0:0:0:0:
303,206,84816,1,0,0:0:0:0:
194,349,84983,5,8,0:0:0:0:
275,311,85149,1,0,0:0:0:0:
357,274,85317,2,0,P|419:234|453:121,2,180
256,192,86067,12,0,87650,0:0:0:0:
138,84,87984,6,0,P|109:142|110:186,1,90
138,297,88317,1,0,0:0:0:0:
245,215,88484,1,0,0:0:0:0:
353,294,88650,2,0,P|380:255|396:201,1,90
388,79,88984,1,8,0:0:0:0:
265,134,89150,1,8,0:0:0:0:
159,49,89317,2,0,P|128:109|135:154,1,90
82,257,89650,1,0,0:0:0:0:
128,129,89817,1,0,0:0:0:0:
82,257,89984,2,0,P|142:306|246:275,1,180,4|0,0:0|0:0,0:0:0:0:
323,195,90484,5,0,0:0:0:0:
445,278,90650,1,0,0:0:0:0:
391,156,90817,1,0,0:0:0:0:
370,289,90984,2,0,P|322:295|259:273,1,90,8|0,0:0|0:0,0:0:0:0:
220,165,91317,1,0,0:0:0:0:
106,90,91484,1,8,0:0:0:0:
112,224,91650,1,0,0:0:0:0:
177,105,91817,1,0,0:0:0:0:
306,66,91984,2,0,P|374:68|401:102,1,90
303,185,92317,5,0,0:0:0:0:
339,315,92484,1,0,0:0:0:0:
207,351,92650,1,0,0:0:0:0:
172,220,92817,1,0,0:0:0:0:
143,87,92984,2,0,P|185:51|226:48,1,90,8|0,0:0|0:0,0:0:0:0:
352,54,93317,5,8,0:0:0:0:
371,65,93400,1,8,0:0:0:0:
386,81,93484,1,8,0:0:0:0:
397,100,93567,1,8,0:0:0:0:
405,120,93650,1,8,0:0:0:0:
409,142,93734,1,8,0:0:0:0:
408,164,93817,1,8,0:0:0:0:
403,186,93900,1,8,0:0:0:0:
393,206,93984,2,0,P|354:261|229:283,1,180,12|0,0:0|0:0,0:0:0:0:
141,206,94484,1,0,0:0:0:0:
95,66,94650,6,0,P|122:120|100:176,1,90
215,52,94984,2,0,P|235:97|223:153,1,90,8|0,0:0|0:0,0:0:0:0:
197,267,95317,1,0,0:0:0:0:
330,248,95484,2,0,P|382:207|395:144,1,90,8|0,0:0|0:0,0:0:0:0:
405,321,95817,1,0,0:0:0:0:
479,208,95984,2,0,P|480:138|375:74,1,180
272,122,96484,6,0,P|257:181|216:188,2,90
144,80,96984,1,8,0:0:0:0:
144,256,97150,1,8,0:0:0:0:
144,80,97317,1,8,0:0:0:0:
144,256,97484,1,8,0:0:0:0:
320,256,97650,2,0,P|384:224|464:128,1,180,12|0,0:0|0:0,0:0:0:0:
256,128,98150,5,0,0:0:0:0:
218,243,98317,1,0,0:0:0:0:
316,172,98484,1,0,0:0:0:0:
195,172,98650,1,0,0:0:0:0:
293,243,98817,1,0,0:0:0:0:
256,95,98984,5,8,0:0:0:0:
199,269,99151,1,0,0:0:0:0:
347,162,99318,1,0,0:0:0:0:
164,162,99484,1,8,0:0:0:0:
312,269,99651,1,8,0:0:0:0:
256,47,99817,5,8,0:0:0:0:
171,308,99984,2,0,P|112:256|64:160,1,180,12|0,0:0|0:0,0:0:0:0:
415,55,100650,1,0,0:0:0:0:
238,201,100984,1,8,0:0:0:0:
342,348,101150,1,8,0:0:0:0:
125,59,101317,1,8,0:0:0:0:
380,252,101650,2,0,P|400:187|333:100,1,180
205,81,102150,6,0,P|159:132|149:167,1,90
287,158,102484,2,0,P|356:116|374:88,1,90
443,216,102817,1,0,0:0:0:0:
211,303,102984,1,0,0:0:0:0:
87,250,103150,2,0,P|71:192|94:144,1,90
243,38,103484,1,0,0:0:0:0:
79,164,103650,2,0,P|141:200|175:198,1,90
293,186,103984,1,8,0:0:0:0:
181,260,104150,1,8,0:0:0:0:
316,262,104317,1,8,0:0:0:0:
203,187,104484,2,0,P|215:137|263:104,2,90
231,319,104984,5,8,0:0:0:0:
395,157,105150,1,8,0:0:0:0:
231,319,105317,1,0,0:0:0:0:
395,157,105484,1,0,0:0:0:0:
211,64,105650,1,8,0:0:0:0:
309,245,105817,1,8,0:0:0:0:
211,64,105984,2,0,P|112:126|76:209,1,180,12|0,0:0|0:0,0:0:0:0:
218,183,106484,6,0,P|253:220|244:272,1,90
151,189,106817,2,0,P|165:143|199:118,1,90,0|8,0:0|0:0,0:0:0:0:
328,150,107150,2,0,P|386:191|402:228,2,90,0|0|8,0:0|0:0|0:0,0:0:0:0:
177,80,107650,2,0,P|99:74|63:90,2,90,0|0|8,0:0|0:0|0:0,0:0:0:0:
132,207,108150,1,8,0:0:0:0:
226,303,108317,1,8,0:0:0:0:
358,274,108484,1,8,0:0:0:0:
395,144,108650,1,8,0:0:0:0:
292,55,108817,1,8,0:0:0:0:
160,85,108984,5,8,0:0:0:0:
144,100,109067,1,0,0:0:0:0:
132,119,109150,1,0,0:0:0:0:
122,139,109234,1,0,0:0:0:0:
116,160,109317,1,0,0:0:0:0:
112,182,109400,1,0,0:0:0:0:
110,204,109484,1,0,0:0:0:0:
109,226,109567,1,0,0:0:0:0:
113,247,109650,2,0,P|161:284|225:286,2,90,8|8|0,0:0|0:0|0:0,0:0:0:0:
256,192,110067,12,0,112650,0:0:0:0:
179,92,113317,6,0,P|220:79|323:123,1,135.000005149842,0|8,0:0|0:0,0:0:0:0:
232,175,113817,1,0,0:0:0:0:
138,213,113984,2,0,P|160:257|201:278,1,67.5000025749208,0|8,0:0|0:0,0:0:0:0:
274,280,114317,2,0,P|385:257|418:231,1,135.000005149842,8|0,0:0|0:0,0:0:0:0:
216,48,114984,2,0,P|105:71|95:100,1,135.000005149842
170,106,115484,2,0,P|229:166|209:226,1,135.000005149842,8|0,0:0|0:0,0:0:0:0:
157,177,115984,2,0,L|291:122,2,135.000005149842,8|8|4,0:0|0:0|0:0,0:0:0:0:
359,189,116984,6,0,P|361:222|335:268,1,67.5000025749208,0|8,0:0|0:0,0:0:0:0:
304,125,117317,1,0,0:0:0:0:
229,238,117484,2,0,P|225:277|194:302,1,67.5000025749208,0|8,0:0|0:0,0:0:0:0:
60,155,117984,1,0,0:0:0:0:
90,250,118150,1,0,0:0:0:0:
123,342,118317,2,0,P|87:348|46:342,2,67.5000025749208
256,321,118817,2,0,P|311:304|329:277,1,67.5000025749208,8|0,0:0|0:0,0:0:0:0:
366,133,119150,1,0,0:0:0:0:
396,229,119317,2,0,P|448:164|452:88,1,135.000005149842,8|0,0:0|0:0,0:0:0:0:
455,114,119817,1,0,0:0:0:0:
300,58,119984,6,0,P|246:48|168:78,1,135.000005149842
172,74,120484,1,8,0:0:0:0:
125,339,120817,1,8,0:0:0:0:
256,308,120984,1,8,0:0:0:0:
424,196,121317,2,0,P|447:235|448:262,1,67.5000025749208,2|0,0:0|0:0,0:0:0:0:
424,195,121650,2,0,P|363:183|282:223,1,135.000005149842,2|0,0:0|0:0,0:0:0:0:
243,84,122150,2,0,P|171:107|106:158,1,135.000005149842,8|0,0:0|0:0,0:0:0:0:
170,267,122650,2,0,P|228:277|257:257,1,67.5000025749208,8|0,0:0|0:0,0:0:0:0:
374,98,122984,1,8,0:0:0:0:
336,208,123317,6,0,P|256:264|176:208,2,202.500007724762
256,192,124650,1,0,0:0:0:0:
176,176,124984,2,0,P|256:120|336:176,2,202.500007724762
136,192,129984,6,0,B|136:80|136:72|256:72,2,202.500007724762
256,192,131317,5,0,0:0:0:0:
376,192,131650,6,0,B|376:304|376:312|256:312,2,202.500007724762
256,192,134650,12,0,136650,0:0:0:0:
65,157,138650,6,0,P|87:107|173:66,1,135.000005149842
327,100,139317,1,0,0:0:0:0:
392,262,139651,1,0,0:0:0:0:
258,375,139984,1,0,0:0:0:0:
110,281,140317,1,0,0:0:0:0:
152,110,140650,2,0,P|195:171|256:190,1,135.000005149842
262,99,141150,1,0,0:0:0:0:
263,9,141317,2,0,P|335:37|392:96,2,135.000005149842
262,100,142150,1,0,0:0:0:0:
249,189,142317,2,0,P|188:165|152:110,2,135.000005149842,0|0|0,0:0|0:0|0:0,0:0:0:0:
392,282,143317,5,0,0:0:0:0:
390,73,143650,2,0,P|325:82|269:160,2,135.000005149842
119,78,144650,2,0,P|171:102|190:180,1,135.000005149842
117,156,145150,1,0,0:0:0:0:
137,226,145317,2,0,P|189:251|257:211,2,135.000005149842,0|0|0,0:0|0:0|0:0,0:0:0:0:
192,177,146150,1,0,0:0:0:0:
238,102,146317,2,0,P|320:109|378:144,1,135.000005149842
277,207,146817,6,0,P|293:236|300:269,1,67.5000025749208
227,318,147150,2,0,P|226:351|218:384,1,67.5000025749208
134,357,147484,1,0,0:0:0:0:
64,305,147650,2,0,P|101:249|162:222,1,135.000005149842
307,226,148150,6,0,P|262:229|239:216,2,67.5000025749208
394,234,148650,2,0,P|452:224|503:171,1,135.000005149842
484,84,149150,1,0,0:0:0:0:
404,42,149317,1,0,0:0:0:0:
315,59,149484,1,0,0:0:0:0:
269,136,149650,2,0,P|203:94|183:39,1,135.000005149842
106,86,150150,1,0,0:0:0:0:
153,162,150317,1,0,0:0:0:0:
96,231,150484,1,0,0:0:0:0:
150,301,150650,2,0,P|253:287|284:273,1,135.000005149842
413,218,151317,5,0,0:0:0:0:
320,63,151650,1,0,0:0:0:0:
140,79,151984,1,0,0:0:0:0:
63,241,152317,1,0,0:0:0:0:
241,223,152650,2,0,P|261:158|252:90,2,135.000005149842
376,103,153650,2,0,P|441:129|471:193,2,135.000005149842,0|0|2,0:0|0:0|0:0,0:0:0:0:
202,153,154650,2,0,P|202:213|263:255,1,135.000005149842
283,170,155150,6,0,P|285:131|263:97,1,67.5000025749208
194,64,155484,2,0,P|156:78|129:108,1,67.5000025749208,0|8,0:0|0:0,0:0:0:0:
115,181,155817,1,0,0:0:0:0:
161,255,155984,1,0,0:0:0:0:
246,274,156150,1,0,0:0:0:0:
332,258,156317,1,0,0:0:0:0:
367,177,156484,2,0,P|405:188|426:215,1,67.5000025749208
184,178,156984,5,0,0:0:0:0:
164,262,157150,2,0,P|160:300|130:326,1,67.5000025749208,0|2,0:0|0:0,0:0:0:0:
77,258,157484,2,0,P|83:221|114:189,1,67.5000025749208,0|8,0:0|0:0,0:0:0:0:
142,129,157817,2,0,P|178:159|184:184,1,67.5000025749208
249,226,158150,1,0,0:0:0:0:
247,135,158317,1,0,0:0:0:0:
326,178,158484,1,0,0:0:0:0:
323,88,158650,2,0,P|286:35|215:1,2,135.000005149842,2|0|0,0:0|0:0|0:0,0:0:0:0:
256,192,159650,5,8,0:0:0:0:
388,249,159984,2,0,P|348:304|289:333,2,135.000005149842
401,69,160984,1,0,0:0:0:0:
228,121,161317,1,2,0:0:0:0:
133,274,161650,2,0,P|109:252|89:222,1,67.5000025749208,8|0,0:0|0:0,0:0:0:0:
200,62,161984,2,0,P|231:79|242:107,1,67.5000025749208
322,293,162317,2,0,P|356:286|383:256,1,67.5000025749208
389,163,162650,2,0,P|388:108|321:108,1,135.000005149842,4|0,0:0|0:0,0:0:0:0:
299,236,163150,6,0,P|266:257|238:261,1,67.5000025749208
78,145,163484,2,0,P|109:123|142:117,1,67.5000025749208,0|8,0:0|0:0,0:0:0:0:
316,228,163817,2,0,P|291:245|254:250,1,67.5000025749208
95,137,164150,2,0,P|125:119|162:113,1,67.5000025749208
267,96,164484,1,0,0:0:0:0:
436,140,164650,2,0,P|439:204|411:269,2,135.000005149842
256,320,165484,5,0,0:0:0:0:
256,224,165650,1,8,0:0:0:0:
192,176,165817,2,0,P|175:212|185:258,1,67.5000025749208
320,176,166150,2,0,P|337:212|327:258,1,67.5000025749208
192,96,166484,2,0,P|154:104|127:139,1,67.5000025749208,0|4,0:0|0:0,0:0:0:0:
320,96,166817,2,0,P|358:104|385:139,1,67.5000025749208,0|4,0:0|0:0,0:0:0:0:
192,16,167150,2,0,P|165:15|96:32,1,67.5000025749208
320,16,167484,2,0,P|347:15|416:32,1,67.5000025749208
256,352,167984,6,0,P|249:283|204:235,2,135.000005149842
256,352,168984,2,0,P|263:283|308:235,2,135.000005149842
128,112,169984,2,0,P|88:101|68:78,1,67.5000025749208
197,176,170317,2,0,P|225:198|242:228,1,67.5000025749208
358,209,170650,2,0,P|415:169|433:103,1,135.000005149842,4|0,0:0|0:0,0:0:0:0:
236,86,171317,1,0,0:0:0:0:
131,232,171650,1,8,0:0:0:0:
264,209,171984,2,0,P|280:235|278:298,1,67.5000025749208
343,191,172317,2,0,P|359:221|357:280,1,67.5000025749208
430,175,172650,6,0,P|477:158|379:115,1,270
75,199,175650,5,0,0:0:0:0:
79,190,175734,1,0,0:0:0:0:
83,182,175817,1,0,0:0:0:0:
87,174,175900,1,0,0:0:0:0:
91,164,175984,1,0,0:0:0:0:
94,156,176067,1,0,0:0:0:0:
98,148,176150,1,0,0:0:0:0:
102,139,176234,1,0,0:0:0:0:
106,130,176317,1,0,0:0:0:0:
109,122,176400,1,0,0:0:0:0:
114,113,176484,1,0,0:0:0:0:
119,106,176567,1,0,0:0:0:0:
123,98,176650,6,0,P|201:165|292:136,1,180
383,217,177150,1,0,0:0:0:0:
383,217,177317,2,0,P|316:225|285:249,1,90
239,309,177650,2,0,P|167:294|85:187,2,180,8|0|0,0:0|0:0|0:0,0:0:0:0:
95,219,178484,1,0,0:0:0:0:
123,87,178650,2,0,P|164:52|208:46,1,90
307,126,178984,2,0,P|382:130|423:148,1,90
399,269,179317,1,0,0:0:0:0:
265,248,179484,1,0,0:0:0:0:
205,127,179650,6,0,P|183:213|220:319,1,180,8|8,0:0|0:0,0:0:0:0:
71,292,180150,2,0,P|57:239|78:197,1,90,0|8,0:0|0:0,0:0:0:0:
119,81,180484,1,8,0:0:0:0:
167,250,180650,1,0,0:0:0:0:
280,323,180817,2,0,P|339:279|361:233,1,90
450,178,181150,1,0,0:0:0:0:
304,69,181317,1,0,0:0:0:0:
365,189,181484,2,0,P|390:125|423:91,1,90,0|8,0:0|0:0,0:0:0:0:
276,156,181817,2,0,P|222:174|184:198,2,90
225,281,182317,2,0,P|279:266|312:235,2,90
112,205,182817,5,0,0:0:0:0:
177,86,182984,1,0,0:0:0:0:
311,87,183150,1,0,0:0:0:0:
363,211,183317,1,0,0:0:0:0:
244,146,183484,2,0,P|248:73|255:37,1,90,0|8,0:0|0:0,0:0:0:0:
174,168,183817,1,0,0:0:0:0:
103,32,183984,5,0,0:0:0:0:
464,48,184317,1,0,0:0:0:0:
270,352,184650,1,0,0:0:0:0:
256,192,184734,12,8,185650,0:0:0:0:
208,96,185984,6,0,P|256:80|304:96,1,90
304,288,186317,2,0,P|256:304|208:288,1,90
352,144,186650,2,0,P|368:192|352:240,1,90
160,240,186984,2,0,P|144:192|160:144,1,90
256,80,187317,1,0,0:0:0:0:
368,192,187484,1,0,0:0:0:0:
256,304,187650,1,8,0:0:0:0:
144,192,187817,1,0,0:0:0:0:
256,256,187984,5,8,0:0:0:0:
256,240,188150,1,0,0:0:0:0:
256,224,188317,1,0,0:0:0:0:
256,208,188484,1,0,0:0:0:0:
256,192,188650,2,0,P|256:144|368:80,1,180,4|0,0:0|0:0,0:0:0:0:
408,202,189150,1,8,0:0:0:0:
352,325,189317,1,0,0:0:0:0:
161,289,189484,1,0,0:0:0:0:
165,130,189650,2,0,P|141:86|57:164,1,180,0|8,0:0|0:0,0:0:0:0:
81,264,190150,6,0,P|138:295|177:274,1,90,0|8,0:0|0:0,0:0:0:0:
274,218,190484,2,0,P|309:262|315:298,1,90
402,190,190817,2,0,P|410:146|379:97,1,90
262,62,191150,1,8,0:0:0:0:
76,147,191317,1,8,0:0:0:0:
76,147,191484,2,0,P|101:214|143:228,1,90,0|8,0:0|0:0,0:0:0:0:
365,122,191984,6,0,L|441:66,1,90
147,122,192317,2,0,L|71:66,1,90
224,256,192650,2,0,P|256:192|288:272,1,180
348,358,193150,2,0,P|259:332|257:323,1,90
211,225,193484,5,0,0:0:0:0:
158,348,193650,1,8,0:0:0:0:
30,303,193817,2,0,P|30:228|45:196,1,90
153,149,194150,1,0,0:0:0:0:
26,102,194317,1,0,0:0:0:0:
149,47,194484,2,0,P|99:88|93:140,1,90
209,176,194817,2,0,P|270:135|288:97,1,90
400,64,195150,2,0,P|453:103|454:136,2,90
394,199,195650,6,0,P|346:276|247:310,2,180,4|8|8,0:0|0:0|0:0,0:0:0:0:
471,311,196484,2,0,P|391:288|349:266,1,90,8|12,0:0|0:0,0:0:0:0:
277,202,196817,1,0,0:0:0:0:
204,87,196984,1,0,0:0:0:0:
87,154,197150,1,0,0:0:0:0:
81,289,197317,1,0,0:0:0:0:
87,154,197484,2,0,P|112:89|128:71,1,90,0|8,0:0|0:0,0:0:0:0:
190,192,197817,6,0,P|228:242|280:260,1,90
374,197,198150,1,0,0:0:0:0:
322,322,198317,1,0,0:0:0:0:
244,210,198484,1,0,0:0:0:0:
305,90,198650,2,0,P|374:59|491:65,2,180
139,304,199650,1,8,0:0:0:0:
144,33,199984,1,0,0:0:0:0:
386,152,200317,1,0,0:0:0:0:
117,176,200650,2,0,P|155:135|190:118,1,90,4|0,0:0|0:0,0:0:0:0:
304,185,200984,6,0,P|292:235|258:272,1,90
401,239,201317,2,0,P|379:285|337:314,1,90,0|0,0:0|0:0,0:0:0:0:
213,312,201650,2,0,P|166:240|174:211,1,90,8|0,0:0|0:0,0:0:0:0:
128,111,201984,1,0,0:0:0:0:
245,45,202150,1,0,0:0:0:0:
367,103,202317,1,0,0:0:0:0:
361,238,202484,1,0,0:0:0:0:
246,308,202650,2,0,P|233:222|278:141,1,180,4|0,0:0|0:0,0:0:0:0:
268,253,203150,5,0,0:0:0:0:
157,278,203317,1,0,0:0:0:0:
100,180,203484,1,0,0:0:0:0:
177,96,203650,2,0,P|269:74|357:118,1,180,4|8,0:0|0:0,0:0:0:0:
398,210,204150,5,0,0:0:0:0:
272,212,204317,1,0,0:0:0:0:
399,290,204484,1,0,0:0:0:0:
272,288,204650,2,0,P|177:319|71:324,1,180,4|0,0:0|0:0,0:0:0:0:
58,196,205150,2,0,P|108:163|139:171,1,90,8|0,0:0|0:0,0:0:0:0:
256,109,205484,2,0,P|247:46|229:28,1,90
108,87,205817,2,0,P|150:149|186:173,1,90,0|8,0:0|0:0,0:0:0:0:
144,292,206150,2,0,P|200:303|231:284,1,90,0|8,0:0|0:0,0:0:0:0:
358,322,206484,2,0,P|418:288|430:259,1,90
186,206,206817,6,0,P|186:156|218:115,1,90
427,173,207150,2,0,P|427:222|396:262,1,90,8|8,0:0|0:0,0:0:0:0:
211,264,207484,2,0,P|185:220|193:170,1,90
403,115,207817,2,0,P|428:158|421:208,1,90
268,317,208150,2,0,P|222:294|200:249,1,90
352,91,208484,2,0,P|395:116|414:163,1,90
410,173,208734,5,0,0:0:0:0:
399,192,208817,1,0,0:0:0:0:
384,208,208900,1,0,0:0:0:0:
367,223,208984,1,8,0:0:0:0:
349,237,209067,1,8,0:0:0:0:
328,247,209150,1,0,0:0:0:0:
307,255,209234,1,0,0:0:0:0:
285,260,209317,1,8,0:0:0:0:
262,260,209400,1,0,0:0:0:0:
239,256,209484,1,0,0:0:0:0:
217,249,209567,1,0,0:0:0:0:
197,238,209650,1,8,0:0:0:0:
62,251,209817,5,0,0:0:0:0:
139,140,209984,1,8,0:0:0:0:
272,152,210150,1,0,0:0:0:0:
365,54,210317,1,8,0:0:0:0:
385,63,210400,1,0,0:0:0:0:
403,75,210484,1,8,0:0:0:0:
420,89,210567,1,8,0:0:0:0:
436,104,210650,1,8,0:0:0:0:
439,239,210817,5,8,0:0:0:0:
173,64,210984,1,8,0:0:0:0:
133,294,211150,1,8,0:0:0:0:
393,160,211317,1,8,0:0:0:0:
71,252,211484,1,8,0:0:0:0:
371,359,211650,1,8,0:0:0:0:
92,132,211817,1,8,0:0:0:0:
111,143,211900,1,0,0:0:0:0:
132,150,211984,1,0,0:0:0:0:
153,154,212067,1,0,0:0:0:0:
175,156,212150,1,0,0:0:0:0:
197,151,212234,1,0,0:0:0:0:
218,144,212317,2,0,P|266:107|374:150,1,180,8|8,0:0|0:0,0:0:0:0:
378,164,212734,5,0,0:0:0:0:
376,186,212817,1,0,0:0:0:0:
370,207,212900,1,0,0:0:0:0:
362,228,212984,1,0,0:0:0:0:
352,248,213067,1,0,0:0:0:0:
339,266,213150,1,0,0:0:0:0:
322,281,213234,1,0,0:0:0:0:
304,294,213317,1,8,0:0:0:0:
178,243,213484,1,8,0:0:0:0:
43,241,213650,1,8,0:0:0:0:
43,218,213734,5,0,0:0:0:0:
50,196,213817,1,0,0:0:0:0:
60,176,213900,1,0,0:0:0:0:
74,158,213984,1,0,0:0:0:0:
91,144,214067,1,0,0:0:0:0:
109,130,214150,1,0,0:0:0:0:
129,119,214234,1,0,0:0:0:0:
149,109,214317,1,8,0:0:0:0:
258,188,214484,1,8,0:0:0:0:
333,76,214650,1,8,0:0:0:0:
355,76,214734,5,0,0:0:0:0:
376,81,214817,1,0,0:0:0:0:
395,91,214900,1,0,0:0:0:0:
409,108,214984,1,0,0:0:0:0:
429,116,215067,1,0,0:0:0:0:
448,126,215150,1,0,0:0:0:0:
464,141,215234,1,0,0:0:0:0:
472,161,215317,1,0,0:0:0:0:
477,182,215400,1,0,0:0:0:0:
476,204,215484,1,0,0:0:0:0:
470,225,215567,1,0,0:0:0:0:
457,243,215650,5,8,0:0:0:0:
415,261,215734,1,8,0:0:0:0:
370,269,215817,1,8,0:0:0:0:
325,274,215900,1,8,0:0:0:0:
279,276,215984,1,8,0:0:0:0:
234,270,216067,1,8,0:0:0:0:
190,258,216150,1,8,0:0:0:0:
154,230,216234,1,8,0:0:0:0:
130,192,216317,1,8,0:0:0:0:
121,147,216400,1,8,0:0:0:0:
128,102,216484,1,8,0:0:0:0:
154,65,216567,1,8,0:0:0:0:
193,44,216650,1,8,0:0:0:0:
256,192,216734,12,0,224650,0:0:0:0:
