osu file format v13

[General]
AudioFilename: Palette.mp3
AudioLeadIn: 0
PreviewTime: 77900
Countdown: 0
SampleSet: Soft
StackLeniency: 0.7
Mode: 0
LetterboxInBreaks: 0
WidescreenStoryboard: 0

[Editor]
Bookmarks: 8317,31650,48650,61984,77984,93984,112650,113317,123317,136650,138650,139650,140650,141650,142650,143650,144650,145650,146650,147650,148650,149650,150650,151650,152650,153650,154650,155650,156650,157650,158650,159650,160650,161650,162650,163650,164650,165650,166650,167650,168650,169650,170650,171650,175650,181984,190650,192650
DistanceSpacing: 1.5
BeatDivisor: 4
GridSize: 32
TimelineZoom: 3.600004

[Metadata]
Title:Palette
TitleUnicode:Palette
Artist:nano
ArtistUnicode:ナノ
Creator:Qc321die
Version:Expert
Source:
Tags:Vocaloid Nanoir
BeatmapID:469027
BeatmapSetID:197759

[Difficulty]
HPDrainRate:8
CircleSize:4
OverallDifficulty:9
ApproachRate:9
SliderMultiplier:2
SliderTickRate:1

[Events]
//Background and Video events
0,0,"Nano_PaletteBG.jpg",0,0
//Break Periods
2,126184,129384
2,132849,134050
2,173850,175050
//Storyboard Layer 0 (Background)
//Storyboard Layer 1 (Fail)
//Storyboard Layer 2 (Pass)
//Storyboard Layer 3 (Foreground)
//Storyboard Sound Samples
//Background Colour Transformations
3,100,163,162,255

[TimingPoints]
651,333.333333333333,3,2,1,50,1,0
31650,-80,3,1,1,100,0,0
35984,-80,3,3,1,100,0,0
36317,-80,3,1,1,100,0,0
48650,-100,3,2,1,50,0,0
61984,-100,3,2,1,70,0,0
77984,-100,3,2,1,85,0,1
109984,-100,3,2,1,85,0,0
112650,-100,3,2,1,5,0,0
113317,-133.333333333333,3,2,1,25,0,0
122984,-133.333333333333,3,1,1,25,0,0
123317,-133.333333333333,3,2,1,25,0,0
129984,-200,3,2,1,5,0,0
138650,-133.333333333333,3,2,1,25,0,0
172650,-200,3,2,1,50,0,0
173650,-200,3,2,1,5,0,0
175650,-100,3,2,1,35,0,0
176317,-100,3,2,1,55,0,0
176650,-100,3,2,1,85,0,1
192650,-66.6666666666667,3,2,1,85,0,1
211984,-66.6666666666667,3,2,1,35,0,1
212317,-66.6666666666667,3,2,1,85,0,1
216650,-66.6666666666667,3,2,1,85,0,0
224650,-100,3,2,1,5,0,0

[HitObjects]
175,127,32650,5,0,0:0:0:0:
384,96,32817,1,8,0:0:0:0:
400,112,32900,1,8,0:0:0:0:
416,128,32984,2,0,P|464:176|464:240,1,125,8|0,0:0|0:0,0:0:0:0:
284,289,33317,2,0,P|229:266|192:212,2,125,8|0|8,0:0|0:0|0:0,0:0:0:0:
64,176,33817,1,8,0:0:0:0:
80,160,33900,1,8,0:0:0:0:
96,144,33984,2,0,P|96:80|48:48,1,125,8|0,0:0|0:0,0:0:0:0:
256,144,34317,5,8,0:0:0:0:
288,176,34400,1,8,0:0:0:0:
320,208,34484,1,8,0:0:0:0:
352,240,34567,1,8,0:0:0:0:
384,272,34650,2,0,P|432:336|448:384,2,125,8|0|8,0:0|0:0|0:0,0:0:0:0:
448,96,35150,1,0,0:0:0:0:
208,64,35317,6,0,P|272:80|320:112,2,125,8|0|8,0:0|0:0|0:0,0:0:0:0:
48,240,35817,2,0,P|64:304|128:320,1,125,0|8,0:0|0:0,0:0:0:0:
144,304,36067,1,8,0:0:0:0:
176,288,36150,1,8,0:0:0:0:
208,272,36234,1,8,0:0:0:0:
240,272,36317,2,0,P|304:272|368:256,2,125,8|8|8,0:0|0:0|0:0,0:0:0:0:
288,64,36817,2,0,P|352:112|368:160,1,125,0|8,0:0|0:0,0:0:0:0:
160,224,37150,1,0,0:0:0:0:
464,288,37317,2,0,P|416:249|354:244,2,125,8|8|8,0:0|0:0|0:0,0:0:0:0:
256,64,37817,5,0,0:0:0:0:
366,256,37984,1,8,0:0:0:0:
145,256,38150,1,0,0:0:0:0:
256,64,38317,1,8,0:0:0:0:
256,320,38484,1,0,0:0:0:0:
146,128,38651,1,8,0:0:0:0:
367,128,38817,1,0,0:0:0:0:
256,320,38984,1,8,0:0:0:0:
128,192,39150,1,0,0:0:0:0:
256,64,39317,1,8,0:0:0:0:
384,192,39484,1,0,0:0:0:0:
160,336,39650,5,8,0:0:0:0:
144,304,39734,1,8,0:0:0:0:
128,272,39817,1,8,0:0:0:0:
224,224,39984,1,4,0:0:0:0:
208,176,40067,1,4,0:0:0:0:
192,128,40150,1,4,0:0:0:0:
176,80,40234,1,4,0:0:0:0:
151,44,40317,1,8,0:0:0:0:
131,85,40401,1,8,0:0:0:0:
115,133,40484,1,8,0:0:0:0:
99,181,40567,1,8,0:0:0:0:
83,229,40651,1,8,0:0:0:0:
256,304,40817,6,0,P|192:336|144:320,1,125,0|8,0:0|0:0,0:0:0:0:
448,112,41150,2,0,P|480:176|480:240,1,125,0|8,0:0|0:0,0:0:0:0:
256,32,41484,1,0,0:0:0:0:
320,272,41650,2,0,P|288:208|240:192,1,125,8|0,0:0|0:0,0:0:0:0:
480,224,41984,1,8,0:0:0:0:
192,96,42150,2,0,P|272:64|336:64,1,125,0|8,0:0|0:0,0:0:0:0:
336,96,42400,5,8,0:0:0:0:
336,128,42484,1,8,0:0:0:0:
320,160,42567,1,8,0:0:0:0:
288,176,42650,1,8,0:0:0:0:
128,112,42817,5,0,0:0:0:0:
128,240,42984,1,8,0:0:0:0:
152,83,43150,5,0,0:0:0:0:
103,268,43317,1,8,0:0:0:0:
192,65,43484,5,0,0:0:0:0:
64,286,43650,1,8,0:0:0:0:
241,62,43817,5,0,0:0:0:0:
14,289,43984,1,8,0:0:0:0:
0,256,44067,1,4,0:0:0:0:
0,224,44150,1,4,0:0:0:0:
16,192,44234,1,4,0:0:0:0:
48,176,44317,2,0,P|112:144|176:144,2,125,8|8|8,0:0|0:0|0:0,0:0:0:0:
240,320,44817,1,0,0:0:0:0:
384,112,44984,2,0,P|416:176|416:256,1,125,8|0,0:0|0:0,0:0:0:0:
144,144,45317,5,8,0:0:0:0:
352,272,45484,1,8,0:0:0:0:
130,351,45650,1,8,0:0:0:0:
200,40,45817,6,0,P|256:63|312:39,1,125,0|8,0:0|0:0,0:0:0:0:
200,344,46151,2,0,P|255:320|311:344,1,125,0|8,0:0|0:0,0:0:0:0:
415,164,46484,2,0,P|366:127|359:67,1,125,0|8,0:0|0:0,0:0:0:0:
96,219,46817,2,0,P|145:256|152:316,1,125,0|8,0:0|0:0,0:0:0:0:
359,316,47151,2,0,P|366:256|415:219,1,125,0|8,0:0|0:0,0:0:0:0:
152,67,47484,2,0,P|145:127|96:164,1,125,0|8,0:0|0:0,0:0:0:0:
88,168,47734,1,8,0:0:0:0:
80,176,47817,1,8,0:0:0:0:
256,192,47984,6,0,L|224:256,3,62.5,4|4|4|4,0:0|0:0|0:0|0:0,0:0:0:0:
288,160,48317,1,8,0:0:0:0:
320,128,48400,1,8,0:0:0:0:
368,128,48483,1,8,0:0:0:0:
400,160,48567,1,8,0:0:0:0:
400,208,48650,6,0,P|400:272|288:336,1,200,4|0,0:0|0:0,0:0:0:0:
118,239,49150,1,8,0:0:0:0:
169,45,49317,1,0,0:0:0:0:
270,148,49484,1,0,0:0:0:0:
70,153,49650,2,0,P|131:144|260:74,1,200,0|0,0:0|0:0,0:0:0:0:
289,64,50067,1,0,0:0:0:0:
328,60,50150,1,0,0:0:0:0:
367,69,50234,1,0,0:0:0:0:
396,95,50317,2,0,P|428:142|424:187,1,100
257,224,50650,5,0,0:0:0:0:
110,361,50817,1,8,0:0:0:0:
309,341,50984,2,0,P|348:309|359:257,1,100
179,173,51317,1,0,0:0:0:0:
378,149,51484,1,0,0:0:0:0:
191,80,51650,5,8,0:0:0:0:
150,80,51734,1,8,0:0:0:0:
111,90,51817,1,8,0:0:0:0:
83,118,51900,1,8,0:0:0:0:
67,155,51984,2,0,P|57:218|178:262,1,200,4|0,0:0|0:0,0:0:0:0:
339,71,52484,5,8,0:0:0:0:
478,213,52650,1,0,0:0:0:0:
213,217,52817,1,0,0:0:0:0:
333,301,52984,2,0,P|349:251|262:146,1,200
261,150,53400,1,0,0:0:0:0:
258,154,53484,1,0,0:0:0:0:
84,251,53650,6,0,P|53:205|53:154,1,100
224,59,53984,1,0,0:0:0:0:
161,182,54150,1,8,0:0:0:0:
351,120,54317,1,0,0:0:0:0:
334,267,54484,1,0,0:0:0:0:
334,267,54650,2,0,P|386:214|420:94,1,200,0|8,0:0|0:0,0:0:0:0:
420,95,55150,1,0,0:0:0:0:
420,95,55317,2,0,P|369:64|262:134,1,200,4|0,0:0|0:0,0:0:0:0:
256,128,55817,1,8,0:0:0:0:
448,336,56150,5,0,0:0:0:0:
448,336,56317,2,0,P|384:320|384:192,2,200,0|0|0,0:0|0:0|0:0,0:0:0:0:
256,208,57150,2,0,P|208:192|160:192,1,100
400,96,57484,1,8,0:0:0:0:
448,224,57650,1,0,0:0:0:0:
240,160,57817,1,0,0:0:0:0:
240,32,57984,6,0,P|176:48|96:160,1,200,0|8,0:0|0:0,0:0:0:0:
101,190,58400,1,8,0:0:0:0:
108,229,58484,1,8,0:0:0:0:
122,266,58567,1,8,0:0:0:0:
141,300,58650,2,0,P|195:318|332:274,1,200,4|0,0:0|0:0,0:0:0:0:
336,274,59150,1,8,0:0:0:0:
228,40,59484,5,0,0:0:0:0:
218,179,59650,2,0,P|268:153|210:40,2,200,0|0|0,0:0|0:0|0:0,0:0:0:0:
20,137,60484,1,0,0:0:0:0:
161,278,60650,1,0,0:0:0:0:
350,211,60817,1,8,0:0:0:0:
83,144,60984,5,0,0:0:0:0:
279,109,61150,1,0,0:0:0:0:
128,241,61317,1,0,0:0:0:0:
169,44,61484,1,0,0:0:0:0:
83,144,61650,1,8,0:0:0:0:
279,183,61817,1,0,0:0:0:0:
80,144,61984,6,0,P|96:96|144:80,1,100
432,240,62317,2,0,P|416:288|368:304,1,100
368,80,62650,2,0,P|416:96|432:144,1,100,8|0,0:0|0:0,0:0:0:0:
144,304,62984,2,0,P|96:288|80:240,1,100
256,112,63317,5,0,0:0:0:0:
303,256,63484,1,0,0:0:0:0:
179,167,63650,1,8,0:0:0:0:
332,167,63817,1,0,0:0:0:0:
208,256,63984,1,0,0:0:0:0:
111,81,64150,5,0,0:0:0:0:
62,222,64316,5,0,0:0:0:0:
62,222,64483,1,0,0:0:0:0:
190,300,64650,1,8,0:0:0:0:
190,300,64817,1,0,0:0:0:0:
281,182,64983,1,8,0:0:0:0:
281,182,65150,1,0,0:0:0:0:
326,324,65316,1,0,0:0:0:0:
326,324,65483,1,0,0:0:0:0:
409,141,65650,1,8,0:0:0:0:
214,77,65817,1,8,0:0:0:0:
214,77,65900,1,8,0:0:0:0:
214,77,65984,1,8,0:0:0:0:
391,56,66317,5,0,0:0:0:0:
391,327,66650,1,0,0:0:0:0:
120,327,66984,1,0,0:0:0:0:
120,56,67317,1,0,0:0:0:0:
352,248,67650,5,8,0:0:0:0:
159,248,67817,1,0,0:0:0:0:
255,79,67984,1,0,0:0:0:0:
256,304,68150,1,0,0:0:0:0:
80,192,68317,1,0,0:0:0:0:
256,304,68484,1,0,0:0:0:0:
432,192,68650,1,8,0:0:0:0:
256,304,68817,1,0,0:0:0:0:
256,80,68984,5,8,0:0:0:0:
256,96,69067,1,8,0:0:0:0:
256,112,69150,1,8,0:0:0:0:
256,128,69234,1,8,0:0:0:0:
256,144,69317,1,8,0:0:0:0:
256,160,69400,1,8,0:0:0:0:
256,176,69484,1,8,0:0:0:0:
256,192,69567,1,8,0:0:0:0:
256,208,69650,1,8,0:0:0:0:
56,224,69817,5,8,0:0:0:0:
56,224,69984,2,0,P|68:316|178:279,2,200,0|0|8,0:0|0:0|0:0,0:0:0:0:
180,67,70817,1,0,0:0:0:0:
246,256,70984,1,0,0:0:0:0:
322,192,71150,1,0,0:0:0:0:
284,337,71317,1,0,0:0:0:0:
436,206,71484,1,0,0:0:0:0:
240,169,71650,1,8,0:0:0:0:
361,81,71817,1,0,0:0:0:0:
240,169,71984,2,0,P|178:212|71:158,2,200,0|0|8,0:0|0:0|0:0,0:0:0:0:
157,121,72817,5,0,0:0:0:0:
224,309,72984,2,0,L|120:233,1,100,8|0,0:0|0:0,0:0:0:0:
343,235,73317,1,0,0:0:0:0:
263,50,73484,2,0,L|366:74,1,100,0|8,0:0|0:0,0:0:0:0:
159,73,73817,1,8,0:0:0:0:
127,97,73900,1,8,0:0:0:0:
112,134,73984,2,0,P|108:206|153:246,1,100,8|8,0:0|0:0,0:0:0:0:
276,98,74317,2,0,P|338:88|437:174,2,200,8|8|0,0:0|0:0|0:0,0:0:0:0:
329,187,75150,1,0,0:0:0:0:
144,112,75317,6,0,L|48:64,1,100
354,95,75650,2,0,L|418:9,1,100
333,305,75984,2,0,L|407:383,1,100
130,248,76317,2,0,L|41:308,1,100
112,48,76650,2,0,L|160:144,1,100
336,144,76984,5,0,0:0:0:0:
336,144,77067,1,0,0:0:0:0:
336,144,77150,2,0,L|376:104,1,50
216,168,77317,2,0,L|256:128,1,50
104,192,77484,2,0,L|144:152,1,50
16,208,77650,2,0,L|28:196,15,12.5,0|0|0|0|0|0|0|0|0|0|0|0|0|0|0|0,0:0|0:0|0:0|0:0|0:0|0:0|0:0|0:0|0:0|0:0|0:0|0:0|0:0|0:0|0:0|0:0,0:0:0:0:
16,232,77984,6,0,P|40:288|168:304,1,200,4|0,0:0|0:0,0:0:0:0:
352,234,78484,1,0,0:0:0:0:
152,72,78650,1,0,0:0:0:0:
344,127,78817,1,0,0:0:0:0:
147,166,78984,2,0,P|131:220|240:217,1,200,8|0,0:0|0:0,0:0:0:0:
319,44,79484,5,8,0:0:0:0:
415,158,79650,1,0,0:0:0:0:
465,16,79817,1,0,0:0:0:0:
309,142,79984,1,0,0:0:0:0:
298,286,80150,1,0,0:0:0:0:
173,204,80317,1,0,0:0:0:0:
373,213,80484,1,0,0:0:0:0:
208,100,80650,5,0,0:0:0:0:
201,300,80817,1,0,0:0:0:0:
395,181,80984,1,8,0:0:0:0:
300,33,81150,1,8,0:0:0:0:
354,103,81317,2,0,P|309:164|363:262,2,200,0|0|0,0:0|0:0|0:0,0:0:0:0:
163,64,82150,6,0,P|104:77|74:117,1,100
209,258,82484,1,0,0:0:0:0:
163,64,82650,1,0,0:0:0:0:
209,258,82817,2,0,P|257:251|292:216,1,100,0|8,0:0|0:0,0:0:0:0:
427,68,83150,1,0,0:0:0:0:
427,68,83234,1,0,0:0:0:0:
427,68,83317,1,0,0:0:0:0:
246,154,83484,1,8,0:0:0:0:
443,183,83650,2,0,P|374:181|289:283,1,200
69,201,84150,2,0,P|138:203|223:101,1,200
256,48,84650,5,0,0:0:0:0:
256,336,84817,1,0,0:0:0:0:
335,112,84984,1,8,0:0:0:0:
176,271,85150,1,8,0:0:0:0:
336,191,85317,1,0,0:0:0:0:
176,192,85484,1,0,0:0:0:0:
289,225,85650,1,0,0:0:0:0:
222,158,85817,1,0,0:0:0:0:
256,192,85984,1,0,0:0:0:0:
256,192,86150,2,0,P|320:272|416:272,1,200
96,48,86817,5,0,0:0:0:0:
96,48,86984,2,0,P|80:96|80:144,1,100,8|0,0:0|0:0,0:0:0:0:
226,109,87317,1,0,0:0:0:0:
425,125,87484,2,0,P|381:56|360:45,1,100,8|0,0:0|0:0,0:0:0:0:
278,233,87817,1,0,0:0:0:0:
226,39,87984,2,0,P|184:83|164:125,1,100
365,142,88317,1,0,0:0:0:0:
178,215,88484,1,0,0:0:0:0:
353,308,88650,2,0,P|416:239|420:217,1,100
172,240,88984,5,8,0:0:0:0:
339,239,89150,1,8,0:0:0:0:
255,95,89317,1,0,0:0:0:0:
256,320,89484,1,0,0:0:0:0:
384,192,89650,1,0,0:0:0:0:
256,64,89817,1,0,0:0:0:0:
128,192,89984,1,0,0:0:0:0:
384,64,90317,5,0,0:0:0:0:
288,160,90484,1,0,0:0:0:0:
128,320,90817,5,0,0:0:0:0:
224,224,90984,1,8,0:0:0:0:
413,159,91317,2,0,P|391:214|347:240,1,100
332,160,91650,2,0,P|304:106|176:99,1,200
237,173,92150,2,0,P|187:221|56:239,2,200,0|0|0,0:0|0:0|0:0,0:0:0:0:
237,173,92984,1,0,0:0:0:0:
420,174,93150,5,0,0:0:0:0:
237,173,93317,1,0,0:0:0:0:
385,280,93484,1,0,0:0:0:0:
328,106,93650,1,0,0:0:0:0:
272,280,93817,1,0,0:0:0:0:
328,106,93984,6,0,P|304:56|172:46,1,200
177,195,94484,1,0,0:0:0:0:
80,81,94650,2,0,P|79:157|60:176,1,100,0|0,0:0|0:0,0:0:0:0:
202,106,94984,1,0,0:0:0:0:
191,304,95150,2,0,P|152:261|110:246,1,100
315,243,95484,1,0,0:0:0:0:
134,157,95650,2,0,P|201:155|235:130,1,100
285,330,95984,1,0,0:0:0:0:
285,330,96150,6,0,P|343:325|400:204,1,200
201,202,96650,2,0,L|109:268,2,100,0|0|0,0:0|0:0|0:0,0:0:0:0:
352,70,97150,1,0,0:0:0:0:
352,70,97317,2,0,P|300:45|167:89,2,200,0|0|0,0:0|0:0|0:0,0:0:0:0:
189,187,98150,5,0,0:0:0:0:
268,248,98317,1,0,0:0:0:0:
122,284,98484,1,0,0:0:0:0:
279,161,98650,1,0,0:0:0:0:
352,292,98817,1,0,0:0:0:0:
401,97,98984,2,0,P|298:53|175:78,1,200
195,261,99484,5,0,0:0:0:0:
90,91,99650,1,0,0:0:0:0:
142,176,99817,1,0,0:0:0:0:
274,25,99984,1,0,0:0:0:0:
283,174,100150,2,0,P|341:181|460:112,2,200,0|0|0,0:0|0:0|0:0,0:0:0:0:
283,174,100984,1,0,0:0:0:0:
263,322,101150,1,0,0:0:0:0:
263,322,101317,2,0,P|211:272|80:289,2,200,0|0|0,0:0|0:0|0:0,0:0:0:0:
364,211,102150,5,0,0:0:0:0:
334,63,102317,2,0,P|289:104|274:147,1,100
425,133,102650,2,0,P|470:92|485:49,2,100,0|0|0,0:0|0:0|0:0,0:0:0:0:
480,272,103150,1,0,0:0:0:0:
279,262,103317,2,0,P|243:220|239:165,1,100
148,356,103650,1,0,0:0:0:0:
131,156,103817,2,0,P|86:132|33:133,1,100
234,90,104150,2,0,P|285:74|428:88,2,200,0|0|0,0:0|0:0|0:0,0:0:0:0:
191,287,104984,5,0,0:0:0:0:
331,146,105150,1,0,0:0:0:0:
386,338,105317,1,0,0:0:0:0:
288,314,105484,1,0,0:0:0:0:
200,134,105650,1,0,0:0:0:0:
314,231,105817,1,0,0:0:0:0:
254,49,105984,1,0,0:0:0:0:
254,49,106150,2,0,P|195:36|109:138,2,200,0|0|0,0:0|0:0|0:0,0:0:0:0:
399,177,106984,5,0,0:0:0:0:
204,132,107150,2,0,L|282:195,2,100,0|0|0,0:0|0:0|0:0,0:0:0:0:
280,317,107650,2,0,L|202:254,1,100,0|0,0:0|0:0,0:0:0:0:
399,177,107984,5,0,0:0:0:0:
395,142,108067,1,0,0:0:0:0:
382,109,108150,1,0,0:0:0:0:
356,84,108234,1,0,0:0:0:0:
323,72,108317,1,0,0:0:0:0:
288,76,108400,1,0,0:0:0:0:
255,90,108484,1,0,0:0:0:0:
236,119,108567,1,0,0:0:0:0:
227,152,108650,1,0,0:0:0:0:
228,187,108734,1,0,0:0:0:0:
228,221,108817,1,0,0:0:0:0:
222,255,108900,1,0,0:0:0:0:
208,287,108984,2,0,L|257:320,3,50,0|0|0|0,0:0|0:0|0:0|0:0,0:0:0:0:
179,319,109317,2,0,L|125:281,3,50,0|0|0|0,0:0|0:0|0:0|0:0,0:0:0:0:
116,262,109650,2,0,P|102:183|76:168,2,100,0|0|0,0:0|0:0|0:0,0:0:0:0:
256,192,110150,12,0,112650,0:0:0:0:
203,74,113317,6,0,P|234:112|208:205,1,150.000005722046
204,207,113734,1,0,0:0:0:0:
198,211,113817,1,0,0:0:0:0:
307,237,113984,2,0,P|317:196|344:172,2,75.0000028610231,0|0|0,0:0|0:0|0:0,0:0:0:0:
224,314,114484,1,0,0:0:0:0:
224,314,114567,1,0,0:0:0:0:
224,314,114650,2,0,P|286:329|377:306,2,150.000005722046,0|0|0,0:0|0:0|0:0,0:0:0:0:
140,237,115484,6,0,P|115:275|107:323,2,75.0000028610231,0|0|0,0:0|0:0|0:0,0:0:0:0:
140,237,115984,1,0,0:0:0:0:
133,125,116150,1,0,0:0:0:0:
142,113,116234,1,0,0:0:0:0:
153,102,116317,1,0,0:0:0:0:
265,89,116484,1,0,0:0:0:0:
278,82,116567,1,0,0:0:0:0:
292,78,116650,6,0,P|338:75|400:150,1,150.000005722046
320,154,117150,2,0,P|291:198|288:299,1,150.000005722046
275,303,117567,1,0,0:0:0:0:
261,310,117650,2,0,P|206:320|128:268,1,150.000005722046
140,160,118150,1,0,0:0:0:0:
140,160,118317,6,0,P|196:146|229:66,1,150.000005722046
150,80,118817,2,0,L|258:186,1,150.000005722046
262,190,119234,1,0,0:0:0:0:
267,195,119317,1,0,0:0:0:0:
228,300,119484,1,0,0:0:0:0:
213,301,119567,1,0,0:0:0:0:
198,299,119650,1,0,0:0:0:0:
310,298,119817,1,0,0:0:0:0:
310,298,119984,6,0,P|386:292|418:227,1,150.000005722046
448,123,120484,2,0,P|401:141|304:81,1,150.000005722046
300,102,120900,1,0,0:0:0:0:
286,109,120984,1,0,0:0:0:0:
198,23,121150,1,0,0:0:0:0:
198,23,121234,1,0,0:0:0:0:
198,23,121317,2,0,P|158:35|130:67,1,75.0000028610231
101,207,121650,6,0,P|149:184|204:90,1,150.000005722046,0|0,0:0|0:0,0:0:0:0:
236,211,122150,2,0,P|232:261|257:284,1,75.0000028610231
141,321,122484,1,0,0:0:0:0:
133,307,122567,1,0,0:0:0:0:
136,292,122650,1,0,0:0:0:0:
244,322,122817,2,0,P|295:311|315:285,1,75.0000028610231
145,256,123317,5,0,0:0:0:0:
366,256,123817,1,0,0:0:0:0:
256,64,124317,1,0,0:0:0:0:
256,320,124650,1,0,0:0:0:0:
366,128,124984,1,0,0:0:0:0:
145,128,125484,1,0,0:0:0:0:
256,320,125984,1,0,0:0:0:0:
192,68,129984,6,0,P|256:48|336:72,2,150,0|0|0,0:0|0:0|0:0,0:0:0:0:
256,192,131317,1,0,0:0:0:0:
320,316,131650,2,0,P|256:336|176:312,2,150,0|0|0,0:0|0:0|0:0,0:0:0:0:
256,192,134650,12,0,136650,0:0:0:0:
224,111,138650,6,0,P|193:148|228:249,2,150.000005722046,0|0|0,0:0|0:0|0:0,0:0:0:0:
316,45,139484,1,0,0:0:0:0:
384,133,139650,2,0,P|415:170|380:271,2,150.000005722046,0|0|0,0:0|0:0|0:0,0:0:0:0:
349,329,140650,2,0,P|312:266|340:200,2,150.000005722046,0|0|0,0:0|0:0|0:0,0:0:0:0:
237,306,141484,1,0,0:0:0:0:
193,162,141650,2,0,P|167:198|163:235,2,75.0000028610231,0|0|0,0:0|0:0|0:0,0:0:0:0:
299,125,142150,1,0,0:0:0:0:
205,62,142317,2,0,P|152:48|127:55,1,75.0000028610231
283,38,142650,6,0,P|337:32|427:86,1,150.000005722046
130,159,143317,1,0,0:0:0:0:
402,283,143650,2,0,P|310:296|241:280,2,150.000005722046,0|0|0,0:0|0:0|0:0,0:0:0:0:
332,193,144484,1,0,0:0:0:0:
258,108,144650,2,0,P|293:79|327:81,2,75.0000028610231,0|0|0,0:0|0:0|0:0,0:0:0:0:
182,108,145150,1,0,0:0:0:0:
128,161,145317,1,0,0:0:0:0:
128,236,145484,1,0,0:0:0:0:
180,288,145650,6,0,P|225:309|314:273,2,150.000005722046,0|0|0,0:0|0:0|0:0,0:0:0:0:
286,181,146650,2,0,P|312:142|309:105,1,75.0000028610231
377,76,146984,2,0,P|409:103|412:211,1,150.000005722046
330,277,147484,1,0,0:0:0:0:
219,256,147650,2,0,P|186:221|92:244,1,150.000005722046
103,128,148150,1,0,0:0:0:0:
201,73,148317,1,0,0:0:0:0:
169,181,148484,1,0,0:0:0:0:
276,196,148650,2,0,P|329:179|402:240,1,150.000005722046
325,260,149150,2,0,P|354:298|386:311,1,75.0000028610231
419,87,149650,6,0,P|355:63|283:100,1,150.000005722046
433,178,150317,1,0,0:0:0:0:
220,251,150650,2,0,P|284:275|356:238,1,150.000005722046
147,148,151317,1,0,0:0:0:0:
42,347,151650,2,0,P|85:268|64:209,1,150.000005722046
282,142,152317,1,0,0:0:0:0:
495,213,152650,2,0,P|452:292|473:351,1,150.000005722046
282,142,153317,1,0,0:0:0:0:
76,50,153650,2,0,P|145:82|216:32,1,150.000005722046
160,270,154317,1,0,0:0:0:0:
282,142,154650,6,0,P|346:148|409:217,1,150.000005722046
340,70,155150,2,0,P|291:46|280:22,1,75.0000028610231
48,218,155650,2,0,P|66:166|158:108,1,150.000005722046
193,210,156150,1,0,0:0:0:0:
284,144,156317,1,0,0:0:0:0:
189,347,156650,2,0,P|114:328|89:259,1,150.000005722046
313,257,157317,1,0,0:0:0:0:
148,103,157650,2,0,L|288:48,2,150.000005722046,0|0|0,0:0|0:0|0:0,0:0:0:0:
148,103,158650,6,0,P|132:152|196:238,1,150.000005722046
283,31,159317,1,0,0:0:0:0:
304,254,159650,2,0,P|342:181|319:117,1,150.000005722046
227,325,160317,1,0,0:0:0:0:
11,260,160650,2,0,P|62:232|156:234,1,150.000005722046
372,188,161317,1,0,0:0:0:0:
94,74,161650,2,0,P|106:168|152:208,2,150.000005722046,0|0|0,0:0|0:0|0:0,0:0:0:0:
248,237,162650,6,0,P|297:216|302:126,1,150.000005722046
88,195,163317,1,0,0:0:0:0:
387,191,163650,2,0,P|432:166|460:74,1,150.000005722046
166,138,164317,1,0,0:0:0:0:
357,255,164650,2,0,P|313:264|202:226,2,150.000005722046,0|0|0,0:0|0:0|0:0,0:0:0:0:
287,40,165650,2,0,P|315:87|257:165,1,150.000005722046
92,300,166317,1,0,0:0:0:0:
104,75,166650,6,0,P|134:209|149:216,2,150.000005722046,0|0|0,0:0|0:0|0:0,0:0:0:0:
313,157,167650,2,0,P|392:135|439:87,1,150.000005722046
213,87,168317,1,0,0:0:0:0:
193,310,168650,2,0,P|232:316|332:262,1,150.000005722046
213,87,169317,1,0,0:0:0:0:
434,123,169650,2,0,P|454:165|428:264,1,150.000005722046
319,284,170150,1,0,0:0:0:0:
326,171,170317,1,0,0:0:0:0:
101,161,170650,1,0,0:0:0:0:
99,273,170817,1,0,0:0:0:0:
101,161,170984,1,0,0:0:0:0:
326,171,171317,1,0,0:0:0:0:
99,273,171650,2,0,P|146:268|222:188,1,150.000005722046
222,87,172150,2,0,L|299:60,1,75.0000028610231
398,169,172650,2,0,P|411:193|310:158,1,300,0|0,0:0|0:0,0:0:0:0:
259,234,175650,5,0,0:0:0:0:
238,262,175734,1,0,0:0:0:0:
206,277,175817,1,0,0:0:0:0:
171,277,175900,1,0,0:0:0:0:
140,262,175984,1,0,0:0:0:0:
118,234,176067,1,0,0:0:0:0:
110,200,176150,1,0,0:0:0:0:
118,166,176234,1,0,0:0:0:0:
140,139,176317,1,0,0:0:0:0:
171,123,176400,1,0,0:0:0:0:
206,123,176484,1,0,0:0:0:0:
238,139,176567,1,0,0:0:0:0:
256,160,176650,6,0,P|271:94|390:69,1,200
311,252,177150,1,0,0:0:0:0:
445,318,177317,1,0,0:0:0:0:
249,363,177484,2,0,P|199:349|179:307,1,100,0|8,0:0|0:0,0:0:0:0:
329,175,177817,1,0,0:0:0:0:
174,219,177984,2,0,P|117:206|97:164,1,100,0|8,0:0|0:0,0:0:0:0:
156,322,178317,1,0,0:0:0:0:
385,242,178484,2,0,P|429:212|454:167,2,100,0|0|8,0:0|0:0|0:0,0:0:0:0:
284,68,178984,1,0,0:0:0:0:
248,264,179150,1,0,0:0:0:0:
171,78,179317,2,0,P|129:124|86:256,1,200,0|8,0:0|0:0,0:0:0:0:
86,252,179984,5,8,0:0:0:0:
484,218,180317,5,8,0:0:0:0:
484,218,180484,1,8,0:0:0:0:
484,218,180650,2,0,P|447:170|323:205,1,200,4|0,0:0|0:0,0:0:0:0:
186,342,181150,2,0,P|139:308|133:263,1,100
332,251,181484,1,0,0:0:0:0:
204,81,181650,2,0,P|248:139|249:185,1,100,8|0,0:0|0:0,0:0:0:0:
82,274,181984,5,0,0:0:0:0:
111,275,182067,1,0,0:0:0:0:
140,272,182150,1,0,0:0:0:0:
169,267,182234,1,0,0:0:0:0:
197,259,182317,1,0,0:0:0:0:
226,253,182400,1,0,0:0:0:0:
256,252,182484,1,0,0:0:0:0:
285,257,182567,1,0,0:0:0:0:
313,265,182650,2,0,P|377:278|449:177,1,200,0|8,0:0|0:0,0:0:0:0:
435,154,183067,5,8,0:0:0:0:
408,139,183150,1,8,0:0:0:0:
379,128,183234,1,8,0:0:0:0:
349,126,183317,1,8,0:0:0:0:
320,135,183400,1,8,0:0:0:0:
289,134,183484,1,8,0:0:0:0:
260,125,183567,1,8,0:0:0:0:
234,110,183650,2,0,P|186:87|74:173,1,200,8|8,0:0|0:0,0:0:0:0:
92,185,184067,1,8,0:0:0:0:
104,212,184150,2,0,P|148:266|193:265,2,100,8|0|0,0:0|0:0|0:0,0:0:0:0:
243,67,184650,6,0,P|299:45|412:114,1,200,0|0,0:0|0:0,0:0:0:0:
358,304,185150,1,0,0:0:0:0:
204,175,185317,1,0,0:0:0:0:
246,370,185484,1,0,0:0:0:0:
380,223,185650,2,0,P|414:179|462:171,1,100,8|0,0:0|0:0,0:0:0:0:
278,73,185984,1,0,0:0:0:0:
243,269,186150,2,0,P|230:213|241:160,2,100,0|0|0,0:0|0:0|0:0,0:0:0:0:
154,89,186650,6,0,P|119:134|98:275,1,200
262,158,187150,1,0,0:0:0:0:
112,147,187317,2,0,P|64:120|55:78,1,100
254,63,187650,1,8,0:0:0:0:
176,247,187817,2,0,P|174:296|150:344,1,100,0|8,0:0|0:0,0:0:0:0:
334,257,188150,1,0,0:0:0:0:
190,117,188317,2,0,P|220:194|246:220,1,100
416,282,188650,2,0,P|435:212|382:97,1,200
303,282,189150,5,8,0:0:0:0:
251,88,189317,2,0,P|277:134|285:188,1,100
110,81,189650,1,0,0:0:0:0:
93,280,189817,2,0,P|157:279|195:258,1,100,0|8,0:0|0:0,0:0:0:0:
4,182,190150,1,0,0:0:0:0:
204,176,190317,1,8,0:0:0:0:
33,71,190484,1,0,0:0:0:0:
208,32,190650,5,8,0:0:0:0:
233,34,190734,1,8,0:0:0:0:
256,42,190817,1,8,0:0:0:0:
277,55,190900,1,8,0:0:0:0:
293,74,190984,1,8,0:0:0:0:
304,96,191067,1,8,0:0:0:0:
306,120,191150,5,8,0:0:0:0:
301,144,191234,1,8,0:0:0:0:
291,166,191317,1,8,0:0:0:0:
280,188,191400,1,8,0:0:0:0:
278,213,191484,1,8,0:0:0:0:
284,237,191567,1,8,0:0:0:0:
300,255,191650,1,8,0:0:0:0:
256,48,191817,5,0,0:0:0:0:
340,308,191984,1,0,0:0:0:0:
119,147,192150,1,0,0:0:0:0:
392,147,192317,1,0,0:0:0:0:
171,308,192484,1,0,0:0:0:0:
256,48,192650,2,0,L|257:351,1,300.000011444092
128,96,193150,5,0,0:0:0:0:
352,96,193317,1,0,0:0:0:0:
128,288,193484,1,0,0:0:0:0:
352,288,193650,1,8,0:0:0:0:
180,141,193817,5,0,0:0:0:0:
390,221,193984,2,0,P|423:149|414:72,1,150.000005722046
232,210,194317,1,0,0:0:0:0:
423,329,194484,2,0,P|335:356|275:336,1,150.000005722046
313,116,194817,1,0,0:0:0:0:
112,218,194984,1,0,0:0:0:0:
14,16,195150,2,0,P|110:32|142:79,2,150.000005722046,0|0|0,0:0|0:0|0:0,0:0:0:0:
56,237,195650,6,0,P|121:283|323:231,2,300.000011444092,8|0|8,0:0|0:0|0:0,0:0:0:0:
77,180,196400,1,8,0:0:0:0:
121,138,196484,1,8,0:0:0:0:
179,126,196567,1,8,0:0:0:0:
227,91,196650,2,0,P|304:63|380:79,1,150.000005722046,4|0,0:0|0:0,0:0:0:0:
231,254,196984,2,0,P|151:265|105:320,1,150.000005722046
131,90,197317,2,0,P|188:175|263:181,1,150.000005722046
385,23,197650,5,8,0:0:0:0:
453,237,197817,1,0,0:0:0:0:
232,188,197984,1,0,0:0:0:0:
385,23,198150,1,0,0:0:0:0:
453,237,198317,1,0,0:0:0:0:
232,188,198484,1,0,0:0:0:0:
385,23,198650,2,0,L|323:320,1,300.000011444092
121,217,199150,6,0,P|70:287|77:348,1,150.000005722046
64,119,199484,1,0,0:0:0:0:
260,226,199650,2,0,P|226:143|165:111,1,150.000005722046,8|0,0:0|0:0,0:0:0:0:
390,188,199984,1,0,0:0:0:0:
210,53,200150,1,0,0:0:0:0:
432,91,200317,1,0,0:0:0:0:
313,283,200484,2,0,P|334:205|315:129,1,150.000005722046
176,312,200817,5,0,0:0:0:0:
176,312,200900,1,0,0:0:0:0:
176,312,200984,2,0,L|98:305,1,75.0000028610231
202,257,201150,2,0,L|276:263,1,75.0000028610231
188,192,201317,2,0,L|110:185,1,75.0000028610231
216,139,201484,2,0,L|290:145,1,75.0000028610231
198,82,201650,2,0,P|114:88|82:277,2,300.000011444092,8|0|0,0:0|0:0|0:0,0:0:0:0:
227,80,202400,1,0,0:0:0:0:
249,81,202484,1,0,0:0:0:0:
333,203,202650,6,0,P|390:143|389:73,1,150.000005722046
257,149,202984,1,0,0:0:0:0:
395,324,203150,1,0,0:0:0:0:
186,237,203317,2,0,P|259:291|325:283,1,150.000005722046
162,120,203650,1,8,0:0:0:0:
93,334,203817,1,0,0:0:0:0:
311,279,203984,2,0,P|407:245|460:197,1,150.000005722046,8|0,0:0|0:0,0:0:0:0:
281,58,204317,5,0,0:0:0:0:
45,244,204484,1,0,0:0:0:0:
329,336,204650,1,0,0:0:0:0:
256,192,204734,12,0,206650,0:0:0:0:
148,84,206817,5,0,0:0:0:0:
138,309,206984,2,0,P|181:244|192:164,2,150.000005722046,0|8|8,0:0|0:0|0:0,0:0:0:0:
306,159,207484,1,0,0:0:0:0:
498,273,207650,2,0,P|448:327|376:345,2,150.000005722046,0|0|0,0:0|0:0|0:0,0:0:0:0:
272,273,208150,1,0,0:0:0:0:
315,51,208317,2,0,P|262:106|186:129,2,150.000005722046,0|0|0,0:0|0:0|0:0,0:0:0:0:
351,61,208734,5,0,0:0:0:0:
382,80,208817,1,0,0:0:0:0:
400,112,208900,1,0,0:0:0:0:
396,149,208984,1,8,0:0:0:0:
371,176,209067,1,8,0:0:0:0:
334,183,209150,1,0,0:0:0:0:
297,174,209234,1,0,0:0:0:0:
259,173,209317,1,8,0:0:0:0:
225,190,209400,1,0,0:0:0:0:
206,222,209484,1,0,0:0:0:0:
214,258,209567,1,0,0:0:0:0:
239,285,209650,2,0,P|179:337|105:321,2,150.000005722046,8|0|8,0:0|0:0|0:0,0:0:0:0:
273,299,210067,5,0,0:0:0:0:
309,305,210150,1,0,0:0:0:0:
346,309,210234,1,0,0:0:0:0:
383,311,210317,1,8,0:0:0:0:
410,335,210400,1,8,0:0:0:0:
425,300,210484,1,8,0:0:0:0:
436,264,210567,1,8,0:0:0:0:
445,227,210650,1,8,0:0:0:0:
447,189,210734,1,8,0:0:0:0:
442,151,210817,1,8,0:0:0:0:
428,116,210900,1,8,0:0:0:0:
440,80,210984,5,8,0:0:0:0:
403,72,211067,1,8,0:0:0:0:
365,71,211150,1,8,0:0:0:0:
328,80,211234,1,8,0:0:0:0:
293,94,211317,1,8,0:0:0:0:
263,116,211400,1,8,0:0:0:0:
237,143,211484,1,8,0:0:0:0:
221,177,211567,1,8,0:0:0:0:
213,213,211650,6,0,P|128:207|70:251,2,150.000005722046,8|0|0,0:0|0:0|0:0,0:0:0:0:
219,250,212025,2,0,L|280:246,6,37.5000014305115,0|0|0|0|0|0|0,0:0|0:0|0:0|0:0|0:0|0:0|0:0,0:0:0:0:
217,287,212317,2,0,P|122:316|91:362,1,150.000005722046,8|0,0:0|0:0,0:0:0:0:
44,134,212650,5,8,0:0:0:0:
60,99,212734,1,8,0:0:0:0:
92,80,212817,1,0,0:0:0:0:
128,72,212900,1,0,0:0:0:0:
165,73,212984,1,0,0:0:0:0:
202,74,213067,1,0,0:0:0:0:
239,75,213150,1,0,0:0:0:0:
276,77,213234,1,0,0:0:0:0:
312,86,213317,1,8,0:0:0:0:
92,291,213484,5,8,0:0:0:0:
384,350,213650,5,8,0:0:0:0:
404,318,213734,1,8,0:0:0:0:
421,285,213817,1,0,0:0:0:0:
429,248,213900,1,0,0:0:0:0:
422,210,213984,1,0,0:0:0:0:
398,180,214067,1,0,0:0:0:0:
394,142,214150,1,0,0:0:0:0:
402,105,214234,1,0,0:0:0:0:
426,76,214317,1,8,0:0:0:0:
129,27,214484,5,8,0:0:0:0:
228,308,214650,5,8,0:0:0:0:
213,304,214734,1,8,0:0:0:0:
199,298,214817,1,0,0:0:0:0:
185,291,214900,1,0,0:0:0:0:
172,282,214984,1,0,0:0:0:0:
160,272,215067,1,0,0:0:0:0:
149,261,215150,1,0,0:0:0:0:
139,248,215234,1,0,0:0:0:0:
131,234,215317,1,0,0:0:0:0:
124,220,215400,1,0,0:0:0:0:
119,205,215484,1,0,0:0:0:0:
117,190,215567,1,0,0:0:0:0:
107,153,215650,5,8,0:0:0:0:
115,116,215734,1,8,0:0:0:0:
139,88,215817,1,8,0:0:0:0:
170,68,215900,1,8,0:0:0:0:
205,55,215984,1,8,0:0:0:0:
242,50,216067,1,8,0:0:0:0:
279,54,216150,1,8,0:0:0:0:
315,64,216234,1,8,0:0:0:0:
347,81,216317,1,8,0:0:0:0:
376,104,216400,1,8,0:0:0:0:
395,136,216484,1,8,0:0:0:0:
407,171,216567,1,0,0:0:0:0:
412,207,216650,1,8,0:0:0:0:
256,192,216734,12,0,224650,0:0:0:0:
