osu file format v12

[General]
AudioFilename: 13 Palette.mp3
AudioLeadIn: 0
PreviewTime: 77978
Countdown: 0
SampleSet: Soft
StackLeniency: 0.7
Mode: 0
LetterboxInBreaks: 0
EpilepsyWarning: 1

[Editor]
Bookmarks: 31644,156644,201978
DistanceSpacing: 1.2
BeatDivisor: 2
GridSize: 4

[Metadata]
Title:Palette
TitleUnicode:Palette
Artist:nano
ArtistUnicode:ナノ
Creator:DingGGu
Version:Normal
Source:
Tags:yuyoyuppe vocaloid nicovideo megurine luka w_h_i_t_e
BeatmapID:229692
BeatmapSetID:83112

[Difficulty]
HPDrainRate:4
CircleSize:3
OverallDifficulty:3
ApproachRate:5
SliderMultiplier:0.999999999999999
SliderTickRate:1

[Events]
//Background and Video events
0,0,"palettebg.png",1,1
//Break Periods
2,113515,122115
2,126181,128781
2,132847,138450
2,172850,174449
//Storyboard Layer 0 (Background)
//Storyboard Layer 1 (Fail)
//Storyboard Layer 2 (Pass)
//Storyboard Layer 3 (Foreground)
//Storyboard Sound Samples
//Background Colour Transformations
3,100,163,162,255

[TimingPoints]
651,333.333333333333,3,2,1,40,1,0
32650,-100,3,1,1,40,0,0
48650,333.333333333333,5,2,1,40,1,0
48650,-133.333333333333,5,2,1,40,0,0
61983,333.333333333333,3,1,1,40,1,0
77482,-100,3,2,1,5,0,0
77982,-100,3,1,1,40,0,1
78982,-100,3,1,3,50,0,1
79066,-100,3,1,1,40,0,1
80982,-100,3,1,3,50,0,1
81066,-100,3,1,1,40,0,1
90982,-100,3,1,3,50,0,1
91066,-100,3,1,1,40,0,1
92982,-100,3,1,3,50,0,1
93066,-100,3,1,1,40,0,1
93649,-100,3,1,1,40,0,0
93982,-100,3,1,1,40,0,1
94982,-100,3,1,3,50,0,1
95066,-100,3,1,1,40,0,1
96982,-100,3,1,3,50,0,1
97066,-100,3,1,1,40,0,1
109982,333.333333333333,5,1,1,40,1,0
123315,-133.333333333333,5,2,1,40,0,0
136650,333.333333333333,3,2,1,40,1,0
139650,-200,3,2,1,20,0,0
176649,-100,3,1,1,40,0,1
189649,-100,3,1,3,50,0,1
189733,-100,3,1,1,40,0,1
191649,-100,3,1,3,50,0,1
191733,-100,3,1,1,40,0,1
192316,-100,3,1,1,40,0,0
192649,-100,3,1,1,40,0,1
208649,-100,3,1,1,40,0,0
217983,-100,3,1,1,35,0,0
219316,-100,3,1,1,30,0,0
220649,-100,3,1,1,25,0,0
221983,-100,3,1,1,20,0,0
223316,-100,3,1,1,15,0,0
224649,-100,3,1,1,10,0,0
224983,-100,3,1,1,5,0,0

[Colours]
Combo1 : 192,192,192
Combo2 : 0,191,244
Combo3 : 240,229,0
Combo4 : 239,96,0
Combo5 : 123,205,0
Combo6 : 222,0,131
Combo7 : 128,128,128

[HitObjects]
84,84,31650,5,2,0:0:0:0:
184,68,31984,1,2,0:0:0:0:
148,160,32317,1,2,0:0:0:0:
248,140,32650,6,0,B|300:80|364:72|436:112,1,200,0|8,0:0|0:0,0:0:0:0:
396,204,33650,2,0,B|344:264|280:272|208:232,1,200,0|8,0:0|0:0,0:0:0:0:
116,224,34650,2,0,B|56:172|48:108|88:36,1,200,0|8,0:0|0:0,0:0:0:0:
168,96,35650,2,0,B|228:148|236:212|196:284,1,200,0|8,0:0|0:0,0:0:0:0:
300,284,36650,5,0,0:0:0:0:
300,284,36984,1,0,0:0:0:0:
300,284,37317,1,8,0:0:0:0:
384,232,37650,5,0,0:0:0:0:
384,232,37984,1,0,0:0:0:0:
384,232,38317,1,8,0:0:0:0:
320,156,38650,6,0,B|224:192|224:192|132:152,1,200,0|8,0:0|0:0,0:0:0:0:
208,88,39651,2,0,B|296:52|296:52|396:92,1,200,0|8,0:0|0:0,0:0:0:0:
476,148,40651,37,0,0:0:0:0:
428,236,40984,1,0,0:0:0:0:
368,156,41317,1,8,0:0:0:0:
324,248,41651,5,0,0:0:0:0:
264,168,41984,2,0,L|232:124,2,50,0|0|8,0:0|0:0|0:0,0:0:0:0:
216,256,42651,6,0,P|128:224|124:128,1,200,0|8,0:0|0:0,0:0:0:0:
208,72,43651,1,0,0:0:0:0:
308,52,43984,2,0,L|360:52,2,50,0|0|8,0:0|0:0|0:0,0:0:0:0:
324,152,44651,5,0,0:0:0:0:
420,128,44984,1,0,0:0:0:0:
456,220,45317,2,0,L|488:180,2,50,8|0|0,0:0|0:0|0:0,0:0:0:0:
440,320,45984,5,0,0:0:0:0:
344,292,46317,1,8,0:0:0:0:
372,196,46651,2,0,P|352:96|268:64,1,200,0|8,0:0|0:0,0:0:0:0:
268,164,47651,2,0,P|168:144|136:60,1,200,0|8,0:0|0:0,0:0:0:0:
248,52,48650,38,0,P|300:56|348:92,1,112.500004291534,4|8,0:0|0:0,0:0:0:0:
436,88,49483,2,0,L|480:88,1,37.5000014305115,8|8,0:0|0:0,0:0:0:0:
452,176,49983,1,0,0:0:0:0:
404,252,50316,6,0,P|368:288|308:304,1,112.500004291534,0|8,0:0|0:0,0:0:0:0:
244,244,51150,2,0,L|204:236,1,37.5000014305115
208,148,51650,2,0,L|244:140,2,37.5000014305115,8|8|8,0:0|0:0|0:0,0:0:0:0:
336,192,52483,5,8,0:0:0:0:
424,192,52816,2,0,L|464:192,1,37.5000014305115,8|8,0:0|0:0,0:0:0:0:
452,108,53316,1,0,0:0:0:0:
368,72,53650,6,0,B|324:44|324:44|268:64,1,112.500004291534,0|8,0:0|0:0,0:0:0:0:
296,152,54483,2,0,L|256:168,1,37.5000014305115
184,120,54983,1,8,0:0:0:0:
104,160,55316,6,0,P|60:196|56:248,1,112.500004291534,4|8,0:0|0:0,0:0:0:0:
144,240,56149,2,0,L|148:288,1,37.5000014305115,8|8,0:0|0:0,0:0:0:0:
172,364,56650,37,0,0:0:0:0:
228,292,56983,2,0,P|264:248|268:192,1,112.500004291534,0|8,0:0|0:0,0:0:0:0:
248,108,57816,2,0,L|228:68,1,37.5000014305115
320,68,58316,2,0,L|340:108,2,37.5000014305115,8|8|8,0:0|0:0|0:0,0:0:0:0:
456,84,59150,5,8,0:0:0:0:
428,168,59483,2,0,L|408:204,1,37.5000014305115,8|8,0:0|0:0,0:0:0:0:
364,280,59983,1,0,0:0:0:0:
280,248,60316,2,0,L|168:236,1,112.500004291534,0|8,0:0|0:0,0:0:0:0:
208,156,61150,2,0,L|252:160,1,37.5000014305115,8|8,0:0|0:0,0:0:0:0:
308,96,61650,1,8,0:0:0:0:
400,92,61983,6,0,L|488:144,2,99.9999999999999,4|0|8,2:0|0:0|0:0,0:0:0:0:
344,176,62983,2,0,L|369:274,2,99.9999999999999,0|0|8,0:0|0:0|0:0,0:0:0:0:
248,200,63983,2,0,L|196:288,2,99.9999999999999,0|0|8,0:0|0:0|0:0,0:0:0:0:
152,168,64983,5,0,0:0:0:0:
124,72,65316,1,0,0:0:0:0:
224,88,65649,1,8,0:0:0:0:
316,44,65983,6,0,L|420:44,2,99.9999999999999,0|0|8,0:0|0:0|0:0,0:0:0:0:
352,140,66983,2,0,L|248:140,2,99.9999999999999,0|0|8,0:0|0:0|0:0,0:0:0:0:
344,240,67982,2,0,L|448:240,2,99.9999999999999,0|0|8,0:0|0:0|0:0,0:0:0:0:
272,308,68982,2,0,L|228:336,2,50
212,228,69649,37,8,0:0:0:0:
148,152,69982,2,0,P|224:68|320:44,1,200,0|8,0:0|0:0,0:0:0:0:
380,112,70982,2,0,L|300:172,2,99.9999999999999,0|0|8,0:0|0:0|0:0,0:0:0:0:
420,208,71982,2,0,L|500:148,2,99.9999999999999,0|0|8,0:0|0:0|0:0,0:0:0:0:
348,276,72982,5,0,0:0:0:0:
256,312,73316,1,0,0:0:0:0:
164,276,73649,1,8,0:0:0:0:
92,208,73982,2,0,L|12:148,2,99.9999999999999,0|0|8,0:0|0:0|0:0,0:0:0:0:
140,120,74982,2,0,L|220:180,2,99.9999999999999,0|0|8,0:0|0:0|0:0,0:0:0:0:
256,192,75982,12,0,77649,2:0:0:0:
168,132,77982,6,0,P|256:92|344:132,2,200,4|0|0,0:0|0:0|0:0,2:0:0:0:
256,192,79649,1,0,0:0:0:0:
344,252,79982,2,0,P|256:292|168:252,2,200,4|0|0,0:0|0:0|0:0,0:0:0:0:
384,164,81649,1,0,0:0:0:0:
440,80,81982,6,0,B|496:140|472:220,2,150,4|0|8,0:0|0:0|0:0,0:0:0:0:
344,108,83316,1,0,0:0:0:0:
256,60,83649,1,0,0:0:0:0:
164,100,83982,6,0,P|76:156|68:244,1,200,4|0,0:0|0:0,0:0:0:0:
160,200,84982,2,0,L|252:244,2,99.9999999999999,8|0|0,0:0|0:0|0:0,0:0:0:0:
160,300,85982,1,0,0:0:0:0:
256,332,86316,1,0,0:0:0:0:
352,300,86649,1,8,0:0:0:0:
348,200,86982,38,0,L|256:244,2,99.9999999999999,0|0|8,0:0|0:0|0:0,0:0:0:0:
340,100,87982,2,0,B|304:48|256:91|256:91|208:48|172:100,1,200,4|8,0:0|0:0,0:0:0:0:
212,192,88982,2,0,P|216:280|132:340,1,200,4|0,0:0|0:0,0:0:0:0:
132,240,89982,6,0,B|64:252|32:188|32:188|76:156|72:104|72:104|100:48|164:52|164:52|184:80|216:92,1,400,4|0,0:0|0:0,0:0:0:0:
256,184,91649,1,0,0:0:0:0:
296,92,91982,2,0,B|328:80|348:52|348:52|412:48|440:104|440:104|436:156|480:188|480:188|448:252|380:240,1,400,4|0,0:0|0:0,0:0:0:0:
380,240,93649,1,0,0:0:0:0:
304,176,93982,6,0,B|252:152|208:176|208:176|164:200|112:176,2,200,4|0|0,0:0|0:0|0:0,0:0:0:0:
256,256,95649,1,0,0:0:0:0:
336,316,95982,2,0,P|256:367|176:315,2,200,4|0|0,0:0|0:0|0:0,0:0:0:0:
328,216,97649,1,0,0:0:0:0:
412,268,97982,2,0,B|456:248|472:192|472:192|456:136|408:120,1,200,4|0,0:0|0:0,0:0:0:0:
312,100,98982,5,8,0:0:0:0:
256,20,99316,1,0,0:0:0:0:
200,100,99649,1,0,0:0:0:0:
100,116,99982,2,0,B|56:136|40:192|40:192|56:248|104:264,1,200,4|0,0:0|0:0,0:0:0:0:
172,192,100982,2,0,L|276:192,2,99.9999999999999,8|0|0,0:0|0:0|0:0,0:0:0:0:
172,292,101982,6,0,B|208:344|256:301|256:301|304:344|340:292,1,200
424,240,102982,1,8,0:0:0:0:
336,192,103316,1,0,0:0:0:0:
424,144,103649,1,0,0:0:0:0:
372,60,103982,2,0,P|280:20|184:32,1,200,4|0,0:0|0:0,0:0:0:0:
244,112,104982,2,0,P|147:140|81:211,1,200,12|0,0:0|0:0,0:0:0:0:
32,300,105982,38,0,P|180:328|208:212,1,300,4|8,0:0|0:0,0:0:0:0:
204,112,107316,1,0,0:0:0:0:
308,112,107649,1,0,0:0:0:0:
304,212,107982,2,0,P|332:328|480:300,2,300,4|12|4,0:0|0:0|2:0,0:0:0:0:
256,192,110065,12,0,113315,2:0:0:0:
184,136,123315,69,4,0:0:0:0:
256,48,123815,1,0,0:0:0:0:
328,136,124315,2,0,L|408:136,1,75.000002861023,2|0,2:0|2:0,0:0:0:0:
400,228,124981,2,0,P|376:272|320:292,1,112.500004291534,2|0,2:0|2:0,0:0:0:0:
184,296,125981,1,2,0:0:0:0:
392,260,129981,6,0,P|424:216|424:160,1,112.500004291534,2|0,0:0|0:0,0:0:0:0:
340,52,130981,1,2,0:0:0:0:
256,84,131315,1,0,0:0:0:0:
168,100,131648,2,0,P|157:211|222:302,1,225.000008583069,2|2,0:0|0:0,0:0:0:0:
136,132,139650,86,0,P|168:100|220:88,1,99.9999999999999,4|0,0:0|0:0,0:0:0:0:
292,124,140650,2,0,P|260:156|208:168,1,99.9999999999999,2|0,0:0|0:0,0:0:0:0:
136,208,141650,2,0,L|96:308,1,99.9999999999999
176,328,142650,6,0,B|232:324|252:268|252:268|268:216|324:212,1,200,2|2,0:0|0:0,0:0:0:0:
400,188,144316,1,0,0:0:0:0:
480,188,144650,1,0,0:0:0:0:
244,160,145650,86,0,P|204:188|172:232,1,99.9999999999999,2|0,0:0|0:0,0:0:0:0:
100,196,146650,2,0,P|144:136|208:88,1,150,2|0,0:0|0:0,0:0:0:0:
432,168,148650,1,2,0:0:0:0:
252,324,149650,6,0,P|188:324|144:256,2,150,2|0|2,0:0|0:0|0:0,0:0:0:0:
260,84,152650,1,0,0:0:0:0:
260,84,153649,2,0,L|360:84,1,99.9999999999999,2|0,0:0|0:0,0:0:0:0:
440,68,154649,6,0,P|432:120|396:160,1,99.9999999999999,4|0,0:0|0:0,0:0:0:0:
332,192,155649,2,0,L|232:192,1,99.9999999999999,8|0,0:0|0:0,0:0:0:0:
152,176,156649,2,0,P|160:228|196:268,1,99.9999999999999,0|0,0:0|0:0,0:0:0:0:
260,300,157649,2,0,L|360:300,1,99.9999999999999,8|0,0:0|0:0,0:0:0:0:
420,248,158650,5,4,0:0:0:0:
436,88,159649,2,0,L|476:52,2,50,8|0|0,0:0|0:0|0:0,0:0:0:0:
436,88,160650,1,0,0:0:0:0:
256,244,161650,1,8,0:0:0:0:
256,84,162316,1,0,0:0:0:0:
176,96,162650,6,0,P|153:133|101:149,1,99.9999999999999,4|0,0:0|0:0,0:0:0:0:
100,68,163650,2,0,P|48:84|24:128,1,99.9999999999999,8|0,0:0|0:0,0:0:0:0:
36,200,164650,2,0,L|12:304,1,99.9999999999999
92,300,165650,2,0,L|116:196,1,99.9999999999999,8|0,0:0|0:0,0:0:0:0:
188,172,166650,6,0,P|224:108|296:92,2,150,4|8|0,0:0|0:0|0:0,0:0:0:0:
396,288,169650,1,8,0:0:0:0:
396,288,170650,6,0,P|432:256|432:204,1,99.9999999999999,4|0,0:0|0:0,0:0:0:0:
388,140,171650,2,0,P|352:172|352:224,1,99.9999999999999,8|0,0:0|0:0,0:0:0:0:
396,288,172650,1,0,0:0:0:0:
112,168,175649,38,0,L|204:120,1,99.9999999999999
264,44,176649,6,0,P|384:104|296:188,1,300,4|8,0:0|0:0,0:0:0:0:
196,172,177983,1,8,0:0:0:0:
196,172,178316,1,8,0:0:0:0:
108,128,178649,6,0,P|20:212|140:272,1,300,4|8,0:0|0:0,0:0:0:0:
236,248,179983,1,8,0:0:0:0:
236,248,180316,1,8,0:0:0:0:
316,308,180649,6,0,B|352:228|296:168|296:168|340:144,1,200,4|0,0:0|0:0,0:0:0:0:
340,144,181650,1,8,0:0:0:0:
144,192,182316,1,0,0:0:0:0:
52,156,182649,6,0,P|63:62|154:33,1,200,4|0,0:0|0:0,0:0:0:0:
208,120,183650,2,0,B|308:120,1,99.9999999999999,8|0,0:0|0:0,0:0:0:0:
368,192,184316,1,0,0:0:0:0:
460,156,184649,2,0,P|448:62|357:33,1,200,4|0,0:0|0:0,0:0:0:0:
256,40,185650,38,0,L|256:144,2,99.9999999999999,8|0|0,0:0|0:0|0:0,0:0:0:0:
154,33,186650,2,0,P|63:62|52:156,1,200,0|0,0:3|0:3,3:3:0:0:
148,128,187650,2,0,L|232:192,1,99.9999999999999,8|0,0:0|0:0,0:0:0:0:
227,188,188316,1,0,0:0:0:0:
327,191,188650,6,0,P|325:243|204:284,2,200,0|8|0,0:0|0:0|0:0,0:0:0:0:
327,191,190316,1,0,0:0:0:0:
292,100,190650,2,0,P|338:75|433:160,2,200,0|8|0,0:0|0:0|0:0,0:0:0:0:
292,100,192316,1,0,0:0:0:0:
200,64,192650,6,0,B|96:80|96:80|72:172,1,200,4|0,0:0|0:0,0:0:0:0:
172,168,193650,2,0,L|144:276,1,99.9999999999999,8|0,0:0|0:0,0:0:0:0:
148,264,194316,1,0,0:0:0:0:
120,360,194650,2,0,B|224:344|224:344|248:252,1,200,4|0,0:0|0:0,0:0:0:0:
284,160,195650,5,8,0:0:0:0:
184,144,195983,2,0,P|192:96|240:76,1,99.9999999999999
336,64,196650,1,4,0:0:0:0:
412,192,197150,5,0,0:0:0:0:
484,324,197650,2,0,P|392:368|300:348,1,200,8|0,0:0|0:0,0:0:0:0:
256,256,198650,37,4,0:0:0:0:
120,320,199150,2,0,P|48:308|16:240,1,150,0|8,0:0|0:0,0:0:0:0:
116,228,199983,2,0,L|96:124,2,99.9999999999999
206,162,200983,2,0,L|213:56,2,99.9999999999999,0|0|8,0:0|0:0|0:0,0:0:0:0:
300,128,201983,6,0,L|392:88,1,99.9999999999999
440,0,202650,2,0,P|488:84|448:176,1,200,4|0,0:0|0:0,0:0:0:0:
444,268,203650,1,12,0:0:0:0:
364,204,203983,1,0,0:0:0:0:
348,304,204316,1,0,0:0:0:0:
256,348,204650,6,0,B|224:248|140:192|140:192|228:148|256:36,1,400,4|8,0:0|0:0,0:0:0:0:
356,40,206316,1,0,0:0:0:0:
456,52,206650,6,0,P|504:192|456:332,2,300,0|8|0,0:0|0:0|0:0,0:0:0:0:
384,124,208983,5,8,0:0:0:0:
384,224,209316,1,0,0:0:0:0:
296,172,209650,1,8,0:0:0:0:
232,92,209983,38,0,L|136:64,2,99.9999999999999,8|8|8,0:0|0:0|0:0,0:0:0:0:
172,172,210983,2,0,L|72:172,2,99.9999999999999,8|8|8,0:0|0:0|0:0,0:0:0:0:
232,252,211983,2,0,L|136:280,2,99.9999999999999,8|8|8,0:0|0:0|0:0,0:0:0:0:
296,172,212983,5,8,0:0:0:0:
384,224,213316,1,8,0:0:0:0:
384,124,213649,1,8,0:0:0:0:
308,60,213983,6,0,P|348:28|396:24,2,99.9999999999999,0|8|8,0:0|0:0|0:0,0:0:0:0:
384,124,214983,2,0,P|432:120|472:88,2,99.9999999999999,8|0|8,0:0|0:0|0:0,0:0:0:0:
296,172,215983,1,8,0:0:0:0:
200,204,216316,1,8,0:0:0:0:
272,272,216649,1,4,0:0:0:0:
256,192,216733,12,0,224983,2:0:0:0:
