osu file format v12

[General]
AudioFilename: Omoide Kakera.mp3
AudioLeadIn: 0
PreviewTime: 76754
Countdown: 0
SampleSet: Normal
StackLeniency: 0.8
Mode: 0
LetterboxInBreaks: 0

[Editor]
Bookmarks: 57930,72330,218430
DistanceSpacing: 1.1
BeatDivisor: 4
GridSize: 8

[Metadata]
Title:Omoide Kakera
TitleUnicode:想イ出カケラ
Artist:nano
ArtistUnicode:ナノ
Creator:Haya
Version:Normal
Source:
Tags:Sakuya Layfon LunarSakuya Red_Layfon nanoir nicovideo Nico Nico Douga
BeatmapID:218372
BeatmapSetID:62510

[Difficulty]
HPDrainRate:5
CircleSize:3
OverallDifficulty:4
ApproachRate:5
SliderMultiplier:1.1
SliderTickRate:1

[Events]
//Background and Video events
0,0,"Omoide Kakera BG.jpg",0,0
//Break Periods
2,163200,175000
2,198000,201400
//Storyboard Layer 0 (Background)
//Storyboard Layer 1 (Fail)
//Storyboard Layer 2 (Pass)
//Storyboard Layer 3 (Foreground)
Sprite,Foreground,Centre,"white.jpg",320,240 S,0,0,,0.8 C,0,0,,0,0,0 F,0,76530,77130,0,1 F,0,77130,77730,1 F,0,77730,77805,1,0 F,0,138930,139530,0,1 F,0,139530,140130,1 F,0,140130,140205,1,0 F,0,218130,218730,0,1 F,0,218730,219330,1 F,0,219330,219405,1,0
Sprite,Foreground,Centre,"Omoide Kakera BG.jpg",320,240 F,0,77730,78330,1,0 S,0,77730,78330,0.625,0.75 F,0,140130,140730,1,0 S,0,140130,140730,0.625,0.75 F,0,219330,219930,1,0 S,0,219330,219930,0.625,0.75
Sprite,Foreground,Centre,"white.jpg",320,240 L,77730,1 F,1,0,600,0.6,0 P,0,0,600,A
Sprite,Foreground,Centre,"white.jpg",320,240 L,140130,1 F,1,0,600,0.6,0 P,0,0,600,A
Sprite,Foreground,Centre,"white.jpg",320,240 L,219330,1 F,1,0,600,0.6,0 P,0,0,600,A
//Storyboard Sound Samples
//Background Colour Transformations
3,100,163,162,255

[TimingPoints]
1000,300,4,1,1,80,1,0
20425,-100,4,1,2,80,0,0
20575,-100,4,1,1,80,0,0
27025,-100,4,1,2,80,0,0
27175,-100,4,1,1,80,0,0
34825,-100,4,1,2,80,0,0
34975,-100,4,1,1,80,0,0
35425,-100,4,1,2,80,0,0
35575,-100,4,1,1,80,0,0
44425,-100,4,1,2,80,0,0
44575,-100,4,1,1,80,0,0
45025,-100,4,1,2,80,0,0
45175,-100,4,1,1,80,0,0
58600,-133.333333333333,4,1,1,80,0,0
58900,-133.333333333333,4,2,1,80,0,0
59125,-133.333333333333,4,1,1,80,0,0
59275,-133.333333333333,4,2,1,80,0,0
60325,-133.333333333333,4,1,1,80,0,0
60475,-133.333333333333,4,2,1,80,0,0
61525,-133.333333333333,4,1,1,80,0,0
61675,-133.333333333333,4,2,1,80,0,0
62725,-133.333333333333,4,1,1,80,0,0
62875,-133.333333333333,4,2,1,80,0,0
63925,-133.333333333333,4,1,1,80,0,0
64075,-133.333333333333,4,2,1,80,0,0
65125,-133.333333333333,4,1,2,80,0,0
65275,-133.333333333333,4,2,1,80,0,0
66325,-133.333333333333,4,1,2,80,0,0
66475,-133.333333333333,4,2,2,80,0,0
67600,-133.333333333333,4,1,1,80,0,0
68275,-133.333333333333,4,2,1,80,0,0
68725,-133.333333333333,4,1,1,80,0,0
68875,-133.333333333333,4,2,1,80,0,0
69925,-133.333333333333,4,1,1,80,0,0
70075,-133.333333333333,4,2,1,80,0,0
71125,-133.333333333333,4,1,1,80,0,0
71275,-133.333333333333,4,2,1,80,0,0
72400,-133.333333333333,4,1,1,80,0,0
73300,-100,4,1,1,80,0,0
76900,-133.333333333333,4,1,1,80,0,0
77800,-100,4,1,1,80,0,1
86800,-133.333333333333,4,1,1,80,0,1
87325,-100,4,1,1,80,0,0
87400,-100,4,1,1,80,0,1
87625,-100,4,1,2,80,0,1
87775,-100,4,1,1,80,0,1
96700,-100,4,1,1,80,0,0
100225,-100,4,2,1,10,0,0
100375,-100,4,1,1,80,0,0
116425,-100,4,1,2,80,0,0
116575,-100,4,1,1,80,0,0
121300,-133.333333333333,4,2,1,80,0,0
121525,-133.333333333333,4,1,1,80,0,0
121675,-133.333333333333,4,2,1,80,0,0
122725,-133.333333333333,4,1,1,80,0,0
122875,-133.333333333333,4,2,1,80,0,0
123925,-133.333333333333,4,1,1,80,0,0
124075,-133.333333333333,4,2,1,80,0,0
125200,-133.333333333333,4,1,1,80,0,0
125275,-133.333333333333,4,2,1,80,0,0
125425,-133.333333333333,4,1,1,80,0,0
125575,-133.333333333333,4,2,1,80,0,0
126325,-133.333333333333,4,1,1,80,0,0
126475,-133.333333333333,4,2,1,80,0,0
129925,-133.333333333333,4,1,1,80,0,0
130375,-133.333333333333,4,2,1,80,0,0
131125,-133.333333333333,4,1,1,80,0,0
131275,-133.333333333333,4,2,1,80,0,0
133525,-133.333333333333,4,1,1,80,0,0
133675,-133.333333333333,4,2,1,80,0,0
134800,-100,4,1,1,80,0,0
135700,-100,4,1,1,80,0,0
138025,-100,4,1,2,80,0,0
138175,-100,4,1,1,80,0,0
139300,-133.333333333333,4,1,1,80,0,0
140200,-100,4,1,1,80,0,1
149725,-100,4,1,1,80,0,0
149800,-100,4,1,1,80,0,1
159100,-100,4,1,1,80,0,0
162925,-100,4,2,1,10,0,0
163075,-100,4,1,1,80,0,0
178825,-100,4,1,2,80,0,0
178975,-100,4,1,1,80,0,0
180025,-100,4,1,2,80,0,0
180175,-100,4,1,1,80,0,0
181225,-100,4,1,2,80,0,0
181375,-100,4,1,1,80,0,0
182425,-100,4,1,2,80,0,0
182575,-100,4,1,1,80,0,0
207625,-100,4,1,2,80,0,0
207775,-100,4,1,1,80,0,0
208825,-100,4,1,2,80,0,0
208975,-100,4,1,1,80,0,0
214825,-100,4,1,2,80,0,0
214975,-100,4,1,1,80,0,0
219400,-100,4,1,1,80,0,1
228400,-133.333333333333,4,1,1,80,0,1
228925,-100,4,1,1,80,0,0
229000,-100,4,1,1,80,0,1
234025,-100,4,1,2,80,0,1
234175,-100,4,1,1,80,0,1
238300,-100,4,1,1,80,0,0

[Colours]
Combo1 : 215,215,215
Combo2 : 164,164,255
Combo3 : 61,81,160
Combo4 : 164,255,255
Combo5 : 164,255,164

[HitObjects]
256,192,17800,5,4,0:0:0:0:
352,288,18100,2,0,B|296:272,1,55,0|4,0:0|0:0,0:0:0:0:
160,288,18550,2,0,B|232:264,1,55,0|4,0:0|0:0,0:0:0:0:
136,40,19300,5,0,0:0:0:0:
256,72,19600,1,0,0:0:0:0:
376,40,19900,1,0,0:0:0:0:
368,160,20200,6,0,B|247:168|176:296,1,220,0|0,0:0|0:0,0:0:0:0:
318,273,21100,2,0,B|260:167|139:159,1,220
88,48,22000,6,0,B|139:35|208:64,1,110,0|2,0:0|0:0,0:0:0:0:
316,59,22600,2,0,B|372:35|424:48,1,110,0|2,0:0|0:0,0:0:0:0:
310,142,23200,2,0,B|251:168|193:137,2,110,0|2|0,0:0|0:0|0:0,0:0:0:0:
416,200,24100,1,2,0:0:0:0:
336,288,24400,1,0,0:0:0:0:
456,312,24700,1,2,0:0:0:0:
336,288,25000,6,0,B|213:288,1,110,4|2,0:0|0:0,0:0:0:0:
152,192,25600,2,0,B|275:192,1,110,0|2,0:0|0:0,0:0:0:0:
336,96,26200,2,0,B|213:96,1,110,0|2,0:0|0:0,0:0:0:0:
108,91,26800,6,0,B|28:196|120:313,1,220
184,192,27700,2,0,B|282:113|387:193,1,220,2|2,0:0|0:0,0:0:0:0:
384,328,28600,5,0,0:0:0:0:
256,344,28900,1,2,0:0:0:0:
312,240,29200,1,0,0:0:0:0:
256,136,29500,1,2,0:0:0:0:
200,240,29800,6,0,B|136:240|96:184,1,110,4|2,0:0|0:0,0:0:0:0:
160,88,30400,2,0,B|128:42|64:42,2,110,0|2|0,0:0|0:0|0:0,0:0:0:0:
256,168,31300,1,2,0:0:0:0:
352,88,31600,2,0,B|383:42|447:42,1,110,0|2,0:0|0:0,0:0:0:0:
448,160,32200,2,0,B|417:206|353:206,1,110,0|2,0:0|0:0,0:0:0:0:
280,304,32800,5,0,0:0:0:0:
174,253,33100,2,0,B|110:277,2,55,2|0|0,0:0|0:0|0:0,0:0:0:0:
174,131,33700,2,0,B|110:107,2,55,2|0|0,0:0|0:0|0:0,0:0:0:0:
280,192,34300,1,2,0:0:0:0:
288,72,34600,6,0,B|430:53|502:184|439:323|285:311,1,440,4|0,0:0|0:0,0:0:0:0:
288,192,36100,6,0,B|176:192,1,110,2|0,0:0|0:0,0:0:0:0:
120,88,36700,1,2,0:0:0:0:
56,192,37000,1,0,0:0:0:0:
120,296,37300,1,2,0:0:0:0:
240,280,37600,6,0,B|256:208|320:184,1,110,0|2,0:0|0:0,0:0:0:0:
240,104,38200,2,0,B|256:176|320:200,1,110,0|2,0:0|0:0,0:0:0:0:
424,192,38800,1,0,0:0:0:0:
424,192,39100,2,0,L|496:192,2,55
318,258,39700,5,2,0:0:0:0:
197,258,40000,1,0,0:0:0:0:
160,144,40300,1,2,0:0:0:0:
256,64,40600,1,0,0:0:0:0:
352,144,40900,1,2,0:0:0:0:
432,232,41200,6,0,B|416:296|360:336,1,110,0|2,0:0|0:0,0:0:0:0:
301,223,41800,2,0,B|256:257|256:257|201:214,1,110,0|2,0:0|0:0,0:0:0:0:
136,324,42400,2,0,B|96:296|80:232,2,110,0|2|0,0:0|0:0|0:0,0:0:0:0:
256,344,43300,1,2,0:0:0:0:
256,344,43600,5,0,0:0:0:0:
256,216,43900,1,2,0:0:0:0:
136,216,44200,2,0,B|120:128|168:56|256:32|344:56|392:128|376:216,1,440
311,316,45700,2,0,B|249:349|185:304,1,110,2|0,0:0|0:0,0:0:0:0:
96,264,46300,1,2,0:0:0:0:
192,192,46600,5,0,0:0:0:0:
96,120,46900,1,2,0:0:0:0:
201,68,47200,2,0,B|263:35|327:80,1,110,0|2,0:0|0:0,0:0:0:0:
320,192,47800,5,0,0:0:0:0:
256,296,48100,1,2,0:0:0:0:
256,296,48400,2,0,B|256:360,4,55,0|0|2|2|6,0:0|0:0|0:0|0:0|0:0,0:0:0:0:
200,184,49300,1,2,0:0:0:0:
96,120,49600,1,0,0:0:0:0:
200,56,49900,1,2,0:0:0:0:
312,56,50200,5,0,0:0:0:0:
416,120,50500,1,2,0:0:0:0:
312,184,50800,1,0,0:0:0:0:
256,288,51100,1,2,0:0:0:0:
136,269,51400,6,0,B|104:221|56:189,1,110,0|2,0:0|0:0,0:0:0:0:
136,113,52000,2,0,B|104:161|56:193,1,110,0|2,0:0|0:0,0:0:0:0:
176,192,52600,1,0,0:0:0:0:
416,192,53200,5,0,0:0:0:0:
416,192,53500,1,2,0:0:0:0:
384,72,53800,2,0,B|328:184,1,110,0|2,0:0|0:0,0:0:0:0:
256,264,54400,2,0,B|256:144,1,110,0|2,0:0|0:0,0:0:0:0:
128,72,55000,2,0,B|184:184,1,110,0|2,0:0|0:0,0:0:0:0:
56,192,55600,5,0,0:0:0:0:
64,312,55900,2,0,B|126:324|170:256,1,110,2|0,0:0|0:0,0:0:0:0:
160,152,56500,2,0,B|222:140|266:208,1,110,2|0,0:0|0:0,0:0:0:0:
256,312,57100,1,2,0:0:0:0:
256,193,57400,2,0,B|290:140|352:152,1,110
256,72,58000,5,0,0:0:0:0:
256,72,58300,1,0,0:0:0:0:
256,72,58600,1,4,0:0:0:0:
328,128,58900,2,0,B|272:200,1,82.5000031471254,0|2,0:0|0:0,0:0:0:0:
184,208,59500,2,0,B|240:280,1,82.5000031471254,0|2,0:0|0:0,0:0:0:0:
256,360,60100,1,0,0:0:0:0:
168,336,60400,6,0,B|112:264,1,82.5000031471254,2|0,0:0|0:0,0:0:0:0:
72,192,61000,1,2,0:0:0:0:
117,113,61300,2,0,B|168:48,1,82.5000031471254,0|2,0:0|0:0,0:0:0:0:
256,24,61900,1,0,0:0:0:0:
320,88,62200,1,2,0:0:0:0:
232,112,62500,1,0,0:0:0:0:
296,176,62800,6,0,B|325:220|293:265,1,82.5000031471254,2|0,0:0|0:0,0:0:0:0:
215,219,63400,2,0,B|186:263|218:308,1,82.5000031471254,2|0,0:0|0:0,0:0:0:0:
120,296,64000,2,0,B|145:329|116:373,2,82.5000031471254,2|0|2,0:0|0:0|0:0,0:0:0:0:
32,328,64900,6,0,B|7:241|56:168,1,165.000006294251
88,80,65800,1,2,0:0:0:0:
176,48,66100,2,0,B|263:72|333:25,1,165.000006294251
352,112,67000,1,2,0:0:0:0:
432,64,67300,1,0,0:0:0:0:
432,152,67600,6,0,B|464:192,4,41.2500015735627,2|0|2|0|4,0:0|0:0|0:0|0:0|0:0,0:0:0:0:
352,200,68500,2,0,B|290:258,1,82.5000031471254,0|2,0:0|0:0,0:0:0:0:
204,220,69100,2,0,B|265:161,1,82.5000031471254,0|2,0:0|0:0,0:0:0:0:
229,73,69700,2,0,B|167:131,1,82.5000031471254,0|2,0:0|0:0,0:0:0:0:
104,192,70300,5,0,0:0:0:0:
144,272,70600,1,2,0:0:0:0:
212,332,70900,1,0,0:0:0:0:
302,332,71200,1,2,0:0:0:0:
368,272,71500,1,0,0:0:0:0:
408,192,71800,1,2,0:0:0:0:
256,112,72400,6,0,B|256:64,4,41.2500015735627,2|0|2|0|6,0:0|0:0|0:0|0:0|0:0,0:0:0:0:
136,96,73300,6,0,B|104:216,1,110,2|0,0:0|0:0,0:0:0:0:
144,320,73900,2,0,B|216:216,1,110,2|0,0:0|0:0,0:0:0:0:
256,112,74500,1,2,0:0:0:0:
305,229,74800,2,0,B|368:320,1,110,0|2,0:0|0:0,0:0:0:0:
392,200,75400,2,4,B|344:136|344:136|354:91|318:38,2,165
368,320,76600,1,0,0:0:0:0:
256,264,76900,6,0,B|256:352,2,82.5000031471254,2|0|2,0:0|0:0|0:0,0:0:0:0:
133,262,77800,6,0,B|68:256|61:188,1,110,4|2,0:0|0:0,0:0:0:0:
133,122,78400,2,0,B|68:128|61:196,1,110,0|2,0:0|0:0,0:0:0:0:
61,192,79000,1,0,0:0:0:0:
184,192,79300,6,0,B|296:192,1,110,2|0,0:0|0:0,0:0:0:0:
344,304,79900,1,2,0:0:0:0:
384,192,80200,5,0,0:0:0:0:
344,80,80500,1,2,0:0:0:0:
256,160,80800,1,0,0:0:0:0:
168,80,81100,1,2,0:0:0:0:
128,192,81400,1,0,0:0:0:0:
168,304,81700,1,2,0:0:0:0:
256,224,82000,1,0,0:0:0:0:
448,72,82600,6,0,B|384:56|352:112,1,110,0|2,0:0|0:0,0:0:0:0:
256,32,83200,2,0,B|202:70|224:131,1,110,0|2,0:0|0:0,0:0:0:0:
104,152,83800,2,0,B|99:217|160:239,1,110,0|2,0:0|0:0,0:0:0:0:
256,304,84400,1,0,0:0:0:0:
354,238,84700,2,0,B|412:217|408:152,1,110,2|0,0:0|0:0,0:0:0:0:
288,128,85300,5,2,0:0:0:0:
202,42,85600,1,0,0:0:0:0:
116,127,85900,1,2,0:0:0:0:
201,212,86200,1,0,0:0:0:0:
384,192,86800,6,0,B|464:240,1,82.5000031471254,0|2,0:0|0:0,0:0:0:0:
361,312,87400,2,0,B|255:258|148:313,1,220,4|0,0:0|0:0,0:0:0:0:
94,204,88300,2,0,B|150:212|206:175,1,110,2|0,0:0|0:0,0:0:0:0:
313,179,88900,2,0,B|362:212|418:204,1,110,2|0,0:0|0:0,0:0:0:0:
392,88,89500,6,0,B|448:80|496:112,2,110,2|0|2,0:0|0:0|0:0,0:0:0:0:
280,32,90400,1,0,0:0:0:0:
232,144,90700,1,2,0:0:0:0:
120,88,91000,2,0,B|64:80|15:112,1,110,0|2,0:0|0:0,0:0:0:0:
104,192,91600,5,0,0:0:0:0:
196,269,91900,1,2,0:0:0:0:
317,269,92200,1,0,0:0:0:0:
408,192,92500,1,2,0:0:0:0:
317,115,92800,1,0,0:0:0:0:
196,115,93100,1,2,0:0:0:0:
256,216,93400,1,0,0:0:0:0:
256,216,93700,6,0,B|256:328,2,110,2|0|2,0:0|0:0|0:0,0:0:0:0:
136,200,94600,2,0,B|148:137|206:103,1,110,0|2,0:0|0:0,0:0:0:0:
317,110,95200,2,0,B|364:137|376:200,1,110,0|2,0:0|0:0,0:0:0:0:
376,320,95800,5,0,0:0:0:0:
256,344,96100,1,0,0:0:0:0:
136,320,96400,1,0,0:0:0:0:
256,248,96700,1,4,0:0:0:0:
256,192,96775,12,0,100300,0:0:0:0:
344,192,101800,5,4,0:0:0:0:
256,272,102100,1,2,0:0:0:0:
168,192,102400,1,0,0:0:0:0:
256,112,102700,2,0,B|312:88|368:96,1,110,2|0,0:0|0:0,0:0:0:0:
456,176,103300,6,0,B|400:200|344:192,1,110,2|0,0:0|0:0,0:0:0:0:
256,272,103900,1,2,0:0:0:0:
163,192,104200,2,0,B|112:200|56:176,1,110,0|2,0:0|0:0,0:0:0:0:
136,80,104800,1,0,0:0:0:0:
256,112,105100,1,2,0:0:0:0:
376,80,105400,1,0,0:0:0:0:
318,315,106000,5,0,0:0:0:0:
197,315,106300,1,2,0:0:0:0:
200,192,106600,2,0,B|224:80,1,110,0|2,0:0|0:0,0:0:0:0:
312,168,107200,2,0,B|288:280,1,110,0|2,0:0|0:0,0:0:0:0:
288,275,107800,1,0,0:0:0:0:
421,292,108100,6,0,B|397:232|453:180,1,110,2|0,0:0|0:0,0:0:0:0:
421,92,108700,2,0,B|397:152|453:204,1,110,2|0,0:0|0:0,0:0:0:0:
320,192,109300,1,2,0:0:0:0:
200,192,109600,1,0,0:0:0:0:
128,96,109900,1,2,0:0:0:0:
56,192,110200,1,0,0:0:0:0:
66,311,110500,6,0,B|26:351,2,55,2|0|2,0:0|0:0|0:0,0:0:0:0:
187,311,111100,2,0,B|227:351,2,55,2|0|2,0:0|0:0|0:0,0:0:0:0:
296,256,111700,2,0,B|364:288|416:264,2,110,2|0|2,0:0|0:0|0:0,0:0:0:0:
256,144,112600,2,0,B|306:128|362:157,2,110,0|2|0,0:0|0:0|0:0,0:0:0:0:
256,144,113500,5,2,0:0:0:0:
256,24,113800,1,0,0:0:0:0:
160,104,114100,1,2,0:0:0:0:
196,221,114400,1,0,0:0:0:0:
317,221,114700,1,2,0:0:0:0:
352,104,115000,1,0,0:0:0:0:
256,328,115600,6,0,B|256:400,2,55,0|0|2,0:0|0:0|0:0,0:0:0:0:
174,242,116200,2,0,B|291:219|318:74,1,220
193,90,117100,2,0,B|216:218|333:241,1,220,2|2,0:0|0:0,0:0:0:0:
428,192,118000,2,0,B|380:192|332:240,1,110,0|2,0:0|0:0,0:0:0:0:
256,328,118600,5,0,0:0:0:0:
180,240,118900,2,0,B|132:192|84:192,1,110,2|0,0:0|0:0,0:0:0:0:
169,119,119500,2,0,B|224:140|256:184|256:184|287:140|344:120,1,220,2|2,0:0|0:0,0:0:0:0:
256,32,120400,1,0,0:0:0:0:
256,152,120700,1,0,0:0:0:0:
256,272,121000,5,4,0:0:0:0:
360,320,121300,2,0,B|360:232,1,82.5000031471254,0|2,0:0|0:0,0:0:0:0:
440,192,121900,1,0,0:0:0:0:
360,146,122200,2,0,B|360:64,1,82.5000031471254,2|0,0:0|0:0,0:0:0:0:
280,104,122800,2,0,B|280:192,1,82.5000031471254,2|0,0:0|0:0,0:0:0:0:
288,280,123400,6,0,B|239:282|210:239,1,82.5000031471254,2|0,0:0|0:0,0:0:0:0:
184,160,124000,2,0,B|160:125|111:127,1,82.5000031471254,2|0,0:0|0:0,0:0:0:0:
40,184,124600,2,0,B|63:218|112:216,1,82.5000031471254,2|0,0:0|0:0,0:0:0:0:
168,288,125200,5,2,0:0:0:0:
256,320,125500,1,0,0:0:0:0:
344,288,125800,5,2,0:0:0:0:
368,200,126100,2,0,B|319:189|288:224,1,82.5000031471254,0|2,0:0|0:0,0:0:0:0:
144,200,126700,2,0,B|193:189|224:224,1,82.5000031471254,0|2,0:0|0:0,0:0:0:0:
256,136,127300,1,0,0:0:0:0:
256,136,127600,1,0,0:0:0:0:
256,192,127900,12,4,129700,0:0:0:0:
256,312,130000,6,0,P|301:310|344:288,1,82.5000031471254,2|2,0:0|0:0,0:0:0:0:
280,224,130600,2,0,P|313:208|358:206,1,82.5000031471254,6|0,0:0|0:0,0:0:0:0:
384,120,131200,1,2,0:0:0:0:
304,80,131500,2,0,L|155:164,1,165.000006294251
192,248,132400,2,0,P|192:294|228:333,1,82.5000031471254,2|0,0:0|0:0,0:0:0:0:
299,322,133000,6,0,P|320:294|320:248,1,82.5000031471254,2|0,0:0|0:0,0:0:0:0:
408,248,133600,2,0,P|404:212|375:177,1,82.5000031471254,2|0,0:0|0:0,0:0:0:0:
448,120,134200,2,0,P|423:95|377:87,1,82.5000031471254,2|0,0:0|0:0,0:0:0:0:
256,112,134800,6,0,B|256:56,4,55,2|0|2|0|2,0:0|0:0|0:0|0:0|0:0,0:0:0:0:
152,176,135700,6,0,B|174:233|219:270,1,110,2|0,0:0|0:0,0:0:0:0:
360,176,136300,2,0,B|338:233|293:270,1,110,2|0,0:0|0:0,0:0:0:0:
240,368,136900,2,0,B|176:376|124:327,2,110,2|0|2,0:0|0:0|0:0,0:0:0:0:
300,263,137800,2,0,B|203:286|131:210,2,165,0|0|2,0:0|0:0|0:0,0:0:0:0:
248,152,139000,1,0,0:0:0:0:
128,144,139300,6,0,B|32:144,2,82.5000031471254
200,56,140200,6,0,B|144:32,2,55,4|0|2,0:0|0:0|0:0,0:0:0:0:
312,56,140800,2,0,B|368:32,2,55,0|0|2,0:0|0:0|0:0,0:0:0:0:
256,160,141400,1,0,0:0:0:0:
208,272,141700,6,0,B|141:295|109:236,1,110,2|0,0:0|0:0,0:0:0:0:
176,144,142300,2,0,B|153:77|212:45,1,110,2|0,0:0|0:0,0:0:0:0:
304,112,142900,2,0,B|371:89|403:148,1,110,2|0,0:0|0:0,0:0:0:0:
336,240,143500,2,0,B|331:314|264:376|161:351,1,220,2|2,0:0|0:0,0:0:0:0:
216,240,144400,1,0,0:0:0:0:
440,144,145000,6,0,B|376:168|328:144,1,110,0|2,0:0|0:0,0:0:0:0:
256,56,145600,1,0,0:0:0:0:
179,146,145900,2,0,B|136:168|72:144,1,110,2|0,0:0|0:0,0:0:0:0:
40,264,146500,2,0,B|104:240|147:261,1,110,2|0,0:0|0:0,0:0:0:0:
256,312,147100,5,2,0:0:0:0:
360,251,147400,1,0,0:0:0:0:
360,130,147700,1,2,0:0:0:0:
256,72,148000,1,0,0:0:0:0:
152,133,148300,1,2,0:0:0:0:
152,254,148600,1,0,0:0:0:0:
256,192,148900,5,2,0:0:0:0:
256,192,149200,1,0,0:0:0:0:
256,192,149500,1,2,0:0:0:0:
377,192,149800,6,0,B|355:57|206:77,1,220,4|0,0:0|0:0,0:0:0:0:
96,80,150700,1,2,0:0:0:0:
144,192,151000,1,0,0:0:0:0:
208,296,151300,6,0,B|264:312|312:264,1,110,2|0,0:0|0:0,0:0:0:0:
400,184,151900,2,0,B|448:151|442:83,1,110,2|0,0:0|0:0,0:0:0:0:
328,112,152500,1,2,0:0:0:0:
256,208,152800,1,0,0:0:0:0:
184,112,153100,1,2,0:0:0:0:
256,16,153400,1,0,0:0:0:0:
256,16,153700,1,2,0:0:0:0:
136,40,154000,6,0,B|80:64|40:120,1,110,0|2,0:0|0:0,0:0:0:0:
168,136,154600,2,0,B|201:199|158:256,1,110,0|2,0:0|0:0,0:0:0:0:
50,277,155200,2,0,B|80:320|136:344,1,110,0|2,0:0|0:0,0:0:0:0:
256,320,155800,1,0,0:0:0:0:
376,344,156100,2,0,B|432:320|461:277,1,110,2|0,0:0|0:0,0:0:0:0:
376,192,156700,5,2,0:0:0:0:
256,240,157000,1,0,0:0:0:0:
136,192,157300,1,2,0:0:0:0:
256,144,157600,1,0,0:0:0:0:
376,192,157900,1,2,0:0:0:0:
256,144,158200,2,0,B|256:32,2,110,0|2|0,0:0|0:0|0:0,0:0:0:0:
256,192,159100,12,0,163000,0:0:0:0:
256,192,176200,5,0,0:0:0:0:
173,112,176500,2,0,B|213:104|221:64,1,55,2|0,0:0|0:0,0:0:0:0:
339,112,176950,2,0,B|299:104|291:64,1,55,2|0,0:0|0:0,0:0:0:0:
256,192,177400,2,0,B|256:304,3,110,0|2|0|2,0:0|0:0|0:0|0:0,0:0:0:0:
389,336,178600,6,0,B|348:248|348:248|385:157|342:80|240:72,1,330,0|2,0:0|0:0,0:0:0:0:
256,73,179800,2,0,B|170:80|127:157|164:248|164:248|123:336,1,330,0|2,0:0|0:0,0:0:0:0:
248,328,181000,6,0,B|432:275|394:56,1,330,0|2,0:0|0:0,0:0:0:0:
264,56,182200,2,0,B|80:109|118:328,1,330,0|2,0:0|0:0,0:0:0:0:
240,330,183400,6,0,B|296:304|320:250,3,110,0|2|0|2,0:0|0:0|0:0|0:0,0:0:0:0:
200,242,184600,2,0,B|156:188|209:132,3,110,0|2|0|2,0:0|0:0|0:0|0:0,0:0:0:0:
240,58,185800,2,0,B|296:84|320:138,3,110,0|2|0|2,0:0|0:0|0:0|0:0,0:0:0:0:
200,160,187000,2,0,B|163:106|104:64,1,110,0|2,0:0|0:0,0:0:0:0:
0,72,187600,2,0,B|37:126|96:168,1,110,0|2,0:0|0:0,0:0:0:0:
152,240,188200,5,0,0:0:0:0:
256,304,188500,1,2,0:0:0:0:
360,240,188800,1,0,0:0:0:0:
256,176,189100,2,0,B|160:112,1,110,2|0,0:0|0:0,0:0:0:0:
256,32,189700,1,2,0:0:0:0:
347,114,190000,2,0,B|256:176,1,110,0|2,0:0|0:0,0:0:0:0:
136,192,190600,5,0,0:0:0:0:
152,312,190900,1,2,0:0:0:0:
256,368,191200,1,0,0:0:0:0:
360,312,191500,1,2,0:0:0:0:
376,192,191800,5,0,0:0:0:0:
256,128,192100,1,2,0:0:0:0:
256,256,192400,1,0,0:0:0:0:
136,192,192700,1,2,0:0:0:0:
136,192,193000,6,0,B|16:192,2,110,0|2|0,0:0|0:0|0:0,0:0:0:0:
171,107,193900,2,0,B|86:22,2,110,2|0|2,0:0|0:0|0:0,0:0:0:0:
256,152,194800,2,0,B|256:32,2,110,0|2|0,0:0|0:0|0:0,0:0:0:0:
340,107,195700,2,0,B|425:22,2,110,2|0|2,0:0|0:0|0:0,0:0:0:0:
376,192,196600,2,0,B|496:192,2,110,0|2|0,0:0|0:0|0:0,0:0:0:0:
256,192,197500,2,0,B|256:304,1,110,0|4,0:0|0:0,0:0:0:0:
256,264,202600,6,0,B|256:320,2,55,0|0|2,0:0|0:0|0:0,0:0:0:0:
144,304,203200,2,0,B|104:343,2,55,0|0|2,0:0|0:0|0:0,0:0:0:0:
184,192,203800,2,0,B|128:192,2,55,0|0|2,0:0|0:0|0:0,0:0:0:0:
144,80,204400,2,0,B|104:40,2,55,0|0|2,0:0|0:0|0:0,0:0:0:0:
256,120,205000,6,0,B|256:64,2,55,0|0|2,0:0|0:0|0:0,0:0:0:0:
368,80,205600,2,0,B|407:40,2,55,0|0|2,0:0|0:0|0:0,0:0:0:0:
328,192,206200,2,0,B|384:192,2,55,0|0|2,0:0|0:0|0:0,0:0:0:0:
368,304,206800,2,0,B|407:343,2,55,0|0|2,0:0|0:0|0:0,0:0:0:0:
256,264,207400,6,0,B|184:224|152:128,2,165,0|0|2,0:0|0:0|0:0,0:0:0:0:
256,264,208600,2,0,B|328:224|360:128,2,165,0|0|2,0:0|0:0|0:0,0:0:0:0:
256,144,209800,2,0,B|256:24,3,110,0|2|0|2,0:0|0:0|0:0|0:0,0:0:0:0:
136,56,211000,2,0,B|128:112|64:136,1,110,0|2,0:0|0:0,0:0:0:0:
67,249,211600,2,0,B|128:272|136:328,1,110,0|2,0:0|0:0,0:0:0:0:
256,336,212200,6,0,L|320:352,2,55,0|0|2,0:0|0:0|0:0,0:0:0:0:
192,232,212800,2,0,P|224:200|304:192,1,110,0|2,0:0|0:0,0:0:0:0:
400,144,213400,2,0,P|411:187|378:260,1,110,0|2,0:0|0:0,0:0:0:0:
376,368,214000,2,0,P|332:356|285:291,1,110,0|2,0:0|0:0,0:0:0:0:
256,192,214600,6,0,B|256:24,2,165,0|0|2,0:0|0:0|0:0,0:0:0:0:
144,240,215800,1,0,0:0:0:0:
256,304,216100,1,2,0:0:0:0:
256,176,216400,1,0,0:0:0:0:
368,240,216700,1,2,0:0:0:0:
440,150,217000,2,0,B|365:44|250:4|133:53|66:160,1,440,2|0,0:0|0:0,0:0:0:0:
204,183,218500,6,0,B|261:207|326:176,2,110,2|2|2,0:0|0:0|0:0,0:0:0:0:
192,304,219400,6,0,B|249:280|314:311,1,110,4|2,0:0|0:0,0:0:0:0:
408,248,220000,2,0,B|370:198|298:193,1,110,0|2,0:0|0:0,0:0:0:0:
198,194,220600,1,0,0:0:0:0:
112,112,220900,6,0,B|224:64,1,110,2|0,0:0|0:0,0:0:0:0:
298,68,221500,2,0,B|400:112,1,110,2|0,0:0|0:0,0:0:0:0:
312,200,222100,2,0,B|256:184|256:184|200:200,2,110,2|0|2,0:0|0:0|0:0,0:0:0:0:
256,304,223000,2,0,B|310:325|310:325|362:306,2,110,0|2|0,0:0|0:0|0:0,0:0:0:0:
104,120,224200,6,0,B|166:143|224:88,1,110,0|2,0:0|0:0,0:0:0:0:
328,40,224800,2,0,B|305:102|360:160,1,110,0|2,0:0|0:0,0:0:0:0:
408,264,225400,2,0,B|346:241|288:296,1,110,0|2,0:0|0:0,0:0:0:0:
184,344,226000,2,0,B|207:282|152:224,1,110,0|2,0:0|0:0,0:0:0:0:
160,120,226600,5,0,0:0:0:0:
256,48,226900,1,2,0:0:0:0:
352,120,227200,1,0,0:0:0:0:
314,234,227500,1,2,0:0:0:0:
198,235,227800,1,0,0:0:0:0:
256,32,228400,6,0,B|256:128,1,82.5000031471254,2|0,0:0|0:0,0:0:0:0:
136,144,229000,2,0,B|112:192|112:272,1,110,4|2,0:0|0:0,0:0:0:0:
204,328,229600,2,0,B|255:293|310:329,1,110,0|2,0:0|0:0,0:0:0:0:
399,250,230200,2,0,B|400:192|376:144,1,110,0|2,0:0|0:0,0:0:0:0:
288,64,230800,6,0,B|237:100|224:173,1,110,0|2,0:0|0:0,0:0:0:0:
129,228,231400,2,0,B|185:254|255:229,1,110,0|2,0:0|0:0,0:0:0:0:
350,283,232000,2,0,B|345:221|288:173,1,110,0|2,0:0|0:0,0:0:0:0:
360,80,232600,2,0,B|365:142|422:189,1,110,0|2,0:0|0:0,0:0:0:0:
480,80,233200,5,0,0:0:0:0:
480,80,233500,1,2,0:0:0:0:
408,176,233800,2,0,B|375:273|269:271,2,165,0|0|2,0:0|0:0|0:0,0:0:0:0:
289,151,235000,1,0,0:0:0:0:
289,151,235300,6,0,B|232:143|184:112,1,110,2|0,0:0|0:0,0:0:0:0:
104,200,235900,2,0,B|133:245|141:302,2,110,2|0|2,0:0|0:0|0:0,0:0:0:0:
16,224,236800,2,0,B|0:161|52:122,1,110,0|2,0:0|0:0,0:0:0:0:
144,88,237400,5,0,0:0:0:0:
256,136,237700,1,0,0:0:0:0:
368,88,238000,1,0,0:0:0:0:
256,40,238300,1,4,0:0:0:0:
256,192,238375,12,0,241000,0:0:0:0:
256,240,242200,6,0,B|256:360,2,110
256,192,243100,12,0,245800,0:0:0:0:
320,136,247000,6,0,B|416:56,2,110,0|0|0,0:0|0:0|0:0,0:0:0:0:
256,256,247900,1,0,0:0:0:0:
192,136,248200,2,0,B|96:56,1,110,0|2,0:0|0:0,0:0:0:0:
72,184,248800,2,0,B|168:264,1,110,0|2,0:0|0:0,0:0:0:0:
200,368,249400,1,0,0:0:0:0:
312,368,249700,1,2,0:0:0:0:
355,254,250000,2,0,B|440:184,1,110,0|2,0:0|0:0,0:0:0:0:
256,192,250600,12,4,253000,0:0:0:0:
