osu file format v12

[General]
AudioFilename: Omoide Kakera.mp3
AudioLeadIn: 0
PreviewTime: 76754
Countdown: 0
SampleSet: Normal
StackLeniency: 0.7
Mode: 0
LetterboxInBreaks: 0

[Editor]
Bookmarks: 57930,60480,72330,76080,139230,142230,218430
DistanceSpacing: 1.1
BeatDivisor: 4
GridSize: 4

[Metadata]
Title:Omoide Kakera
TitleUnicode:想イ出カケラ
Artist:nano
ArtistUnicode:ナノ
Creator:Haya
Version:Insane
Source:
Tags:Sakuya Layfon LunarSakuya Red_Layfon nanoir nicovideo Nico Nico Douga
BeatmapID:185443
BeatmapSetID:62510

[Difficulty]
HPDrainRate:7
CircleSize:4
OverallDifficulty:7
ApproachRate:9
SliderMultiplier:1.8
SliderTickRate:1

[Events]
//Background and Video events
0,0,"Omoide Kakera BG.jpg",0,0
//Break Periods
2,163200,175600
2,198000,202000
//Storyboard Layer 0 (Background)
//Storyboard Layer 1 (Fail)
//Storyboard Layer 2 (Pass)
//Storyboard Layer 3 (Foreground)
Sprite,Foreground,Centre,"white.jpg",320,240 S,0,0,,0.8 C,0,0,,0,0,0 F,0,76530,77130,0,1 F,0,77130,77730,1 F,0,77730,77805,1,0 F,0,138930,139530,0,1 F,0,139530,140130,1 F,0,140130,140205,1,0 F,0,218130,218730,0,1 F,0,218730,219330,1 F,0,219330,219405,1,0
Sprite,Foreground,Centre,"Omoide Kakera BG.jpg",320,240 F,0,77730,78330,1,0 S,0,77730,78330,0.625,0.75 F,0,140130,140730,1,0 S,0,140130,140730,0.625,0.75 F,0,219330,219930,1,0 S,0,219330,219930,0.625,0.75
Sprite,Foreground,Centre,"white.jpg",320,240 L,77730,1 F,1,0,600,0.6,0 P,0,0,600,A
Sprite,Foreground,Centre,"white.jpg",320,240 L,140130,1 F,1,0,600,0.6,0 P,0,0,600,A
Sprite,Foreground,Centre,"white.jpg",320,240 L,219330,1 F,1,0,600,0.6,0 P,0,0,600,A
//Storyboard Sound Samples
//Background Colour Transformations
3,100,163,162,255

[TimingPoints]
1000,300,4,1,1,80,1,0
28900,-100,4,1,1,45,0,0
29350,-100,4,1,1,80,0,0
58000,-100,4,1,1,80,0,0
58600,-133.333333333333,4,2,1,80,0,0
59125,-133.333333333333,4,1,1,80,0,0
59275,-133.333333333333,4,2,1,80,0,0
60325,-133.333333333333,4,1,1,80,0,0
60475,-133.333333333333,4,2,1,80,0,0
61525,-133.333333333333,4,1,1,80,0,0
61675,-133.333333333333,4,2,1,80,0,0
62725,-133.333333333333,4,1,1,80,0,0
62875,-133.333333333333,4,2,1,80,0,0
63025,-133.333333333333,4,1,1,80,0,0
63175,-133.333333333333,4,2,1,80,0,0
63925,-133.333333333333,4,1,1,80,0,0
64075,-133.333333333333,4,2,1,80,0,0
65125,-133.333333333333,4,1,1,80,0,0
65275,-133.333333333333,4,2,1,80,0,0
66325,-133.333333333333,4,1,1,80,0,0
66475,-133.333333333333,4,2,2,80,0,0
67600,-133.333333333333,4,1,1,80,0,0
68275,-133.333333333333,4,2,1,80,0,0
68725,-133.333333333333,4,1,1,80,0,0
68875,-133.333333333333,4,2,1,80,0,0
69925,-133.333333333333,4,1,1,80,0,0
70075,-133.333333333333,4,2,1,80,0,0
71125,-133.333333333333,4,1,1,80,0,0
71275,-133.333333333333,4,2,1,80,0,0
72400,-133.333333333333,4,1,1,80,0,0
73300,-100,4,1,1,80,0,0
76900,-133.333333333333,4,1,1,80,0,0
77800,-100,4,1,1,80,0,1
85000,-100,4,1,1,65,0,1
85900,-100,4,1,1,80,0,1
87325,-100,4,1,1,80,0,0
87400,-100,4,1,1,80,0,1
96700,-100,4,1,1,80,0,0
100225,-100,4,2,1,10,0,0
100375,-100,4,1,1,80,0,0
121300,-133.333333333333,4,2,1,80,0,0
121525,-133.333333333333,4,1,1,80,0,0
121675,-133.333333333333,4,2,1,80,0,0
122725,-133.333333333333,4,1,1,80,0,0
122875,-133.333333333333,4,2,1,80,0,0
123925,-133.333333333333,4,1,1,80,0,0
124075,-133.333333333333,4,2,1,80,0,0
125200,-133.333333333333,4,1,1,80,0,0
125275,-133.333333333333,4,2,1,80,0,0
125425,-133.333333333333,4,1,1,80,0,0
125575,-133.333333333333,4,2,1,80,0,0
126325,-133.333333333333,4,1,1,80,0,0
126475,-133.333333333333,4,2,1,80,0,0
127525,-133.333333333333,4,1,1,80,0,0
127675,-133.333333333333,4,2,1,80,0,0
128725,-133.333333333333,4,1,1,80,0,0
128875,-133.333333333333,4,2,1,80,0,0
129925,-133.333333333333,4,1,1,80,0,0
130675,-133.333333333333,4,2,1,80,0,0
131125,-133.333333333333,4,1,1,80,0,0
131275,-133.333333333333,4,2,1,80,0,0
132325,-133.333333333333,4,1,1,80,0,0
132475,-133.333333333333,4,2,1,80,0,0
134800,-100,4,1,1,80,0,0
135700,-100,4,1,1,80,0,0
139300,-133.333333333333,4,2,1,80,0,0
140200,-100,4,1,1,80,0,1
149725,-100,4,1,1,80,0,0
149800,-100,4,1,1,80,0,1
158200,-80,4,1,1,80,0,1
159100,-100,4,1,1,80,0,0
162925,-100,4,2,1,10,0,0
163075,-100,4,2,1,80,0,0
176200,-100,4,1,1,80,0,0
218500,-100,4,2,1,80,0,0
219400,-100,4,1,1,80,0,1
228400,-133.333333333333,4,1,1,80,0,1
228925,-100,4,1,1,80,0,0
229000,-100,4,1,1,80,0,1
237400,-80,4,1,1,80,0,1
238300,-100,4,1,1,80,0,0
242200,-80,4,1,1,80,0,0
242875,-100,4,1,1,80,0,0
246100,-100,4,1,1,80,0,0

[Colours]
Combo1 : 215,215,215
Combo2 : 164,164,255
Combo3 : 61,81,160
Combo4 : 164,255,255
Combo5 : 164,255,164

[HitObjects]
408,104,17800,2,0,B|421:212|334:268,1,180
256,312,18250,2,0,B|256:128,1,180
104,104,18700,2,0,B|91:212|168:261,1,180
336,24,19300,6,0,B|272:128,1,90
176,112,19600,2,0,B|240:216,1,90
336,200,19900,2,0,B|272:304,1,90
216,344,20200,6,0,B|164:332|128:280,1,90,4|0,0:0|0:0,0:0:0:0:
224,240,20500,2,0,B|201:204|149:192,1,90,2|0,0:0|0:0,0:0:0:0:
64,136,20800,2,0,B|153:102|223:16,1,180,0|2,0:0|0:0,0:0:0:0:
448,136,21250,2,0,B|359:102|289:16,1,180
256,120,21700,5,2,0:0:0:0:
328,192,21850,1,0,0:0:0:0:
336,288,22000,1,0,0:0:0:0:
256,348,22150,1,0,0:0:0:0:
176,288,22300,1,2,0:0:0:0:
184,192,22450,1,0,0:0:0:0:
184,192,22600,6,0,B|80:152,1,90
152,32,22900,2,0,B|216:112,1,90,2|0,0:0|0:0,0:0:0:0:
360,32,23200,2,0,B|296:112,1,90
328,192,23500,2,0,B|432:152,1,90,2|0,0:0|0:0,0:0:0:0:
440,264,23800,5,0,0:0:0:0:
344,296,23950,1,0,0:0:0:0:
256,208,24100,2,0,B|256:312,1,90,2|0,0:0|0:0,0:0:0:0:
168,296,24400,1,0,0:0:0:0:
72,264,24550,1,0,0:0:0:0:
92,360,24700,1,2,0:0:0:0:
168,296,24850,1,0,0:0:0:0:
72,264,25000,6,0,B|152:192|160:104,1,180,4|2,0:0|0:0,0:0:0:0:
256,184,25450,1,0,0:0:0:0:
353,112,25600,1,0,0:0:0:0:
256,40,25750,1,0,0:0:0:0:
159,111,25900,1,0,0:0:0:0:
352,111,26050,2,0,B|360:192|440:264,1,180
392,352,26500,6,0,B|364:307|312:280,1,90,2|0,0:0|0:0,0:0:0:0:
120,352,26800,2,0,B|148:307|200:280,1,90
256,360,27100,2,0,B|256:168,1,180,2|0,0:0|0:0,0:0:0:0:
136,160,27550,2,0,B|144:115|144:115|193:82,1,90,0|2,0:0|0:0,0:0:0:0:
376,160,27850,2,0,B|367:115|367:115|318:82,1,90,0|0,0:0|0:0,0:0:0:0:
256,24,28150,2,0,B|256:124,1,90
256,212,28450,1,0,0:0:0:0:
236,308,28600,1,0,0:0:0:0:
148,260,28750,1,0,0:0:0:0:
56,288,28900,6,0,B|0:304,4,45,2|0|2|0|2,0:0|0:0|0:0|0:0|0:0,0:0:0:0:
56,288,29350,1,0,0:0:0:0:
144,336,29500,1,2,0:0:0:0:
200,248,29650,1,0,0:0:0:0:
200,248,29800,6,0,B|281:209|321:104,1,180,4|2,0:0|0:0,0:0:0:0:
256,40,30250,1,0,0:0:0:0:
195,115,30400,2,0,B|231:209|312:248,1,180,0|2,0:0|0:0,0:0:0:0:
170,344,30850,2,0,B|256:308|347:345,1,180
432,296,31300,6,0,B|481:263|476:212,1,90,2|0,0:0|0:0,0:0:0:0:
376,208,31600,2,0,B|382:149|339:120,1,90
272,192,31900,2,0,B|230:149|181:163,1,90,2|0,0:0|0:0,0:0:0:0:
37,185,32200,6,0,B|81:273|213:265,1,180,0|2,0:0|0:0,0:0:0:0:
256,336,32650,1,0,0:0:0:0:
475,185,32800,2,0,B|431:273|299:265,1,180,0|2,0:0|0:0,0:0:0:0:
312,136,33250,2,0,B|336:98|336:98|380:77,1,90
200,136,33550,2,0,B|176:98|176:98|135:78,1,90,0|2,0:0|0:0,0:0:0:0:
200,248,33850,2,0,B|176:286|176:286|132:307,1,90
312,248,34150,2,0,B|336:286|336:286|376:305,1,90,0|2,0:0|0:0,0:0:0:0:
336,48,34600,6,0,B|399:120|503:80,2,180,4|2|0,0:0|0:0|0:0,0:0:0:0:
256,208,35350,2,0,B|256:112,1,90,0|2,0:0|0:0,0:0:0:0:
176,48,35650,2,0,B|112:120|8:80,1,180
32,176,36100,2,0,B|88:176|137:223,1,90,2|0,0:0|0:0,0:0:0:0:
152,352,36400,2,0,B|96:352|47:305,1,90
144,256,36700,2,0,B|172:227|228:227,2,90,2|0|0,0:0|0:0|0:0,0:0:0:0:
224,312,37150,2,0,B|278:312|306:283,1,90
14,212,37600,5,0,0:0:0:0:
23,204,37675,1,0,0:0:0:0:
32,196,37750,1,0,0:0:0:0:
41,188,37825,1,0,0:0:0:0:
50,181,37900,1,0,0:0:0:0:
59,173,37975,1,0,0:0:0:0:
69,165,38050,1,0,0:0:0:0:
78,158,38125,1,0,0:0:0:0:
87,150,38200,1,2,0:0:0:0:
96,142,38275,1,2,0:0:0:0:
102,137,38350,1,2,0:0:0:0:
112,129,38425,1,2,0:0:0:0:
119,122,38500,6,0,B|194:55,2,90,2|2|2,0:0|0:0|0:0,0:0:0:0:
192,192,38950,1,0,0:0:0:0:
119,262,39100,2,0,B|194:329,2,90,2|2|6,0:0|0:0|0:0,0:0:0:0:
424,56,39700,5,2,0:0:0:0:
464,143,39850,1,0,0:0:0:0:
377,183,40000,1,0,0:0:0:0:
336,96,40150,1,0,0:0:0:0:
280,176,40300,1,2,0:0:0:0:
280,176,40450,2,0,B|288:284|186:310,1,180
88,296,40900,6,0,B|116:246|168:232,1,90,2|0,0:0|0:0,0:0:0:0:
152,24,41200,2,0,B|202:52|216:104,1,90
424,88,41500,2,0,B|396:138|344:152,1,90,2|0,0:0|0:0,0:0:0:0:
360,360,41800,2,0,B|310:332|296:280,1,90
400,264,42100,2,0,B|390:226|340:198,1,90,2|0,0:0|0:0,0:0:0:0:
328,48,42400,2,0,B|290:57|262:107,1,90
112,120,42700,2,0,B|121:157|171:185,1,90,2|0,0:0|0:0,0:0:0:0:
184,336,43000,2,0,B|221:326|249:276,1,90
256,176,43300,1,2,0:0:0:0:
256,176,43450,1,0,0:0:0:0:
256,176,43600,6,0,B|256:368,1,180,0|2,0:0|0:0,0:0:0:0:
336,296,44050,1,0,0:0:0:0:
176,296,44200,1,0,0:0:0:0:
232,141,44350,6,0,B|263:99|310:106,1,90,0|2,0:0|0:0,0:0:0:0:
304,193,44650,1,0,0:0:0:0:
220,229,44800,2,0,B|168:223|151:177,1,90,0|0,0:0|0:0,0:0:0:0:
232,141,45100,1,2,0:0:0:0:
304,193,45250,2,0,B|324:240|294:278,1,90,0|0,0:0|0:0,0:0:0:0:
272,376,45550,1,0,0:0:0:0:
186,325,45700,6,0,B|126:255|106:166,2,180
256,256,46450,1,0,0:0:0:0:
256,256,46600,1,0,0:0:0:0:
256,256,46750,1,0,0:0:0:0:
326,325,46900,2,0,B|386:255|406:166,1,180,2|0,0:0|0:0,0:0:0:0:
335,96,47350,2,0,B|288:126|292:198,1,90,0|2,0:0|0:0,0:0:0:0:
177,96,47650,2,0,B|224:126|220:198,1,90
392,272,48100,5,4,0:0:0:0:
120,272,48400,1,0,0:0:0:0:
136,272,48475,1,0,0:0:0:0:
152,272,48550,1,0,0:0:0:0:
168,272,48625,1,0,0:0:0:0:
184,272,48700,1,2,0:0:0:0:
256,48,49000,5,0,0:0:0:0:
67,108,49300,2,0,B|123:204,1,90,2|0,0:0|0:0,0:0:0:0:
174,263,49600,2,0,B|262:303,1,90,0|0,0:0|0:0,0:0:0:0:
338,263,49900,2,0,B|250:303,1,90,2|0,0:0|0:0,0:0:0:0:
399,185,50200,2,0,B|445:108,1,90
344,96,50500,2,0,B|298:173,1,90,2|0,0:0|0:0,0:0:0:0:
168,96,50800,2,0,B|213:173,1,90
256,88,51100,5,2,0:0:0:0:
256,88,51250,1,0,0:0:0:0:
256,88,51400,1,0,0:0:0:0:
40,192,51700,1,2,0:0:0:0:
256,296,52000,1,0,0:0:0:0:
472,192,52300,2,0,B|380:192,1,90,2|0,0:0|0:0,0:0:0:0:
382,192,52600,1,0,0:0:0:0:
130,192,52900,1,2,0:0:0:0:
80,368,53200,6,0,B|160:312|208:232,1,180,0|2,0:0|0:0,0:0:0:0:
312,240,53650,1,0,0:0:0:0:
200,144,53800,1,0,0:0:0:0:
312,240,53950,1,0,0:0:0:0:
304,96,54100,1,2,0:0:0:0:
208,288,54250,1,0,0:0:0:0:
256,24,54400,1,0,0:0:0:0:
256,360,54700,1,2,0:0:0:0:
256,24,55000,1,0,0:0:0:0:
308,238,55300,6,0,B|352:312|432:368,2,180,2|0|2,0:0|0:0|0:0,0:0:0:0:
256,152,56050,2,0,B|200:128|185:58,1,90
256,152,56350,2,0,B|312:128|327:58,1,90,0|2,0:0|0:0,0:0:0:0:
360,176,56650,2,0,B|304:200|289:270,1,90
152,176,56950,2,0,B|208:200|223:270,1,90,0|2,0:0|0:0,0:0:0:0:
256,328,57250,1,0,0:0:0:0:
256,328,57400,2,0,B|145:364|106:247,1,180,0|2,0:0|0:0,0:0:0:0:
256,160,57850,5,2,0:0:0:0:
256,160,57925,1,2,0:0:0:0:
256,160,58000,1,2,0:0:0:0:
184,232,58150,1,0,0:0:0:0:
256,296,58300,1,2,0:0:0:0:
328,232,58450,1,0,0:0:0:0:
432,232,58600,6,0,B|444:155|376:96,1,135.000005149842,4|0,0:0|0:0,0:0:0:0:
344,48,59050,2,0,B|264:48,1,67.5000025749208,0|2,0:0|0:0,0:0:0:0:
152,112,59350,2,0,B|232:112,1,67.5000025749208
376,176,59650,2,0,B|296:176,1,67.5000025749208,0|2,0:0|0:0,0:0:0:0:
120,240,59950,2,0,B|200:240,1,67.5000025749208
408,304,60250,2,0,B|328:304,1,67.5000025749208,0|2,0:0|0:0,0:0:0:0:
208,336,60550,5,0,0:0:0:0:
88,368,60700,2,0,B|38:312|40:216,1,135.000005149842,0|2,0:0|0:0,0:0:0:0:
104,176,61150,2,0,B|128:206|120:256,1,67.5000025749208
184,104,61450,2,0,B|194:141|194:141|229:174,1,67.5000025749208,0|2,0:0|0:0,0:0:0:0:
328,104,61750,2,0,B|318:141|318:141|283:174,1,67.5000025749208
408,176,62050,2,0,B|384:206|392:256,1,67.5000025749208,0|2,0:0|0:0,0:0:0:0:
256,344,62350,1,0,0:0:0:0:
256,344,62425,1,0,0:0:0:0:
256,344,62500,1,0,0:0:0:0:
216,280,62650,5,0,0:0:0:0:
312,224,62800,1,2,0:0:0:0:
184,168,62950,1,0,0:0:0:0:
344,112,63100,1,2,0:0:0:0:
152,56,63250,1,2,0:0:0:0:
56,136,63400,6,0,B|24:208|40:280,1,135.000005149842,6|0,0:0|0:0,0:0:0:0:
239,356,64000,2,0,B|241:315|213:266,1,67.5000025749208,2|0,0:0|0:0,0:0:0:0:
101,218,64300,2,0,B|135:241|192:241,1,67.5000025749208
289,170,64600,2,0,B|252:188|224:237,2,67.5000025749208,2|0|0,0:0|0:0|0:0,0:0:0:0:
371,156,65050,2,0,B|396:171|437:169,1,67.5000025749208,0|2,0:0|0:0,0:0:0:0:
321,95,65350,2,0,B|322:66|299:32,1,67.5000025749208
96,160,65800,6,0,B|98:228|152:288,1,135.000005149842,2|0,0:0|0:0,0:0:0:0:
416,160,66400,2,0,B|414:228|360:288,1,135.000005149842,2|0,0:0|0:0,0:0:0:0:
256,304,66850,2,2,B|256:216,1,67.5000025749208,0|2,0:0|0:0,0:0:0:0:
256,80,67150,2,2,B|256:168,1,67.5000025749208,0|0,0:0|0:0,0:0:0:0:
448,192,67600,5,2,0:0:0:0:
384,312,67750,1,2,0:0:0:0:
256,360,67900,1,2,0:0:0:0:
128,312,68050,1,0,0:0:0:0:
64,192,68200,1,4,0:0:0:0:
466,62,68500,6,0,B|384:56|330:134,1,135.000005149842,0|2,0:0|0:0,0:0:0:0:
46,322,69100,2,0,B|128:328|182:250,1,135.000005149842,0|2,0:0|0:0,0:0:0:0:
46,62,69700,2,0,B|128:56|182:134,1,135.000005149842,0|2,0:0|0:0,0:0:0:0:
466,322,70300,2,0,B|384:328|330:250,1,135.000005149842,0|2,0:0|0:0,0:0:0:0:
256,8,70900,2,0,B|256:144,1,135.000005149842,0|2,0:0|0:0,0:0:0:0:
256,376,71500,2,0,B|256:240,1,135.000005149842,0|2,0:0|0:0,0:0:0:0:
256,8,72100,1,0,0:0:0:0:
192,312,72400,5,2,0:0:0:0:
256,88,72550,1,0,0:0:0:0:
320,312,72700,1,2,0:0:0:0:
144,184,72850,1,0,0:0:0:0:
368,184,73000,1,4,0:0:0:0:
82,60,73300,6,0,B|62:112|85:158,1,90,2|0,0:0|0:0,0:0:0:0:
148,286,73600,2,0,B|182:179|156:102,1,180,0|2,0:0|0:0,0:0:0:0:
344,48,74050,2,0,B|304:128,1,90
256,216,74350,1,0,0:0:0:0:
168,48,74500,2,0,B|208:128,1,90,2|0,0:0|0:0,0:0:0:0:
364,286,74800,2,0,B|330:179|356:102,1,180,0|2,0:0|0:0,0:0:0:0:
256,112,75250,1,0,0:0:0:0:
256,112,75325,1,0,0:0:0:0:
256,112,75400,5,0,0:0:0:0:
256,272,75550,1,0,0:0:0:0:
312,136,75700,1,2,0:0:0:0:
200,249,75850,1,0,0:0:0:0:
336,192,76000,1,0,0:0:0:0:
176,192,76150,1,0,0:0:0:0:
312,248,76300,1,2,0:0:0:0:
199,135,76450,1,0,0:0:0:0:
91,210,76900,6,0,B|128:232|179:217,1,67.5000025749208,2|0,0:0|0:0,0:0:0:0:
328,36,77200,2,0,B|289:57|277:109,1,67.5000025749208,2|0,0:0|0:0,0:0:0:0:
360,328,77500,2,0,B|360:283|321:247,1,67.5000025749208,2|0,0:0|0:0,0:0:0:0:
152,56,77800,6,0,B|160:157|240:216,1,180,4|2,0:0|0:0,0:0:0:0:
224,312,78250,2,0,B|293:326|317:259,1,90
392,328,78550,2,0,B|429:268|374:222,1,90,0|2,0:0|0:0,0:0:0:0:
464,176,78850,2,0,B|401:87|272:105,1,180
48,208,79300,6,0,B|111:297|240:279,1,180,2|0,0:0|0:0,0:0:0:0:
372,234,79750,1,0,0:0:0:0:
298,75,79900,1,2,0:0:0:0:
128,144,80050,1,0,0:0:0:0:
213,308,80200,6,0,B|305:286|397:323,1,180,0|2,0:0|0:0,0:0:0:0:
378,170,80650,2,0,B|312:102|298:4,1,180
176,96,81100,2,0,B|150:187|72:248,1,180,2|0,0:0|0:0,0:0:0:0:
144,320,81550,2,0,B|159:271|206:232,1,90,0|2,0:0|0:0,0:0:0:0:
368,64,81850,2,0,B|353:113|306:152,1,90
336,272,82150,1,0,0:0:0:0:
176,112,82300,1,2,0:0:0:0:
96,192,82450,6,0,B|120:224|192:232,1,90
256,352,82750,2,0,B|288:328|296:256,1,90,0|2,0:0|0:0,0:0:0:0:
416,192,83050,2,0,B|392:160|320:152,1,90
256,32,83350,2,0,B|224:56|216:128,1,90,0|2,0:0|0:0,0:0:0:0:
176,230,83650,5,0,0:0:0:0:
294,272,83800,1,0,0:0:0:0:
328,160,83950,1,0,0:0:0:0:
218,112,84100,1,2,0:0:0:0:
176,230,84250,2,0,B|112:232|80:168,1,90
168,128,84550,1,0,0:0:0:0:
80,96,84700,1,2,0:0:0:0:
256,264,85000,5,2,0:0:0:0:
256,264,85075,1,0,0:0:0:0:
256,264,85150,1,2,0:0:0:0:
328,160,85300,1,2,0:0:0:0:
328,160,85375,1,0,0:0:0:0:
328,160,85450,1,2,0:0:0:0:
184,160,85600,1,2,0:0:0:0:
184,160,85675,1,0,0:0:0:0:
184,160,85750,1,2,0:0:0:0:
256,96,85900,2,0,B|256:208,1,90
128,232,86200,6,0,B|160:296|160:360,1,90
384,232,86500,2,0,B|352:296|352:360,1,90,2|0,0:0|0:0,0:0:0:0:
203,187,86800,6,0,B|256:259|256:259|312:183,1,180,2|2,0:0|0:0,0:0:0:0:
392,168,87250,5,0,0:0:0:0:
424,152,87325,1,0,0:0:0:0:
456,136,87400,2,0,B|360:128|328:16,1,180,4|2,0:0|0:0,0:0:0:0:
222,24,87850,1,0,0:0:0:0:
273,112,88000,2,0,B|318:129|343:184,1,90
232,272,88300,2,0,B|279:277|316:247,1,90,2|0,0:0|0:0,0:0:0:0:
200,131,88600,2,0,B|170:168|175:215,1,90
396,232,88900,1,2,0:0:0:0:
152,292,89050,1,0,0:0:0:0:
220,52,89200,5,0,0:0:0:0:
356,148,89350,1,0,0:0:0:0:
172,124,89500,1,2,0:0:0:0:
396,76,89650,1,0,0:0:0:0:
504,180,89800,2,0,B|452:249|416:348,1,180,0|2,0:0|0:0,0:0:0:0:
306,264,90250,2,0,B|320:232|320:176,1,90
200,224,90550,2,0,B|186:256|186:312,1,90,0|2,0:0|0:0,0:0:0:0:
92,338,90850,2,0,B|60:249|8:180,1,180,0|2,0:0|0:0,0:0:0:0:
144,88,91300,5,2,0:0:0:0:
224,144,91450,1,0,0:0:0:0:
402,147,91600,1,2,0:0:0:0:
313,188,91750,1,0,0:0:0:0:
221,340,91900,1,2,0:0:0:0:
230,243,92050,1,0,0:0:0:0:
80,216,92200,6,0,B|192:168|216:64,1,180,0|2,0:0|0:0,0:0:0:0:
280,24,92650,2,0,B|388:-8|464:56,1,180
440,152,93100,2,0,B|425:225|331:291,1,180,2|0,0:0|0:0,0:0:0:0:
224,336,93550,1,0,0:0:0:0:
176,248,93700,5,2,0:0:0:0:
256,64,93850,1,0,0:0:0:0:
336,248,94000,1,0,0:0:0:0:
176,136,94150,1,0,0:0:0:0:
336,136,94300,1,2,0:0:0:0:
256,323,94450,6,0,B|213:289|160:304,1,90
256,323,94750,2,0,B|299:289|352:304,1,90,0|2,0:0|0:0,0:0:0:0:
416,240,95050,2,0,B|379:199|320:184,1,90
96,240,95350,2,0,B|133:199|192:184,1,90,0|2,0:0|0:0,0:0:0:0:
256,244,95650,1,0,0:0:0:0:
256,244,95800,6,0,B|284:160|224:120|256:44,2,180,4|2|0,0:0|0:0|0:0,0:0:0:0:
256,192,96700,12,0,100300,0:0:0:0:
256,48,101800,5,4,0:0:0:0:
96,160,102100,6,0,B|145:165|165:211,1,90,0|2,0:0|0:0,0:0:0:0:
76,260,102400,2,0,B|130:335|234:327,1,180,2|0,0:0|0:0,0:0:0:0:
352,112,102850,2,0,B|332:66|270:58,1,90
192,96,103150,2,0,B|212:142|274:150,1,90,0|2,0:0|0:0,0:0:0:0:
336,216,103450,1,0,0:0:0:0:
328,232,103525,1,0,0:0:0:0:
320,248,103600,2,0,B|262:335|150:309,1,180,0|2,0:0|0:0,0:0:0:0:
104,232,104050,1,0,0:0:0:0:
120,136,104200,6,0,B|216:104,1,90
200,328,104500,2,0,B|168:232,1,90,2|0,0:0|0:0,0:0:0:0:
392,248,104800,2,0,B|296:280,1,90
312,56,105100,2,0,B|344:152,1,90,2|0,0:0|0:0,0:0:0:0:
237,225,105400,5,0,0:0:0:0:
183,350,105550,1,0,0:0:0:0:
51,293,105700,1,2,0:0:0:0:
104,168,105850,1,0,0:0:0:0:
104,168,106000,2,0,B|144:144|176:96,1,90
256,64,106300,1,2,0:0:0:0:
408,168,106450,6,0,B|368:144|336:96,1,90
147,300,106750,2,0,B|193:296|247:316,1,90,0|2,0:0|0:0,0:0:0:0:
280,40,107050,2,0,B|244:70|189:86,1,90,0|0,0:0|0:0,0:0:0:0:
325,329,107350,2,0,B|336:283|372:238,1,90,0|2,0:0|0:0,0:0:0:0:
118,122,107650,2,0,B|137:165|134:222,1,90
256,220,107950,1,0,0:0:0:0:
336,184,108100,5,2,0:0:0:0:
256,336,108250,1,0,0:0:0:0:
176,184,108400,1,0,0:0:0:0:
256,48,108550,2,0,B|256:160,1,90,0|2,0:0|0:0,0:0:0:0:
256,336,108850,2,0,B|256:224,1,90
80,112,109150,2,0,B|176:176,1,90,0|2,0:0|0:0,0:0:0:0:
432,272,109450,2,0,B|336:208,1,90
104,336,109750,2,0,B|168:240,1,90,0|2,0:0|0:0,0:0:0:0:
408,48,110050,2,0,B|344:144,1,90
256,192,110350,1,0,0:0:0:0:
192,272,110500,5,2,0:0:0:0:
256,112,110650,1,2,0:0:0:0:
320,272,110800,1,2,0:0:0:0:
168,176,110950,1,0,0:0:0:0:
344,176,111100,1,2,0:0:0:0:
192,272,111250,1,0,0:0:0:0:
192,272,111325,1,0,0:0:0:0:
192,272,111400,1,4,0:0:0:0:
384,312,111700,5,2,0:0:0:0:
256,264,111850,1,0,0:0:0:0:
316,144,112000,1,0,0:0:0:0:
256,264,112150,1,0,0:0:0:0:
196,144,112300,1,2,0:0:0:0:
256,264,112450,1,0,0:0:0:0:
128,312,112600,1,0,0:0:0:0:
256,264,112750,1,0,0:0:0:0:
144,192,112900,6,0,B|87:176|80:112,1,90,2|0,0:0|0:0,0:0:0:0:
176,96,113200,2,0,B|172:51|115:35,2,90,0|0|2,0:0|0:0|0:0,0:0:0:0:
216,184,113650,1,0,0:0:0:0:
256,56,113800,1,0,0:0:0:0:
296,184,113950,1,0,0:0:0:0:
336,96,114100,2,0,B|402:175|496:192,1,180,2|0,0:0|0:0,0:0:0:0:
344,280,114550,1,0,0:0:0:0:
176,288,114700,2,0,B|110:209|16:192,1,180,2|0,0:0|0:0,0:0:0:0:
148,108,115150,1,0,0:0:0:0:
256,192,115300,1,2,0:0:0:0:
460,360,115600,5,0,0:0:0:0:
418,301,115750,1,0,0:0:0:0:
377,242,115900,1,2,0:0:0:0:
336,184,116050,2,0,B|336:88,1,90
248,112,116350,2,0,B|152:112,1,90,0|2,0:0|0:0,0:0:0:0:
176,200,116650,2,0,B|176:296,1,90
264,272,116950,2,0,B|360:272,1,90,0|2,0:0|0:0,0:0:0:0:
304,152,117250,1,0,0:0:0:0:
400,56,117400,1,0,0:0:0:0:
256,32,117550,1,0,0:0:0:0:
112,56,117700,6,0,B|152:96|153:142,1,90,2|0,0:0|0:0,0:0:0:0:
72,192,118000,1,0,0:0:0:0:
112,328,118150,2,0,B|152:288|153:242,1,90,0|2,0:0|0:0,0:0:0:0:
256,304,118450,1,0,0:0:0:0:
256,304,118600,5,4,0:0:0:0:
335,112,118750,1,0,0:0:0:0:
144,192,118900,1,2,0:0:0:0:
335,271,119050,1,0,0:0:0:0:
256,80,119200,1,0,0:0:0:0:
176,271,119350,1,0,0:0:0:0:
368,192,119500,1,2,0:0:0:0:
176,112,119650,1,0,0:0:0:0:
256,192,119800,1,4,0:0:0:0:
256,192,120100,5,2,0:0:0:0:
144,192,120250,1,2,0:0:0:0:
128,192,120325,1,2,0:0:0:0:
112,192,120400,1,2,0:0:0:0:
120,280,120550,1,2,0:0:0:0:
320,304,120700,1,2,0:0:0:0:
392,104,120850,1,0,0:0:0:0:
192,80,121000,1,4,0:0:0:0:
84,159,121300,6,0,B|117:224|193:245,1,135.000005149842,0|2,0:0|0:0,0:0:0:0:
428,225,121900,2,0,B|394:159|318:138,1,135.000005149842,0|2,0:0|0:0,0:0:0:0:
256,112,122350,2,0,B|240:64,2,33.7500012874604
216,176,122650,1,0,0:0:0:0:
288,208,122800,5,2,0:0:0:0:
360,248,122950,2,0,B|325:272|304:320,1,67.5000025749208
290,367,123250,2,0,B|253:376|211:364,1,67.5000025749208,0|2,0:0|0:0,0:0:0:0:
196,297,123550,2,0,B|187:272|152:248,1,67.5000025749208
136,176,123850,1,0,0:0:0:0:
152,104,124000,1,2,0:0:0:0:
256,240,124150,2,0,B|256:160,1,67.5000025749208
360,104,124450,1,0,0:0:0:0:
376,176,124600,1,2,0:0:0:0:
368,288,124750,5,0,0:0:0:0:
352,296,124900,1,0,0:0:0:0:
336,304,125050,1,0,0:0:0:0:
320,312,125200,2,0,B|220:312,1,67.5000025749208,2|0,0:0|0:0,0:0:0:0:
192,72,125500,2,0,B|292:72,1,67.5000025749208,2|0,0:0|0:0,0:0:0:0:
348,24,125800,6,0,B|332:110|332:110|292:156,1,135.000005149842,2|0,0:0|0:0,0:0:0:0:
164,360,126400,2,0,B|180:274|180:274|220:228,1,135.000005149842,2|0,0:0|0:0,0:0:0:0:
296,232,126850,1,0,0:0:0:0:
200,136,127000,1,0,0:0:0:0:
160,256,127150,1,0,0:0:0:0:
352,128,127300,1,0,0:0:0:0:
96,64,127600,5,2,0:0:0:0:
96,64,127750,1,0,0:0:0:0:
96,64,127900,2,0,B|77:129|72:224,1,135.000005149842,0|2,0:0|0:0,0:0:0:0:
152,184,128350,2,0,B|150:230|128:280,1,67.5000025749208
176,328,128650,2,0,B|210:300|216:264,1,67.5000025749208,0|2,0:0|0:0,0:0:0:0:
256,352,128950,1,0,0:0:0:0:
336,328,129100,2,0,B|302:300|296:264,1,67.5000025749208
360,184,129400,2,0,B|362:230|384:280,1,67.5000025749208,2|0,0:0|0:0,0:0:0:0:
438,196,129700,1,0,0:0:0:0:
416,48,130000,5,2,0:0:0:0:
331,48,130150,1,2,0:0:0:0:
256,88,130300,1,2,0:0:0:0:
181,48,130450,1,0,0:0:0:0:
96,48,130600,1,4,0:0:0:0:
128,192,130900,6,0,B|160:256|208:304,1,135.000005149842,0|2,0:0|0:0,0:0:0:0:
306,301,131350,2,0,B|352:256|384:192,1,135.000005149842
301,170,131800,2,0,B|282:203|259:219|259:219|228:203|211:168,1,135.000005149842,2|0,0:0|0:0,0:0:0:0:
72,224,132400,6,0,B|111:224|152:264,1,67.5000025749208,2|0,0:0|0:0,0:0:0:0:
80,304,132700,2,0,B|102:328|141:328,1,67.5000025749208
305,310,133000,2,0,B|231:278|197:188,1,135.000005149842,2|0,0:0|0:0,0:0:0:0:
207,310,133450,2,0,B|281:278|315:188,1,135.000005149842
289,144,133900,2,0,B|254:159|214:140,1,67.5000025749208
160,192,134200,1,2,0:0:0:0:
352,192,134500,1,0,0:0:0:0:
368,328,134800,6,0,B|280:256,1,90,2|0,0:0|0:0,0:0:0:0:
144,56,135100,2,0,B|232:128,1,90,2|0,0:0|0:0,0:0:0:0:
256,192,135400,1,4,0:0:0:0:
408,72,135700,6,0,B|392:168,1,90,2|0,0:0|0:0,0:0:0:0:
104,312,136000,2,0,B|135:132,1,180,0|2,0:0|0:0,0:0:0:0:
216,80,136450,2,0,B|202:168,1,90
256,248,136750,1,0,0:0:0:0:
296,80,136900,2,0,B|310:168,1,90
408,312,137200,2,0,B|377:132,1,180,0|2,0:0|0:0,0:0:0:0:
256,352,137800,6,0,B|157:351|104:256,1,180,2|0,0:0|0:0,0:0:0:0:
232,264,138250,2,0,B|151:206|162:98,1,180,2|0,0:0|0:0,0:0:0:0:
272,184,138700,2,0,B|239:90|310:8,1,180,2|0,0:0|0:0,0:0:0:0:
368,256,139300,6,0,B|397:191|363:115,2,135.000005149842,2|2|2,0:0|0:0|0:0,0:0:0:0:
168,280,140200,5,4,0:0:0:0:
136,184,140350,1,0,0:0:0:0:
96,88,140500,2,0,B|192:104,1,90,2|0,0:0|0:0,0:0:0:0:
256,264,140800,2,0,B|256:160,1,90
416,88,141100,2,0,B|320:104,1,90,2|0,0:0|0:0,0:0:0:0:
368,192,141400,1,0,0:0:0:0:
408,280,141550,1,0,0:0:0:0:
344,352,141700,6,0,B|288:264,1,90,2|0,0:0|0:0,0:0:0:0:
168,32,142000,2,0,B|224:120,1,90
240,360,142300,2,0,B|184:272,1,90,2|0,0:0|0:0,0:0:0:0:
272,24,142600,2,0,B|297:110|376:192,1,180,0|2,0:0|0:0,0:0:0:0:
372,320,143050,1,0,0:0:0:0:
240,360,143200,2,0,B|215:274|136:192,1,180,0|2,0:0|0:0,0:0:0:0:
120,104,143650,6,0,B|163:87|196:50,1,90
392,280,143950,2,0,B|349:297|316:334,1,90,0|2,0:0|0:0,0:0:0:0:
336,216,144250,2,0,B|320:171|269:144,1,90
176,168,144550,2,0,B|192:213|243:240,1,90,0|2,0:0|0:0,0:0:0:0:
397,231,145000,6,0,B|335:314|229:351,2,180,0|2|0,0:0|0:0|0:0,0:0:0:0:
264,240,145750,2,0,B|209:262|160:304,1,90,0|2,0:0|0:0,0:0:0:0:
96,208,146050,1,0,0:0:0:0:
104,184,146125,1,0,0:0:0:0:
112,160,146200,1,0,0:0:0:0:
248,144,146350,2,0,B|303:122|352:80,1,90,0|2,0:0|0:0,0:0:0:0:
408,152,146650,2,0,B|430:207|472:256,1,90
116,308,147100,6,0,B|152:277|196:268,1,90,2|0,0:0|0:0,0:0:0:0:
104,101,147400,2,0,B|144:125|166:164,1,90,0|0,0:0|0:0,0:0:0:0:
297,26,147700,2,0,B|285:71|255:104,1,90,2|0,0:0|0:0,0:0:0:0:
428,185,148000,2,0,B|380:188|340:169,1,90,0|0,0:0|0:0,0:0:0:0:
317,360,148300,2,0,B|299:316|304:271,1,90,2|0,0:0|0:0,0:0:0:0:
256,184,148600,1,0,0:0:0:0:
256,184,148750,1,0,0:0:0:0:
256,184,148900,6,0,B|64:184,2,180,2|2|2,0:0|0:0|0:0,0:0:0:0:
424,296,149800,6,0,B|396:342|336:360,1,90,4|0,0:0|0:0,0:0:0:0:
88,88,150100,2,0,B|116:42|176:24,1,90,2|0,0:0|0:0,0:0:0:0:
312,256,150400,2,0,B|216:248|144:328,1,180,0|2,0:0|0:0,0:0:0:0:
248,360,150850,2,0,B|256:264|176:192,1,180
256,32,151300,6,0,B|256:128,1,90,2|0,0:0|0:0,0:0:0:0:
368,128,151600,2,0,B|296:192,1,90
144,128,151900,2,0,B|216:192,1,90,2|0,0:0|0:0,0:0:0:0:
64,288,152200,5,0,0:0:0:0:
160,304,152350,1,0,0:0:0:0:
256,280,152500,1,2,0:0:0:0:
320,208,152650,1,0,0:0:0:0:
448,96,152800,5,0,0:0:0:0:
352,80,152950,1,0,0:0:0:0:
256,104,153100,1,2,0:0:0:0:
192,176,153250,1,0,0:0:0:0:
320,208,153400,5,0,0:0:0:0:
152,248,153550,1,0,0:0:0:0:
336,288,153700,1,2,0:0:0:0:
112,320,153850,1,0,0:0:0:0:
360,368,154000,6,0,B|458:332|448:208,1,180,2|2,0:0|0:0,0:0:0:0:
256,192,154600,2,0,B|158:156|168:32,1,180,2|0,0:0|0:0,0:0:0:0:
272,88,155050,2,0,B|370:124|360:248,1,180,2|0,0:0|0:0,0:0:0:0:
136,240,155500,2,0,B|38:204|48:80,1,180,2|0,0:0|0:0,0:0:0:0:
144,128,155950,1,0,0:0:0:0:
240,160,156100,1,2,0:0:0:0:
216,256,156250,1,0,0:0:0:0:
272,336,156400,1,0,0:0:0:0:
296,240,156550,1,0,0:0:0:0:
224,58,156700,6,0,B|224:103|224:103|192:136,1,90,2|0,0:0|0:0,0:0:0:0:
372,120,157000,2,0,B|330:134|330:134|289:113,1,90
360,280,157300,2,0,B|334:245|334:245|340:199,1,90,2|0,0:0|0:0,0:0:0:0:
203,318,157600,2,0,B|229:282|229:282|274:274,1,90
119,181,157900,2,0,B|161:194|161:194|182:235,1,90,2|0,0:0|0:0,0:0:0:0:
171,66,158200,6,0,B|203:116|203:116|257:94|306:116|306:116|338:65,2,225
256,192,159100,12,0,163000,0:0:0:0:
152,80,176200,6,0,B|198:53|248:61,2,90,0|0|0,0:0|0:0|0:0,0:0:0:0:
43,199,176650,2,0,B|111:158|111:158|167:181|235:127,1,180
306,146,177100,2,0,B|346:180|402:157|402:157|470:198,1,180,0|0,0:0|0:0,0:0:0:0:
296,292,177700,5,2,0:0:0:0:
272,276,177775,1,0,0:0:0:0:
252,256,177850,1,2,0:0:0:0:
149,176,178000,1,2,0:0:0:0:
175,163,178075,1,0,0:0:0:0:
202,156,178150,1,2,0:0:0:0:
322,107,178300,1,2,0:0:0:0:
320,136,178375,1,0,0:0:0:0:
313,163,178450,1,2,0:0:0:0:
312,320,178600,6,0,B|205:325|144:224,1,180,4|2,0:0|0:0,0:0:0:0:
72,192,179050,2,0,B|74:134|112:96,1,90
248,64,179350,2,0,B|210:90|200:142,1,90,0|2,0:3|0:0,0:3:0:0:
256,216,179650,1,0,0:0:0:0:
328,288,179800,6,0,B|440:256|464:152,1,180,0|2,0:0|0:0,0:0:0:0:
416,80,180250,2,0,B|373:113|360:160,1,90
410,339,180550,2,0,B|459:321|496:264,2,90,0|2|0,0:0|0:0|0:0,0:0:0:0:
312,344,181000,6,0,B|208:336|144:240,1,180,0|2,0:0|0:0,0:0:0:0:
88,152,181450,1,0,0:0:0:0:
120,40,181600,2,0,B|224:48|288:144,1,180,0|2,0:0|0:0,0:0:0:0:
312,32,182050,2,0,B|392:98|389:213,1,180,0|0,0:0|0:0,0:0:0:0:
472,128,182500,2,0,B|500:228|431:321,1,180,2|0,0:0|0:0,0:0:0:0:
445,300,182950,1,0,0:0:0:0:
445,300,183100,1,2,0:0:0:0:
248,304,183400,6,0,B|192:344,2,45
192,224,183700,2,0,B|136:240,2,45,2|0|0,0:0|0:0|0:0,0:0:0:0:
176,128,184000,2,0,B|128:120,2,45
184,32,184300,2,0,B|144:0,2,45,2|2|0,0:0|0:0|0:0,0:0:0:0:
270,79,184600,6,0,B|326:39,2,45
326,159,184900,2,0,B|382:143,2,45,2|0|0,0:0|0:0|0:0,0:0:0:0:
342,255,185200,2,0,B|390:263,2,45
334,351,185500,2,0,B|374:383,2,45,2|0|0,0:0|0:0|0:0,0:0:0:0:
240,328,185800,5,0,0:0:0:0:
224,312,185875,1,0,0:0:0:0:
208,296,185950,1,0,0:0:0:0:
184,192,186100,2,0,B|152:160,2,45,2|0|0,0:0|0:0|0:0,0:0:0:0:
328,192,186400,2,0,B|360:224,2,45
272,56,186700,1,2,0:0:0:0:
288,72,186775,1,0,0:0:0:0:
304,88,186850,1,0,0:0:0:0:
424,96,187000,6,0,B|424:168|424:168|440:208|440:208|440:272,1,180,0|2,0:0|0:0,0:0:0:0:
344,312,187450,1,0,0:0:0:0:
256,264,187600,1,2,0:0:0:0:
168,312,187750,1,0,0:0:0:0:
184,192,187900,5,2,0:0:0:0:
256,120,188050,1,0,0:0:0:0:
304,32,188200,1,0,0:0:0:0:
256,120,188350,5,0,0:0:0:0:
328,192,188500,1,2,0:0:0:0:
416,240,188650,1,0,0:0:0:0:
328,192,188800,5,0,0:0:0:0:
256,264,188950,1,0,0:0:0:0:
208,352,189100,1,2,0:0:0:0:
256,264,189250,5,0,0:0:0:0:
184,192,189400,1,0,0:0:0:0:
96,144,189550,1,0,0:0:0:0:
96,240,189700,5,2,0:0:0:0:
184,192,189850,1,0,0:0:0:0:
256,120,190000,1,2,0:0:0:0:
345,69,190150,1,0,0:0:0:0:
349,91,190225,1,0,0:0:0:0:
353,112,190300,5,2,0:0:0:0:
358,133,190375,1,0,0:0:0:0:
364,156,190450,1,0,0:0:0:0:
371,179,190525,1,0,0:0:0:0:
376,201,190600,2,0,B|390:251,3,45
389,270,190900,2,0,B|328:293,3,45,2|0|0|0,0:0|0:0|0:0|0:0,0:0:0:0:
328,296,191200,1,0,0:0:0:0:
308,304,191275,1,0,0:0:0:0:
288,312,191350,1,0,0:0:0:0:
268,320,191425,1,0,0:0:0:0:
248,328,191500,2,0,B|200:328,3,45,2|0|0|0,0:0|0:0|0:0|0:0,0:0:0:0:
180,328,191800,6,0,B|84:264|84:164,1,180,0|2,0:0|0:0,0:0:0:0:
72,84,192250,2,0,B|128:84|160:124,1,90,0|2,0:0|0:0,0:0:0:0:
256,168,192550,1,0,0:0:0:0:
440,84,192700,2,0,B|384:84|352:124,1,90,2|0,0:0|0:0,0:0:0:0:
256,168,193000,5,0,0:0:0:0:
256,184,193075,1,0,0:0:0:0:
256,200,193150,1,0,0:0:0:0:
256,216,193225,1,0,0:0:0:0:
256,232,193300,1,2,0:0:0:0:
256,248,193375,1,0,0:0:0:0:
256,264,193450,1,0,0:0:0:0:
256,280,193525,1,0,0:0:0:0:
256,296,193600,2,0,P|207:300|148:264,1,90
152,192,193900,2,0,P|148:143|184:84,1,90,2|0,0:0|0:0,0:0:0:0:
256,88,194200,2,0,P|305:84|364:120,1,90
360,192,194500,2,0,P|364:241|328:300,1,90,2|0,0:0|0:0,0:0:0:0:
224,292,194800,6,0,B|133:248|120:140,1,180,0|2,0:0|0:0,0:0:0:0:
168,40,195250,2,0,B|208:72|232:112,1,90
344,104,195550,2,0,B|304:136|280:176,1,90,0|2,0:0|0:0,0:0:0:0:
168,168,195850,2,0,B|208:200|232:240,1,90
344,232,196150,2,0,B|304:264|280:304,1,90,0|2,0:0|0:0,0:0:0:0:
184,320,196450,5,0,0:0:0:0:
96,360,196600,1,0,0:0:0:0:
20,290,196750,1,0,0:0:0:0:
72,195,196900,1,2,0:0:0:0:
179,216,197050,1,0,0:0:0:0:
336,168,197200,1,0,0:0:0:0:
281,17,197350,1,0,0:0:0:0:
130,72,197500,1,2,0:0:0:0:
382,312,197800,5,4,0:0:0:0:
220,324,202600,5,0,0:0:0:0:
240,320,202675,1,0,0:0:0:0:
260,312,202750,1,0,0:0:0:0:
276,300,202825,1,0,0:0:0:0:
292,284,202900,1,2,0:0:0:0:
304,264,202975,1,0,0:0:0:0:
312,240,203050,1,0,0:0:0:0:
316,212,203125,1,0,0:0:0:0:
316,188,203200,1,0,0:0:0:0:
312,164,203275,1,0,0:0:0:0:
296,144,203350,1,0,0:0:0:0:
280,124,203425,1,0,0:0:0:0:
260,112,203500,6,0,P|238:100|216:104,3,45,2|0|0|0,0:0|0:0|0:0|0:0,0:0:0:0:
196,104,203800,2,0,P|172:108|152:128,3,45
140,136,204100,2,0,P|128:164|132:188,3,45,2|0|0|0,0:0|0:0|0:0|0:0,0:0:0:0:
128,200,204400,2,0,P|130:225|152:248,3,45
152,260,204700,2,0,P|171:284|198:291,3,45,2|0|0|0,0:0|0:0|0:0|0:0,0:0:0:0:
204,300,205000,2,0,P|230:308|256:296,3,45
268,296,205300,2,0,P|300:292|316:272,3,45,2|0|0|0,0:0|0:0|0:0|0:0,0:0:0:0:
328,272,205600,2,0,P|354:263|362:234,3,45
376,224,205900,2,0,P|321:214|294:190,1,90,2|0,0:0|0:0,0:0:0:0:
192,88,206200,6,0,B|288:63|366:145,1,180,0|2,0:0|0:0,0:0:0:0:
380,240,206650,2,0,B|320:248|288:200,1,90,0|2,0:0|0:0,0:0:0:0:
248,300,206950,2,0,B|194:272|195:214,1,90,0|2,0:0|0:0,0:0:0:0:
194,231,207250,1,0,0:0:0:0:
88,232,207400,6,0,B|132:148|240:144,1,180,0|2,0:0|0:0,0:0:0:0:
305,26,207850,2,0,B|356:106|305:202,1,180
374,317,208300,2,0,B|279:321|222:229,1,180,2|0,0:0|0:0,0:0:0:0:
320,40,208750,2,0,B|332:88|296:132,1,90,0|2,0:0|0:0,0:0:0:0:
92,212,209050,2,0,B|127:178|184:187,1,90,0|2,0:0|0:0,0:0:0:0:
355,323,209350,2,0,B|308:309|287:256,1,90,0|2,0:0|0:0,0:0:0:0:
192,148,209650,1,0,0:0:0:0:
84,304,209800,6,0,B|212:312|256:204,2,180,0|2|0,0:0|0:0|0:0,0:0:0:0:
112,208,210550,1,0,0:0:0:0:
192,148,210700,1,2,0:0:0:0:
256,72,210850,1,0,0:0:0:0:
192,148,211000,1,0,0:0:0:0:
320,148,211150,1,0,0:0:0:0:
408,188,211300,2,0,B|364:272|251:256,2,180,2|0|2,0:0|0:0|0:0,0:0:0:0:
272,160,212200,5,0,0:0:0:0:
257,177,212275,1,0,0:0:0:0:
237,187,212350,1,0,0:0:0:0:
215,187,212425,1,0,0:0:0:0:
194,177,212500,1,0,0:0:0:0:
180,159,212575,1,0,0:0:0:0:
175,138,212650,1,0,0:0:0:0:
180,116,212725,1,0,0:0:0:0:
194,98,212800,1,0,0:0:0:0:
215,88,212875,1,0,0:0:0:0:
237,88,212950,1,0,0:0:0:0:
257,98,213025,1,0,0:0:0:0:
272,116,213100,1,0,0:0:0:0:
277,138,213175,1,0,0:0:0:0:
272,160,213250,2,0,L|265:213,3,45
264,232,213550,5,0,0:0:0:0:
285,249,213625,1,0,0:0:0:0:
312,253,213700,1,2,0:0:0:0:
336,242,213775,1,0,0:0:0:0:
351,219,213850,1,0,0:0:0:0:
351,192,213925,1,0,0:0:0:0:
336,169,214000,1,0,0:0:0:0:
312,158,214075,1,0,0:0:0:0:
285,162,214150,1,0,0:0:0:0:
264,180,214225,1,0,0:0:0:0:
257,206,214300,1,2,0:0:0:0:
92,264,214600,6,0,B|296:264,1,180,0|2,0:0|0:0,0:0:0:0:
275,13,215050,2,0,B|173:190,1,180
400,298,215500,2,0,B|298:121,1,180,2|0,0:0|0:0,0:0:0:0:
144,156,215950,6,0,B|196:244,1,90,0|2,0:0|0:0,0:0:0:0:
368,336,216250,2,0,B|316:248,1,90,0|2,0:0|0:0,0:0:0:0:
264,16,216550,2,0,B|316:104,1,90,0|2,0:0|0:0,0:0:0:0:
256,192,216850,1,0,0:0:0:0:
256,192,217000,12,0,218200,0:0:0:0:
197,188,218500,6,0,B|198:263|325:263|314:173,2,180,2|2|2,0:0|0:0|0:0,0:0:0:0:
76,344,219400,6,0,B|121:296|187:289|248:321,1,180,4|2,0:0|0:0,0:0:0:0:
340,304,219850,2,0,B|376:260|368:208,1,90
308,144,220150,2,0,B|272:188|280:240,2,90,0|2|0,0:0|0:0|0:0,0:0:0:0:
142,221,220600,6,0,B|136:260|172:304,2,90,0|0|2,0:0|0:0|0:0,0:0:0:0:
136,200,220975,1,0,0:0:0:0:
132,180,221050,1,0,0:0:0:0:
128,84,221200,2,0,B|220:104,1,90
384,84,221500,2,0,B|292:104,1,90,2|0,0:0|0:0,0:0:0:0:
256,196,221800,1,0,0:0:0:0:
344,244,221950,1,0,0:0:0:0:
256,288,222100,1,2,0:0:0:0:
168,240,222250,1,0,0:0:0:0:
256,196,222400,5,0,0:0:0:0:
344,244,222550,1,0,0:0:0:0:
256,288,222700,1,2,0:0:0:0:
168,240,222850,2,0,B|72:248|72:248|0:304,1,180
344,144,223300,2,0,B|440:136|440:136|512:80,2,180,2|0|2,0:0|0:0|0:0,0:0:0:0:
140,128,224200,6,0,B|193:122|232:168,1,90
372,256,224500,2,0,B|319:262|280:216,1,90,2|0,0:0|0:0,0:0:0:0:
256,40,224800,2,0,B|256:136,1,90
256,344,225100,2,0,B|256:248,1,90,2|0,0:0|0:0,0:0:0:0:
372,128,225400,2,0,B|319:122|280:168,1,90
140,256,225700,2,0,B|193:262|232:216,1,90,2|0,0:0|0:0,0:0:0:0:
308,88,226000,2,0,B|247:93|193:117|140:192,1,180,0|2,0:0|0:0,0:0:0:0:
344,236,226600,6,0,B|392:276,2,45
256,168,226900,1,2,0:0:0:0:
256,184,226975,1,0,0:0:0:0:
256,200,227050,1,0,0:0:0:0:
168,236,227200,2,0,B|120:276,2,45
176,136,227500,1,2,0:0:0:0:
256,64,227650,1,0,0:0:0:0:
336,136,227800,1,0,0:0:0:0:
336,248,227950,1,0,0:0:0:0:
256,320,228100,1,2,0:0:0:0:
176,248,228250,1,0,0:0:0:0:
256,192,228400,6,0,B|256:48,1,135.000005149842,0|2,0:0|0:0,0:0:0:0:
68,112,229000,6,0,B|84:160|84:160|72:200,1,90,4|0,0:0|0:0,0:0:0:0:
160,268,229300,2,0,B|144:220|144:220|156:180,1,90,2|0,0:0|0:0,0:0:0:0:
194,91,229600,2,0,B|249:103|262:171,1,90
318,91,229900,2,0,B|263:103|250:171,1,90,2|0,0:0|0:0,0:0:0:0:
352,268,230200,2,0,B|368:220|368:220|356:180,1,90
444,112,230500,2,0,B|428:160|428:160|440:200,1,90,2|0,0:0|0:0,0:0:0:0:
352,268,230800,6,0,B|284:256|220:256|157:274,1,180,0|2,0:0|0:0,0:0:0:0:
220,76,231400,2,0,B|192:188|192:188|152:187|115:220,1,180,0|2,0:0|0:0,0:0:0:0:
104,304,231850,2,0,B|172:300|208:256,1,90
324,108,232150,2,0,B|340:84|408:80,2,90,0|2|0,0:0|0:0|0:0,0:0:0:0:
308,208,232600,1,0,0:0:0:0:
256,292,232750,1,0,0:0:0:0:
204,176,232900,5,2,0:0:0:0:
256,92,233050,1,0,0:0:0:0:
308,176,233200,1,2,0:0:0:0:
360,260,233350,1,0,0:0:0:0:
256,264,233500,1,2,0:0:0:0:
152,260,233650,1,0,0:0:0:0:
108,101,233800,6,0,B|199:73|278:146,1,180,0|2,0:0|0:0,0:0:0:0:
408,109,234250,2,0,B|387:201|283:233,1,180
251,363,234700,2,0,B|181:299|205:194,1,180,2|0,0:0|0:0,0:0:0:0:
332,48,235300,5,2,0:0:0:0:
312,144,235450,1,0,0:0:0:0:
256,60,235600,1,0,0:0:0:0:
200,144,235750,1,0,0:0:0:0:
180,48,235900,2,0,B|127:54|109:108,1,90,2|0,0:0|0:0,0:0:0:0:
212,324,236200,2,0,B|265:318|283:264,1,90
300,80,236500,2,0,B|247:86|229:140,1,90,2|0,0:0|0:0,0:0:0:0:
328,168,236800,2,0,B|381:162|399:108,2,90,0|0|2,0:0|0:0|0:0,0:0:0:0:
186,33,237400,6,0,B|198:114|256:130|326:114|326:11,2,225,0|2|0,0:0|0:0|0:0,0:0:0:0:
256,192,238300,12,4,241000,0:0:0:0:
312,228,241300,6,0,B|351:221|387:181,2,90,2|0|0,0:0|0:0|0:0,0:0:0:0:
200,228,241750,2,0,B|160:221|124:181,2,90,0|2|0,0:0|0:0|0:0,0:0:0:0:
368,300,242200,2,0,B|256:340|122:294,2,225,0|2|0,0:0|0:0|0:0,0:0:0:0:
468,249,242950,1,0,0:0:0:0:
457,148,243100,1,0,0:0:0:0:
347,121,243250,1,0,0:0:0:0:
297,223,243400,6,0,P|208:188|160:112,1,180,4|2,0:0|0:0,0:0:0:0:
256,84,243850,2,0,P|227:41|180:28,1,90
32,156,244150,2,0,P|61:199|108:212,1,90,0|2,0:0|0:0,0:0:0:0:
312,260,244450,2,0,P|266:192|177:157,1,180
168,256,244900,5,2,0:0:0:0:
344,256,245050,1,0,0:0:0:0:
256,324,245200,1,2,0:0:0:0:
320,156,245350,1,0,0:0:0:0:
192,156,245500,1,2,0:0:0:0:
256,60,245650,1,0,0:0:0:0:
320,156,245800,2,0,B|368:136|392:72,1,90,4|0,0:0|0:0,0:0:0:0:
372,224,246100,6,0,B|324:244|300:308,1,90,2|0,0:0|0:0,0:0:0:0:
140,224,246400,2,0,B|188:244|212:308,1,90
108,312,246700,2,0,B|60:292|45:249,1,90,2|0,0:0|0:0,0:0:0:0:
68,152,247000,2,0,B|165:132|240:60,1,180,0|2,0:0|0:0,0:0:0:0:
304,136,247450,1,0,0:0:0:0:
268,228,247600,1,2,0:0:0:0:
232,320,247750,1,0,0:0:0:0:
328,300,247900,2,0,B|364:276|380:220,1,90,2|0,0:0|0:0,0:0:0:0:
356,132,248200,6,0,B|314:146|295:176|295:176|192:136,1,180,4|2,0:0|0:0,0:0:0:0:
76,224,248650,2,0,B|168:264,1,90
436,160,248950,2,0,B|344:120,1,90,0|2,0:0|0:0,0:0:0:0:
68,88,249250,2,0,B|240:164,1,180
400,188,249700,2,0,B|348:272,1,90,2|0,0:0|0:0,0:0:0:0:
256,336,250000,2,0,B|256:232,1,90,2|0,0:0|0:0,0:0:0:0:
112,188,250300,2,0,B|164:272,1,90,2|0,0:0|0:0,0:0:0:0:
256,192,250600,12,4,253000,0:0:0:0:
