osu file format v10

[General]
AudioFilename: No pain, No game.mp3
AudioLeadIn: 1000
PreviewTime: 51844
Countdown: 0
SampleSet: Normal
StackLeniency: 0.7
Mode: 0
LetterboxInBreaks: 0

[Editor]
DistanceSpacing: 1.3
BeatDivisor: 4
GridSize: 4

[Metadata]
Title:No pain, No game
TitleUnicode:No pain, No game
Artist:nano
ArtistUnicode:nano
Creator:xsrsbsns
Version:Insane
Source:BTOOOM!
Tags:Mythol cRyo[iceeicee] kemu
BeatmapID:185761
BeatmapSetID:60785

[Difficulty]
HPDrainRate:6
CircleSize:4
OverallDifficulty:7
ApproachRate:9
SliderMultiplier:1.76
SliderTickRate:2

[Events]
//Background and Video events
0,0,"BG.jpg"
Video,0,"nano.avi"
//Break Periods
2,77778,84557
//Storyboard Layer 0 (Background)
//Storyboard Layer 1 (Fail)
//Storyboard Layer 2 (Pass)
//Storyboard Layer 3 (Foreground)
//Storyboard Sound Samples
//Background Colour Transformations
3,100,163,162,255

[TimingPoints]
526,315.789473684211,4,2,1,50,1,0
13789,-100,4,1,1,60,0,0
16947,-100,4,2,1,50,0,0
19473,-133.333333333333,4,2,1,50,0,0
19947,-125,4,2,1,50,0,0
20420,-100,4,2,1,50,0,0
20894,-80,4,2,1,50,0,0
21368,-66.6666666666667,4,2,1,50,0,0
21683,-58.8235294117647,4,1,1,60,0,0
21999,-100,4,1,1,60,0,0
42052,-125,4,1,1,60,0,0
47894,-111.111111111111,4,1,1,60,0,0
48210,-100,4,1,1,60,0,0
48526,-90.9090909090909,4,1,1,60,0,0
48841,-83.3333333333333,4,1,1,60,0,0
49078,-100,4,1,1,60,0,0
52157,-100,4,1,1,60,0,1
61947,-133.333333333333,4,1,1,60,0,0
62026,-133.333333333333,4,2,1,30,0,0
62262,-100,4,1,1,60,0,1
72526,-100,4,2,1,30,0,0
74420,-100,4,1,1,60,0,0
87683,-133.333333333333,4,2,1,30,0,0
89104,-133.333333333333,4,1,1,25,0,0
89578,-133.333333333333,4,2,1,30,0,0
89736,-133.333333333333,4,1,1,25,0,0
90368,-133.333333333333,4,2,1,30,0,0
91631,-133.333333333333,4,1,1,25,0,0
92262,-133.333333333333,4,1,1,30,0,0
92341,-133.333333333333,4,1,1,40,0,0
92420,-133.333333333333,4,1,1,50,0,0
92578,-133.333333333333,4,1,1,60,0,0
92736,-100,4,1,1,60,0,0
93368,-90.9090909090909,4,1,1,65,0,0
93999,-83.3333333333333,4,1,1,70,0,0
94631,-76.9230769230769,4,1,1,80,0,0
95262,-100,4,1,1,90,0,0
96368,-100,4,1,1,70,0,0
97631,-125,4,1,1,60,0,0
102210,-125,4,1,1,50,0,0
102526,-125,4,1,1,40,0,0
102841,-125,4,1,1,30,0,0
103473,-100,4,1,1,30,0,0
104104,-100,4,1,1,40,0,0
104736,-100,4,1,1,50,0,0
105368,-100,4,1,1,60,0,0
107736,-100,4,1,1,60,0,1
117526,-133.333333333333,4,1,1,60,0,0
117841,-100,4,1,1,60,0,1
128104,-100,4,2,1,30,0,0
129999,-100,4,1,1,60,0,0
147368,-90.9090909090909,4,1,1,60,0,0
147683,-83.3333333333333,4,1,1,60,0,0
147999,-100,4,1,1,60,0,0
152262,-100,4,1,1,50,0,0
153210,-117.647058823529,4,1,1,60,0,0
159526,-100,4,2,1,30,0,0
160789,-100,4,1,1,60,0,1
162999,-100,4,1,1,60,0,0
163315,-100,4,1,1,60,0,1
173578,-100,4,2,1,30,0,0
175473,-100,4,1,1,60,0,0

[Colours]
Combo1 : 255,170,255
Combo2 : 170,255,170
Combo3 : 175,221,254
Combo4 : 255,147,147

[HitObjects]
144,312,1315,2,0,B|192:316|236:328,1,88
308,344,1631,2,0,B|416:340|432:188|336:160,1,264,2|0,0:0|0:0,0:0:0
256,192,2262,1,0,0:0:0
256,192,2420,1,0,0:0:0
184,136,2578,1,0,0:0:0
184,136,2736,1,0,0:0:0
128,204,2894,6,0,B|132:260|132:296,1,88,2|0,0:0|0:0,0:0:0
296,368,3210,2,0,B|296:336|292:280,1,88
260,88,3526,1,0,0:0:0
260,88,3841,6,0,B|316:104|352:108,1,88
420,152,4157,2,0,B|493:231|411:347|312:310,1,264,2|0,0:0|0:0,0:0:0
244,276,4789,1,0,0:0:0
208,204,4947,1,0,0:0:0
240,132,5104,2,0,B|232:92|232:40,1,88
72,112,5420,5,2,0:0:0
420,152,5736,1,0,0:0:0
160,280,6052,1,0,0:0:0
420,152,6368,1,2,0:0:0
420,152,6683,6,0,B|460:200|432:280|360:276,1,176,2|0,0:0|0:0,0:0:0
284,248,7157,2,0,B|220:204|220:204|128:248,1,176,2|0,0:0|0:0,0:0:0
36,224,7631,1,0,0:0:0
36,224,7789,2,2,B|28:172|28:128,1,88,0|0,0:0|0:0,0:0:0
172,36,8104,2,0,B|180:88|180:132,1,88
156,284,8420,6,0,B|192:332|304:304|296:232,1,176,2|2,0:0|0:0,0:0:0
295,246,9052,1,2,0:0:0
256,192,9368,12,0,11578,0:0:0
232,300,11894,6,0,B|284:284|324:280,1,88,2|0,0:0|0:0,0:0:0
317,280,12210,1,0,0:0:0
192,152,12368,6,0,B|179:205|165:235,1,88,2|0,0:0|0:0,0:0:0
165,235,12683,1,0,0:0:0
336,160,12841,1,2,0:0:0
396,296,13789,5,0,0:0:0
368,324,13868,1,0,0:0:0
328,336,13947,1,0,0:0:0
288,332,14026,1,0,0:0:0
252,312,14104,5,0,0:0:0
224,288,14183,1,0,0:0:0
184,280,14262,1,0,0:0:0
148,284,14341,1,0,0:0:0
116,304,14420,6,0,B|60:300|32:224|80:176,1,161.333333333333,4|0,0:0|0:0,0:0:0
144,92,14894,2,0,B|200:96|228:172|180:220,1,161.333333333333,12|0,0:0|0:0,0:0:0
252,312,15368,2,0,B|304:280|344:272,1,88,4|0,0:0|0:0,0:0:0
432,292,15683,5,0,0:0:0
472,280,15762,1,0,0:0:0
496,252,15841,1,0,0:0:0
504,212,15920,1,0,0:0:0
488,176,15999,1,0,0:0:0
460,148,16078,1,0,0:0:0
420,144,16157,1,0,0:0:0
380,156,16236,1,0,0:0:0
356,188,16315,6,0,B|344:240,1,44
284,288,16473,2,0,B|272:236,1,44
216,200,16631,2,0,B|160:228,1,44
128,280,16789,2,0,B|88:260,1,44
20,208,16947,5,2,0:0:0
216,200,17420,1,2,0:0:0
104,60,17894,1,2,0:0:0
216,200,18368,1,2,0:0:0
320,88,18841,1,2,0:0:0
388,152,19157,1,2,0:0:0
480,136,19473,6,0,B|520:176|508:232|456:260,1,132.000005035401,2|0,0:0|0:0,0:0:0
416,312,19947,6,0,B|352:280|352:280|284:312,1,140.8,2|0,0:0|0:0,0:0:0
192,308,20420,6,0,B|192:248|96:212|48:260,1,176,2|0,0:0|0:0,0:0:0
92,336,20894,6,0,B|140:256|140:256|104:192|104:192|124:136,1,220,2|0,0:0|0:0,0:0:0
188,56,21368,6,0,B|316:116,1,132.000005035401,2|0,0:0|0:0,0:0:0
376,232,21683,6,0,B|436:188,1,74.8000014266968
280,232,21841,2,0,B|324:316,1,74.8000014266968
188,232,21999,5,4,0:0:0
308,112,22157,1,0,0:0:0
172,132,22315,1,0,0:0:0
320,212,22473,1,0,0:0:0
372,112,22631,5,0,0:0:0
256,40,22789,2,0,B|228:80|236:124,1,88
264,288,23104,1,0,0:0:0
336,168,23262,1,0,0:0:0
188,232,23420,1,0,0:0:0
328,304,23578,1,0,0:0:0
204,344,23736,5,0,0:0:0
272,236,23894,1,0,0:0:0
404,256,24052,1,0,0:0:0
428,380,24210,2,0,B|382:388|344:362,1,88
317,344,24447,1,0,0:0:0
299,317,24526,1,0,0:0:0
316,180,24683,6,0,B|324:128|336:80,1,88
404,288,24999,1,0,0:0:0
296,300,25157,2,0,B|251:308|194:315,1,88
96,320,25473,1,0,0:0:0
116,164,25631,2,0,B|172:164|200:204,1,88
396,212,25947,2,0,B|340:212|312:172,1,88
268,304,26262,6,0,B|276:348,1,44
304,364,26420,1,0,0:0:0
332,376,26499,1,0,0:0:0
364,380,26578,1,0,0:0:0
396,376,26657,1,0,0:0:0
420,360,26736,2,0,B|412:308|404:268,1,88,4|0,0:0|0:0,0:0:0
400,244,26973,1,0,0:0:0
396,212,27052,1,4,0:0:0
256,300,27210,5,0,0:0:0
372,336,27368,1,0,0:0:0
300,188,27526,1,0,0:0:0
432,144,27683,1,0,0:0:0
483,234,27841,2,0,B|447:262|400:244,1,88
208,160,28157,1,0,0:0:0
268,80,28315,2,0,B|312:64|352:88,1,88
400,244,28631,5,0,0:0:0
300,188,28789,1,0,0:0:0
372,336,28947,1,0,0:0:0
483,234,29104,1,0,0:0:0
320,272,29262,1,0,0:0:0
452,308,29420,1,0,0:0:0
320,272,29578,6,0,B|264:280|240:316,1,88
80,308,29894,2,0,B|136:300|160:264,1,88
220,96,30210,2,0,B|224:144|220:188,1,88
401,332,30526,2,0,B|397:284|400:244,1,88
336,144,30841,1,0,0:0:0
228,288,30999,1,0,0:0:0
104,104,31157,1,0,0:0:0
40,192,31315,5,0,0:0:0
40,192,31394,1,0,0:0:0
40,192,31473,2,0,B|48:244,1,44
120,308,31631,2,0,B|113:264,1,44
176,232,31789,2,0,B|208:204|280:220|300:260,1,132
336,256,32104,2,0,B|340:200|360:156,1,88,4|0,0:0|0:0,0:0:0
444,120,32420,5,8,0:0:0
456,232,32578,1,0,0:0:0
468,344,32736,2,0,B|432:348|380:344,1,88
360,160,33052,1,8,0:0:0
248,256,33210,2,0,B|284:260|336:256,1,88
180,352,33526,6,0,B|140:324|140:268,1,88,0|8,0:0|0:0,0:0:0
168,84,33841,2,0,B|208:112|208:168,1,88
104,184,34157,2,0,B|68:188|16:184,1,88,0|8,0:0|0:0,0:0:0
248,256,34473,2,0,B|284:260|336:256,1,88
208,160,34789,5,0,0:0:0
152,276,34947,1,8,0:0:0
208,376,35104,1,0,0:0:0
152,276,35262,2,0,B|104:224|16:260|12:320,1,176,0|8,0:0|0:0,0:0:0
76,164,35736,6,0,B|76:120|72:76,1,88
208,160,36052,1,0,0:0:0
208,160,36131,1,0,0:0:0
208,160,36210,1,8,0:0:0
152,276,36368,2,0,B|152:320|156:364,1,88
34,304,36683,1,0,0:0:0
72,76,36841,6,0,B|80:120|144:140|188:120,1,132,8|0,0:0|0:0,0:0:0
180,123,37157,2,0,B|220:84|248:60,1,88
296,248,37473,1,8,0:0:0
204,232,37631,1,0,0:0:0
108,216,37789,2,0,B|72:244|40:272,1,88
228,328,38104,5,8,0:0:0
296,248,38262,2,0,B|342:235|388:276,1,88
244,160,38578,2,0,B|197:172|151:131,1,88,0|8,0:0|0:0,0:0:0
352,84,38894,2,0,B|398:96|417:154,1,88
148,328,39210,2,0,B|102:316|83:258,1,88,0|8,0:0|0:0,0:0:0
96,68,39526,5,0,0:0:0
184,124,39683,2,0,B|156:172|88:168,1,88
216,240,39999,1,8,0:0:0
264,64,40157,1,0,0:0:0
364,184,40315,2,0,B|335:149|283:163,1,88
340,296,40631,5,8,0:0:0
452,264,40789,1,0,0:0:0
364,184,40947,1,0,0:0:0
216,240,41104,1,0,0:0:0
380,96,41262,1,0,0:0:0
344,276,41420,5,0,0:0:0
344,276,41499,1,0,0:0:0
344,276,41578,1,0,0:0:0
280,96,41736,1,0,0:0:0
280,96,41894,1,0,0:0:0
200,164,42052,6,0,B|148:200|92:160|88:116,1,140.8,4|0,0:0|0:0,0:0:0
8,164,42526,2,0,B|24:212|24:212|12:272,1,105.6
26,305,42841,2,0,B|66:333|130:325|150:273,1,140.8,8|0,0:0|0:0,0:0:0
200,164,43315,2,0,B|156:168|124:176,1,70.4,4|0,0:0|0:0,0:0:0
148,280,43631,1,8,0:0:0
240,264,43789,2,0,B|284:260|316:252,1,70.4
340,268,44026,1,0,0:0:0
368,280,44104,2,0,B|412:276|444:268,1,70.4,8|0,0:0|0:0,0:0:0
360,136,44420,5,0,0:0:0
224,152,44578,2,0,B|195:164|183:212|211:244,1,105.6,4|0,0:0|0:0,0:0:0
240,264,44894,1,8,0:0:0
284,88,45052,1,0,0:0:0
308,208,45210,1,0,0:0:0
204,72,45368,1,8,0:0:0
360,136,45526,1,0,0:0:0
222,195,45683,1,0,0:0:0
336,256,45841,6,0,B|368:280|440:268|448:208,1,140.8,4|8,0:0|0:0,0:0:0
222,195,46315,2,0,B|240:264,1,70.4
180,336,46631,2,0,B|116:356,2,46.9333333333333,8|0|0,0:0|0:0|0:0,0:0:0
112,272,46947,2,0,B|48:292,2,46.9333333333333
44,208,47262,1,0,0:0:0
144,64,47578,6,0,B|64:40,1,70.4
176,156,47894,2,0,B|256:132,1,79.1999975830079
360,256,48210,2,0,B|276:232,1,88
392,348,48526,2,0,B|484:320,1,96.8000029541017
277,126,48841,2,0,B|176:156,1,105.599996777344
112,252,49157,5,0,0:0:0
184,336,49315,1,8,0:0:0
184,336,49394,1,0,0:0:0
184,336,49473,1,0,0:0:0
360,256,49631,1,0,0:0:0
188,152,49789,5,12,0:0:0
248,260,49947,1,0,0:0:0
312,156,50104,1,0,0:0:0
124,228,50262,5,12,0:0:0
184,336,50420,1,0,0:0:0
248,232,50578,1,0,0:0:0
64,304,50736,5,12,0:0:0
248,76,50894,1,8,0:0:0
480,292,51210,5,0,0:0:0
456,304,51289,1,0,0:0:0
432,316,51368,1,0,0:0:0
408,328,51447,1,0,0:0:0
384,340,51526,6,0,B|344:316,1,44
238,325,51683,2,0,B|275:347,1,44
284,256,51841,2,0,B|244:232,1,44
138,241,51999,2,0,B|175:263,1,44
80,304,52157,6,0,B|20:272|40:172|104:160,1,176,4|0,0:0|0:0,0:0:0
232,208,52631,1,8,0:0:0
256,308,52789,2,0,B|204:296|160:292,1,88
308,136,53104,2,0,B|323:187|342:227,1,88,0|8,0:0|0:0,0:0:0
128,180,53420,2,0,B|164:140|189:104,1,88,4|0,0:0|0:0,0:0:0
256,308,53736,5,0,0:0:0
328,244,53894,1,8,0:0:0
232,208,54052,1,0,0:0:0
156,284,54210,1,0,0:0:0
308,136,54368,1,0,0:0:0
128,180,54526,1,8,0:0:0
328,244,54683,6,0,B|380:288|464:260|464:184,1,176,4|0,0:0|0:0,0:0:0
308,136,55157,1,8,0:0:0
232,208,55315,2,0,B|244:260|248:304,1,88
400,136,55631,2,0,B|388:84|384:40,1,88,0|8,0:0|0:0,0:0:0
328,244,55947,2,0,B|380:232|414:228,1,88
248,108,56262,2,0,B|196:120|161:123,1,88,0|8,0:0|0:0,0:0:0
56,160,56578,5,0,0:0:0
212,224,56736,1,0,0:0:0
112,284,56894,1,0,0:0:0
212,224,57052,1,8,0:0:0
164,60,57210,5,4,0:0:0
56,160,57368,2,0,B|116:160|176:144,1,88
204,308,57683,1,8,0:0:0
316,200,57841,2,0,B|256:200|228:208,1,88
400,112,58157,1,0,0:0:0
472,200,58315,1,8,0:0:0
432,296,58473,6,0,B|400:328|336:324|312:284,1,132,4|0,0:0|0:0,0:0:0
314,288,58789,2,0,B|315:231|315:195,1,88,0|8,0:0|0:0,0:0:0
224,32,59104,2,0,B|222:88|222:124,1,88
204,308,59420,1,0,0:0:0
100,144,59578,1,8,0:0:0
104,296,59736,6,0,B|108:236|184:180|256:228,1,176,4|0,0:0|0:0,0:0:0
314,288,60210,1,8,0:0:0
344,148,60368,1,0,0:0:0
408,272,60526,1,8,0:0:0
456,92,60683,1,0,0:0:0
504,260,60841,1,8,0:0:0
384,235,60999,2,0,B|344:256|314:288,1,88,0|8,0:0|0:0,0:0:0
216,332,61315,5,0,0:0:0
216,332,61394,1,0,0:0:0
216,332,61473,2,0,B|168:300,1,44,8|0,0:0|0:0,0:0:0
72,296,61631,2,0,B|120:264,1,44
164,188,61789,2,0,B|178:230,1,44,8|0,0:0|0:0,0:0:0
84,164,61947,6,0,B|100:116|108:64,1,99.0000037765504,0|0,0:0|0:0,0:0:0
192,80,62262,6,0,B|233:26|328:63|329:128,1,176,4|0,0:0|0:0,0:0:0
260,247,62736,1,8,0:0:0
230,348,62894,2,0,B|264:339|317:334,1,88
186,170,63210,2,0,B|177:203|157:253,1,88,0|8,0:0|0:0,0:0:0
362,215,63526,2,0,B|338:191|305:149,1,88,4|0,0:0|0:0,0:0:0
230,348,63841,5,0,0:0:0
152,272,63999,1,8,0:0:0
260,248,64157,1,0,0:0:0
336,328,64315,1,0,0:0:0
186,170,64473,1,0,0:0:0
304,148,64631,1,8,0:0:0
228,348,64789,6,0,B|175:373|100:313|132:243,1,176,4|0,0:0|0:0,0:0:0
186,170,65262,1,8,0:0:0
346,233,65420,2,0,B|312:236|260:248,1,88,0|8,0:0|0:0,0:0:0
280,72,65736,1,0,0:0:0
280,72,65815,1,0,0:0:0
280,72,65894,1,0,0:0:0
416,136,66052,5,0,0:0:0
96,248,66368,1,0,0:0:0
444,292,66683,1,0,0:0:0
68,92,66999,1,0,0:0:0
416,136,67315,1,4,0:0:0
144,328,67631,6,0,B|184:324|236:308,1,88
96,248,67947,2,0,B|136:244|188:228,1,88
48,168,68262,2,0,B|88:164|140:148,1,88,0|0,0:0|0:0,0:0:0
284,256,68578,5,0,0:0:0
368,56,68736,2,0,B|328:60|276:76,1,88
416,136,69052,2,0,B|376:140|324:156,1,88
464,216,69368,2,0,B|424:220|372:236,1,88,0|0,0:0|0:0,0:0:0
272,312,69683,5,8,0:0:0
240,72,69841,1,0,0:0:0
56,148,69999,2,0,B|100:160|143:160,1,88,12|0,0:0|0:0,0:0:0
272,172,70315,1,0,0:0:0
196,264,70473,2,0,B|152:252|109:252,1,88,8|0,0:0|0:0,0:0:0
192,364,70789,1,0,0:0:0
296,328,70947,2,0,B|300:276|360:248|404:264,1,132,8|0,0:0|0:0,0:0:0
432,280,71262,5,0,0:0:0
392,76,71420,1,8,0:0:0
456,152,71578,2,0,B|404:180|352:168,1,88,0|0,0:0|0:0,0:0:0
288,208,71894,2,0,B|271:149|193:131|142:175,1,176,8|0,0:0|0:0,0:0:0
143,173,72526,5,2,0:0:0
112,248,72683,1,0,0:0:0
188,240,72841,1,0,0:0:0
81,121,72999,5,2,0:0:0
2,129,73157,1,0,0:0:0
48,192,73315,1,0,0:0:0
156,92,73473,5,2,0:0:0
72,292,74420,5,8,0:0:0
104,308,74499,1,0,0:0:0
140,312,74578,1,0,0:0:0
176,304,74657,1,0,0:0:0
208,288,74736,1,0,0:0:0
240,276,74815,1,0,0:0:0
276,280,74894,1,0,0:0:0
308,296,74973,1,0,0:0:0
344,324,75052,6,0,B|384:368|476:344|476:268,1,176,4|0,0:0|0:0,0:0:0
288,228,75526,2,0,B|240:232|200:240,1,88,12|0,0:0|0:0,0:0:0
72,292,75841,1,0,0:0:0
64,88,75999,6,0,B|5:115|6:218|113:254|225:209|189:114|126:58|197:-2|262:1|334:30|330:94|301:146,1,528,4|0,0:0|0:0,0:0:0
288,180,77026,1,0,0:0:0
280,220,77104,1,0,0:0:0
284,260,77183,1,0,0:0:0
308,292,77262,1,0,0:0:0
344,308,77341,1,0,0:0:0
384,308,77420,1,0,0:0:0
420,288,77499,1,0,0:0:0
440,252,77578,1,4,0:0:0
136,204,85157,6,0,B|180:196|240:204,1,88
380,76,85473,2,0,B|336:84|276:76,1,88,8|0,0:0|0:0,0:0:0
188,116,85789,1,0,0:0:0
316,180,85947,1,8,0:0:0
136,204,86104,5,0,0:0:0
136,204,86262,1,0,0:0:0
264,188,86420,1,8,0:0:0
104,300,86578,6,0,B|56:268|16:260,1,88,0|8,0:0|0:0,0:0:0
224,276,86894,1,0,0:0:0
256,272,86973,1,0,0:0:0
284,280,87052,2,0,B|324:324,3,44
384,344,87368,2,0,B|448:328,3,44
484,284,87683,6,0,B|448:228|504:172|504:172|484:132|444:128,1,198.000007553101,4|0,0:0|0:0,0:0:0
368,124,88315,2,0,B|344:160|284:168|240:136,1,132.000005035401,2|0,0:0|0:0,0:0:0
176,104,88789,2,0,B|140:77|80:85|56:121,1,132.000005035401
32,200,89262,1,0,0:0:0
80,276,89420,2,0,B|115:302|175:294|199:258,1,132.000005035401
198,259,89815,1,0,0:0:0
198,259,89894,2,0,B|196:212|192:184,1,66.0000025177003
316,64,90210,6,0,B|372:24|420:52|472:76|460:153,1,198.000007553101
432,212,90841,2,0,B|364:196|364:196|284:232,1,132.000005035401,2|0,0:0|0:0,0:0:0
236,280,91315,2,0,B|232:316|248:344,1,66.0000025177003,0|0,0:0|0:0,0:0:0
100,272,91631,2,0,B|135:263|156:238,1,66.0000025177003
80,72,91947,2,0,B|138:94|138:94|174:153,1,132.000005035401
174,153,92341,1,0,0:0:0
174,153,92420,2,0,B|264:132,1,66.0000025177003
408,256,92736,6,0,B|300:256,1,88
372,172,93052,2,0,B|460:172,1,88
320,336,93368,6,0,B|212:336,1,88
144,192,93683,2,0,B|232:192,1,88
124,300,93999,6,0,B|4:300,1,105.599996777344
208,92,94315,2,0,B|328:92,1,105.599996777344
428,236,94631,5,0,0:0:0
392,256,94710,1,0,0:0:0
352,264,94789,1,0,0:0:0
312,256,94868,1,0,0:0:0
276,232,94947,1,0,0:0:0
244,204,95026,1,0,0:0:0
204,192,95104,1,0,0:0:0
160,192,95183,1,0,0:0:0
120,208,95262,1,8,0:0:0
112,300,96368,6,0,B|136:260|192:240|252:276,1,132,4|0,0:0|0:0,0:0:0
252,300,96683,1,0,0:0:0
244,172,96841,1,0,0:0:0
316,232,96999,1,0,0:0:0
160,184,97157,1,0,0:0:0
276,96,97315,1,0,0:3:0
160,184,97473,1,0,0:3:0
252,300,97631,6,0,B|268:340|340:356|376:320,1,140.8,4|0,0:0|0:0,0:0:0
460,280,98104,2,0,B|432:220|432:220|448:156,1,105.6
456,136,98420,2,0,B|444:88|376:64|332:96,1,140.8,8|0,0:0|0:0,0:0:0
276,168,98894,2,0,B|280:204|284:240,1,70.4,4|0,0:0|0:0,0:0:0
220,320,99210,1,8,0:0:0
176,208,99368,2,0,B|172:172|168:136,1,70.4
184,112,99604,1,0,0:0:0
204,84,99683,2,0,B|200:48|196:12,1,70.4,8|0,0:0|0:0,0:0:0
336,96,99999,5,0,0:0:0
376,224,100157,2,0,B|349:244|297:236|278:200,1,105.6,4|0,0:0|0:0,0:0:0
276,168,100473,1,8,0:0:0
336,96,100631,1,0,0:0:0
204,124,100789,1,0,0:0:0
224,252,100947,1,8,0:0:0
136,172,101104,1,0,0:0:0
260,68,101262,1,0,0:0:0
292,216,101420,2,0,B|312:260|388:268|420:216,1,140.8,4|8,0:0|0:0,0:0:0
428,68,101894,5,0,0:0:0
336,96,102210,1,8,0:0:0
244,124,102526,1,0,0:0:0
152,152,102841,2,0,B|92:120|92:120|24:164,1,140.8,4|0,0:0|0:0,0:0:0
88,360,103473,6,0,B|146:347,1,58.6666666666667,0|0,0:3|0:3,0:3:0
176,280,103683,2,0,B|234:267,1,58.6666666666667,8|0,0:3|0:3,0:3:0
264,200,103894,2,0,B|322:187,1,58.6666666666667,8|0,0:3|0:3,0:3:0
152,152,104104,6,0,B|165:210,1,58.6666666666667,8|0,0:3|0:3,0:3:0
328,296,104315,2,0,B|315:238,1,58.6666666666667,8|0,0:3|0:3,0:3:0
220,132,104526,2,0,B|233:190,1,58.6666666666667,8|0,0:3|0:3,0:3:0
388,240,104736,6,0,B|375:182,1,58.6666666666667,8|0,0:3|0:3,0:3:0
288,112,104947,2,0,B|301:170,1,58.6666666666667,8|0,0:3|0:3,0:3:0
448,188,105157,2,0,B|435:130,1,58.6666666666667,8|0,0:0|0:0,0:0:0
232,236,105368,6,0,B|260:292|356:280|364:208,1,176,4|8,0:0|0:0,0:0:0
280,144,105841,2,0,B|252:88|156:100|148:172,1,176,4|0,0:0|0:0,0:0:0
124,268,106315,1,12,0:0:0
363,210,106473,1,8,0:0:0
183,59,106789,5,0,0:0:0
159,68,106868,1,0,0:0:0
136,76,106947,1,0,0:0:0
111,83,107026,1,0,0:0:0
87,91,107104,6,0,B|63:37,1,44,0|0,0:0|0:0,0:0:0
24,151,107262,2,0,B|46:201,1,44
143,212,107420,2,0,B|119:158,1,44
83,267,107578,2,0,B|105:317,1,44
196,328,107736,6,0,B|256:352|308:304|320:260|288:216,1,176,4|0,0:0|0:0,0:0:0
244,140,108210,1,8,0:0:0
196,236,108368,1,0,0:0:0
168,72,108526,1,0,0:0:0
244,140,108683,5,0,0:0:0
104,240,108841,1,8,0:0:0
80,124,108999,2,0,B|120:140|180:176,1,88,4|0,0:0|0:0,0:0:0
274,275,109315,2,0,B|234:259|196:236,1,88,0|8,0:0|0:0,0:0:0
340,204,109631,1,0,0:0:0
368,300,109789,1,0,0:0:0
428,228,109947,5,0,0:0:0
300,352,110104,1,8,0:0:0
240,196,110262,2,0,B|228:128|144:104|92:152,1,176,4|0,0:0|0:0,0:0:0
44,224,110736,1,8,0:0:0
116,296,110894,2,0,B|160:296|208:288,1,88
388,344,111210,2,0,B|344:344|296:352,1,88,0|8,0:0|0:0,0:0:0
331,201,111526,5,0,0:0:0
428,228,111683,1,0,0:0:0
406,131,111841,1,0,0:0:0
314,105,111999,1,8,0:0:0
428,228,112157,2,0,B|488:224|500:168,1,88
264,28,112473,2,0,B|214:61|231:115,1,88,0|8,0:0|0:0,0:0:0
308,220,112789,5,4,0:0:0
380,120,112947,2,0,B|408:96|440:48,1,88
428,228,113262,1,8,0:0:0
308,220,113420,2,0,B|264:224|212:216,1,88
272,336,113736,2,0,B|316:332|368:340,1,88,0|8,0:0|0:0,0:0:0
168,308,114052,2,0,B|120:288|80:328|80:328|40:268|64:232,1,176,4|0,0:0|0:0,0:0:0
52,148,114526,2,0,B|92:135|136:102,1,88,8|0,0:0|0:0,0:0:0
236,88,114841,5,0,0:0:0
260,116,114920,1,0,0:0:0
292,132,114999,1,0,0:0:0
328,140,115078,1,0,0:0:0
364,136,115157,1,0,0:0:0
396,128,115236,1,0,0:0:0
428,132,115315,2,0,B|473:164|476:229|423:274|389:271,1,176,4|0,0:0|0:0,0:0:0
292,328,115789,5,8,0:0:0
284,216,115947,1,0,0:0:0
176,360,116104,1,8,0:0:0
164,184,116262,1,0,0:0:0
292,328,116420,1,8,0:0:0
399,270,116578,2,0,B|436:244|488:236,1,88,4|8,0:0|0:0,0:0:0
396,140,116894,5,0,0:0:0
396,140,116973,1,0,0:0:0
396,140,117052,2,0,B|384:76,1,44,8|0,0:0|0:0,0:0:0
296,48,117210,2,0,B|308:112,1,44,0|0,0:0|0:0,0:0:0
284,216,117368,2,0,B|272:152,1,44,8|0,0:0|0:0,0:0:0
208,112,117526,6,0,B|180:144|136:136,1,66.0000025177003
68,136,117841,6,0,B|16:168|32:264|112:268,1,176,4|0,0:0|0:0,0:0:0
200,264,118315,1,8,0:0:0
284,216,118473,2,0,B|272:168|272:120,1,88
372,156,118789,1,0,0:0:0
320,300,118947,1,8,0:0:0
480,244,119104,2,0,B|432:240|384:244,1,88,4|0,0:0|0:0,0:0:0
208,136,119420,2,0,B|256:140|304:136,1,88,0|8,0:0|0:0,0:0:0
200,264,119736,1,0,0:0:0
112,220,119894,1,0,0:0:0
120,312,120052,5,0,0:0:0
104,128,120210,1,8,0:0:0
276,208,120368,2,0,B|328:248|420:204|396:116,1,176,4|0,0:0|0:0,0:0:0
372,48,120841,1,8,0:0:0
236,129,120999,2,0,B|256:161|276:208,1,88,0|8,0:0|0:0,0:0:0
372,320,121315,1,0,0:0:0
372,320,121394,1,0,0:0:0
372,320,121473,1,8,0:0:0
168,216,121631,5,0,0:0:0
344,168,121947,1,0,0:0:0
140,64,122262,1,0,0:0:0
372,320,122578,1,0,0:0:0
84,344,122894,6,0,B|20:336|-4:236|68:200,1,176,4|0,0:0|0:0,0:0:0
216,260,123368,2,0,B|152:260|116:272,1,88
80,108,123683,2,0,B|132:128|180:172,1,88
340,156,123999,2,0,B|292:168|248:176,1,88
352,312,124315,2,0,B|400:300|444:292,1,88
488,120,124631,6,0,B|466:164|444:203,1,88
244,272,124947,1,0,0:0:0
340,156,125104,1,8,0:0:0
340,156,125183,1,0,0:0:0
340,156,125262,1,0,0:0:0
216,36,125420,1,0,0:0:0
80,112,125578,6,0,B|72:180|180:212|224:156,1,176,12|0,0:0|0:0,0:0:0
340,156,126052,2,0,B|376:112|404:64,1,88,12|0,0:0|0:0,0:0:0
440,316,126368,1,0,0:0:0
336,292,126526,2,0,B|296:268|224:280|200:316,1,132,12|0,0:0|0:0,0:0:0
188,340,126841,1,0,0:0:0
40,284,126999,5,12,0:0:0
40,284,127078,1,0,0:0:0
40,284,127157,2,0,B|80:252|112:232,1,88
184,136,127473,2,0,B|160:64,1,44,4|0,0:0|0:0,0:0:0
264,108,127631,2,0,B|248:60,1,44
344,84,127789,1,0,0:0:0
344,84,128104,6,0,B|384:100|436:104,1,88,2|0,0:0|0:0,0:0:0
500,36,128420,1,0,0:0:0
356,188,128578,2,0,B|316:172|264:168,1,88,2|0,0:0|0:0,0:0:0
228,252,128894,1,0,0:0:0
428,336,129052,1,2,0:0:0
428,272,129999,5,0,0:0:0
400,292,130078,1,0,0:0:0
364,300,130157,1,0,0:0:0
328,296,130236,1,0,0:0:0
300,276,130315,2,0,B|288:228,1,44
196,200,130473,2,0,B|208:248,1,44
120,280,130631,6,0,B|50:259|43:160|108:135,1,176,4|0,0:0|0:0,0:0:0
184,60,131104,2,0,B|204:112|228:156,1,88,12|0,0:0|0:0,0:0:0
288,232,131420,1,0,0:0:0
404,88,131578,1,12,0:0:0
404,88,131894,5,0,0:0:0
287,232,132052,1,8,0:0:0
184,59,132210,1,8,0:0:0
288,128,132368,5,0,0:0:0
288,128,132447,1,0,0:0:0
288,128,132526,1,0,0:0:0
400,160,132683,2,0,B|456:160|484:120,1,88,8|8,0:0|0:0,0:0:0
444,312,132999,1,0,0:0:0
444,312,133078,1,0,0:0:0
444,312,133157,2,0,B|424:260|336:236|284:280,1,176,4|8,0:0|0:0,0:0:0
176,320,133631,5,0,0:0:0
132,316,133710,1,0,0:0:0
96,288,133789,1,0,0:0:0
80,248,133868,1,0,0:0:0
88,204,133947,1,0,0:0:0
112,168,134026,1,0,0:0:0
152,152,134104,2,0,B|220:184,3,44,8|0|0|0,0:0|0:0|0:0|0:0,0:0:0
296,212,134420,5,4,0:0:0
332,184,134499,1,0,0:0:0
344,140,134578,1,0,0:0:0
336,96,134657,1,0,0:0:0
308,64,134736,2,0,B|244:88,3,44,8|0|0|0,0:0|0:0|0:0|0:0,0:0:0
193,123,135052,6,0,B|168:88,1,44,0|0,0:0|0:0,0:0:0
80,200,135210,2,0,B|105:235,1,44,0|0,0:0|0:0,0:0:0
216,248,135368,2,0,B|191:213,1,44,8|0,0:0|0:0,0:0:0
160,324,135526,6,0,B|201:366|296:352|303:271,1,176,4|0,0:0|0:0,0:0:0
320,248,135920,1,0,0:0:0
356,224,135999,2,0,B|420:272|464:276,1,88,8|0,0:0|0:0,0:0:0
236,132,136315,6,0,B|184:160|136:156,1,88
112,136,136552,1,0,0:0:0
68,140,136631,1,8,0:0:0
32,168,136710,1,0,0:0:0
16,208,136789,1,0,0:0:0
20,252,136868,1,0,0:0:0
48,284,136947,6,0,B|104:304|148:304,1,88,0|0,0:0|0:0,0:0:0
256,192,137262,1,8,0:0:0
152,56,137420,2,0,B|96:36|67:37,1,88
128,192,137736,5,8,0:0:0
384,152,137894,1,8,0:0:0
352,280,138052,2,0,B|320:264|320:264|292:308|228:316|200:276,1,176,4|0,0:0|0:0,0:0:0
112,148,138525,5,8,0:0:0
130,104,138604,1,0,0:0:0
160,76,138683,1,0,0:0:0
204,64,138762,1,0,0:0:0
248,76,138841,2,0,B|272:144,1,44
388,132,138999,2,0,B|364:64,1,44
320,184,139157,2,0,B|344:252,3,44
392,276,139473,5,4,0:0:0
368,312,139552,1,0,0:0:0
328,332,139631,1,0,0:0:0
280,336,139710,1,0,0:0:0
240,316,139789,1,8,0:0:0
220,276,139868,1,0,0:0:0
228,232,139947,1,0,0:0:0
208,196,140025,1,0,0:0:0
168,176,140104,5,8,0:0:0
124,188,140183,1,0,0:0:0
88,212,140262,2,0,B|40:188|-4:184,1,88
108,68,140578,6,0,B|156:92|200:96,1,88,4|0,0:0|0:0,0:0:0
320,184,140894,1,0,0:0:0
364,184,140973,1,0,0:0:0
396,156,141052,1,8,0:0:0
320,60,141210,1,0,0:0:0
192,296,141368,1,8,0:0:0
191,95,141525,5,0,0:0:0
320,248,141683,1,8,0:0:0
96,193,141841,2,0,B|152:189|200:193,1,88,4|8,0:0|0:0,0:0:0
316,124,142157,5,0,0:0:0
192,296,142315,1,0,0:0:0
407,248,142473,2,0,B|359:244|320:248,1,88,8|0,0:0|0:0,0:0:0
184,192,142789,5,8,0:0:0
300,352,142947,1,0,0:0:0
316,124,143104,2,0,B|316:56|240:15|183:37,1,176,4|0,0:0|0:0,0:0:0
148,52,143499,1,0,0:0:0
112,76,143578,2,0,B|134:133|152:166,1,88,8|0,0:0|0:0,0:0:0
192,296,143894,6,0,B|137:266|102:252,1,88
252,188,144210,1,8,0:0:0
352,248,144368,2,0,B|389:303|324:381|261:361,1,176,4|0,0:0|0:0,0:0:0
192,296,144841,1,8,0:0:0
252,188,144999,2,0,B|232:140|208:100,1,88
92,96,145315,1,8,0:0:0
56,280,145473,1,8,0:0:0
136,200,145631,6,0,B|164:220|200:200|200:200|252:216|300:276,1,176,4|0,0:0|0:0,0:0:0
364,316,146104,1,8,0:0:0
192,296,146262,1,0,0:0:0
296,156,146420,5,0,0:0:0
268,356,146578,1,8,0:0:0
136,200,146736,1,8,0:0:0
348,92,146894,1,0,0:0:0
332,220,147052,6,0,B|276:212|240:204,1,88
96,280,147368,2,0,B|152:288|196:296,1,96.8000029541017,8|0,0:0|0:0,0:0:0
452,108,147683,2,0,B|396:100|348:92,1,105.599996777344
164,176,147999,5,8,0:0:0
164,176,148078,1,0,0:0:0
164,176,148157,2,0,B|220:160|276:176|304:236|304:272,1,176,4|0,0:0|0:0,0:0:0
320,292,148552,1,0,0:0:0
360,312,148631,1,8,0:0:0
404,312,148710,1,0,0:0:0
444,292,148789,1,0,0:0:0
464,252,148868,1,0,0:0:0
468,208,148947,1,0,0:0:0
452,168,149025,1,0,0:0:0
416,144,149104,1,0,0:0:0
372,140,149183,1,0,0:0:0
332,160,149262,2,0,B|268:132,3,44,8|0|0|0,0:0|0:0|0:0|0:0,0:0:0
228,192,149578,5,8,0:0:0
228,192,149657,1,0,0:0:0
228,192,149736,2,0,B|164:200,1,44
256,308,149894,5,8,0:0:0
256,308,149973,1,0,0:0:0
256,308,150052,2,0,B|300:304,1,44
436,352,150210,5,8,0:0:0
436,352,150289,1,0,0:0:0
436,352,150368,2,0,B|372:360,1,44
456,240,150525,5,8,0:0:0
456,240,150604,1,0,0:0:0
456,240,150683,2,0,B|500:236,1,44
364,188,150841,6,0,B|336:240|256:264|200:240,1,176,12|0,0:0|0:0,0:0:0
108,184,151315,1,0,0:0:0
108,184,151394,1,0,0:0:0
108,184,151473,1,0,0:0:0
208,132,151631,1,8,0:0:0
120,296,151789,1,8,0:0:0
92,80,151947,1,8,0:0:0
420,96,152262,6,0,B|448:60,1,44
308,60,152420,2,0,B|335:94,1,44,0|0,0:0|0:0,0:0:0
380,208,152578,2,0,B|380:152,1,44
268,216,152736,2,0,B|307:235,1,44
260,132,152894,2,0,B|208:148,1,44
148,236,153052,2,0,B|200:220,1,44
176,316,153210,6,0,B|120:336|48:292|64:224,1,149.600002853394,4|0,0:0|0:0,0:0:0
92,176,153683,1,0,0:0:0
148,112,153841,2,0,B|140:64|132:40,2,74.8000014266968
206,266,154315,1,0,0:0:0
324,164,154473,6,0,B|292:132|208:148|196:196,1,149.600002853394,4|8,0:0|0:0,0:0:0
196,193,154868,1,0,0:0:0
196,193,154947,2,0,B|203:239|207:267,1,74.8000014266968
24,200,155262,2,0,B|17:154|13:126,1,74.8000014266968,8|0,0:0|0:0,0:0:0
104,264,155578,1,0,0:0:0
136,348,155736,6,0,B|172:376|248:376|276:324,1,149.600002853394,4|8,0:0|0:0,0:0:0
270,332,156131,1,0,0:0:0
270,332,156210,2,0,B|255:279|251:243,1,74.8000014266968
280,164,156525,1,8,0:0:0
336,240,156683,1,0,0:0:0
196,192,156841,1,0,0:0:0
320,72,156999,6,0,B|364:64|416:60,1,74.8000014266968
436,200,157315,1,0,0:0:0
280,164,157473,1,0,0:0:0
260,296,157631,6,0,B|304:288|356:284,1,74.8000014266968
280,164,157947,1,0,0:0:0
144,276,158104,1,8,0:0:0
196,80,158262,1,8,0:0:0
480,288,159525,5,2,0:0:0
336,240,159841,1,0,0:0:0
252,128,160157,1,2,0:0:0
108,80,160473,1,2,0:0:0
80,324,160789,6,0,B|124:368|220:340|224:276,1,176,4|0,0:0|0:0,0:0:0
193,193,161262,2,0,B|208:168|252:128,1,88,8|0,0:0|0:0,0:0:0
196,48,161578,1,8,0:0:0
100,180,161736,1,0,0:0:0
248,272,161894,1,8,0:0:0
336,128,162052,5,0,0:0:0
336,128,162131,1,0,0:0:0
336,128,162210,2,0,B|332:76,1,44,8|0,0:0|0:0,0:0:0
200,132,162368,2,0,B|204:184,1,44
304,260,162525,2,0,B|300:208,1,44,8|0,0:0|0:0,0:0:0
188,280,162683,2,0,B|192:332,1,44,0|8,0:0|0:0,0:0:0
288,364,162841,1,8,0:0:0
88,340,162999,1,0,0:0:0
188,44,163315,6,0,B|248:60|272:144|212:192,1,176,4|0,0:0|0:0,0:0:0
112,176,163789,1,8,0:0:0
87,338,163947,2,0,B|106:288|178:256|236:296,1,176
344,352,164420,1,8,0:0:0
456,192,164578,6,0,B|437:242|365:274|307:234,1,176,4|0,0:0|0:0,0:0:0
220,172,165052,2,0,B|212:116|212:72,1,88,8|0,0:0|0:0,0:0:0
112,176,165368,1,0,0:0:0
184,280,165525,1,0,0:0:0
312,144,165683,1,8,0:0:0
384,300,165841,2,0,B|320:280|292:260,1,88,4|0,0:0|0:0,0:0:0
184,280,166157,5,0,0:0:0
156,292,166236,1,0,0:0:0
124,292,166315,1,0,0:0:0
96,284,166394,1,0,0:0:0
72,264,166473,1,0,0:0:0
60,236,166552,1,0,0:0:0
60,204,166631,1,0,0:0:0
68,176,166710,1,0,0:0:0
88,152,166789,2,0,B|136:160|180:160,1,88
256,40,167104,5,0,0:0:0
184,280,167420,1,0,0:0:0
72,84,167736,1,0,0:0:0
312,344,168052,1,0,0:0:0
476,168,168368,6,0,B|440:112|352:128|336:192,1,176,4|0,0:0|0:0,0:0:0
292,284,168841,2,0,B|364:304|392:316,1,88
252,100,169157,2,0,B|221:168|212:197,1,88
98,298,169473,2,0,B|142:286|184:280,1,88
88,104,169789,6,0,B|44:116|-4:124,1,88
216,184,170104,2,0,B|260:172|308:164,1,88
400,96,170420,1,0,0:0:0
476,260,170578,1,0,0:0:0
476,260,170657,1,0,0:0:0
476,260,170736,2,0,B|432:272|384:280,1,88
260,336,171052,6,0,B|216:280|136:300,1,132,4|0,0:0|0:0,0:0:0
104,316,171368,1,0,0:0:0
48,172,171525,2,0,B|112:188|180:196,1,132,4|0,0:0|0:0,0:0:0
216,184,171841,1,0,0:0:0
320,72,171999,6,0,B|224:88,1,88,4|0,0:0|0:0,0:0:0
233,86,172236,1,0,0:0:0
233,86,172315,1,0,0:0:0
328,200,172473,2,0,B|424:184,1,88,4|0,0:0|0:0,0:0:0
414,185,172710,1,0,0:0:0
414,185,172789,1,0,0:0:0
300,304,172947,5,4,0:0:0
264,296,173026,1,0,0:0:0
228,288,173104,1,0,0:0:0
192,280,173183,1,0,0:0:0
156,272,173262,1,0,0:0:0
145,44,173578,5,2,0:0:0
208,120,173736,1,0,0:0:0
112,140,173894,1,0,0:0:0
312,128,174052,5,2,0:0:0
240,216,174210,1,0,0:0:0
353,233,174368,1,0,0:0:0
184,316,174525,5,2,0:0:0
408,168,175473,5,0,0:0:0
380,196,175552,1,0,0:0:0
340,208,175631,1,0,0:0:0
300,204,175710,1,0,0:0:0
264,184,175789,1,0,0:0:0
236,160,175868,1,0,0:0:0
196,152,175947,1,0,0:0:0
160,156,176025,1,0,0:0:0
128,176,176104,6,0,B|68:168|44:80|104:32,1,176,4|0,0:0|0:0,0:0:0
192,88,176578,2,0,B|252:96|276:184|216:232,1,176,4|0,0:0|0:0,0:0:0
36,260,177052,1,4,0:0:0
36,260,177368,6,0,B|0:228|4:164|56:136,1,132
112,116,177683,6,0,B|132:164,1,44
144,264,177841,2,0,B|176:208,1,44
196,104,177999,6,0,B|220:161,1,44
232,276,178157,2,0,B|270:208,1,44
280,92,178315,6,0,B|307:159,1,44
320,292,178473,2,0,B|360:223,1,44
364,80,178631,5,4,0:0:0
256,192,178710,12,0,181157,0:0:0
