osu file format v10

[General]
AudioFilename: No Pain, No Game by Nano.mp3
AudioLeadIn: 1000
PreviewTime: 51840
Countdown: 0
SampleSet: Normal
StackLeniency: 0.6
Mode: 0
LetterboxInBreaks: 0

[Editor]
DistanceSpacing: 1.1
BeatDivisor: 4
GridSize: 4

[Metadata]
Title:No pain, No game
TitleUnicode:No pain, No game
Artist:nano
ArtistUnicode:nano
Creator:tutuhaha
Version:Normal
Source:BTOOOM!
Tags:AngelHoney kemu
BeatmapID:180429
BeatmapSetID:60214

[Difficulty]
HPDrainRate:4
CircleSize:3
OverallDifficulty:4
ApproachRate:4
SliderMultiplier:0.8
SliderTickRate:1

[Events]
//Background and Video events
Video,0,"no pain no game.avi"
0,0,"30169269_m.jpg"
//Break Periods
2,17146,20047
2,77777,86362
//Storyboard Layer 0 (Background)
//Storyboard Layer 1 (Fail)
//Storyboard Layer 2 (Pass)
//Storyboard Layer 3 (Foreground)
//Storyboard Sound Samples
//Background Colour Transformations
3,100,163,162,255

[TimingPoints]
525,315.789473684211,4,1,0,60,1,0
1314,-133.333333333333,4,1,1,40,0,0
11893,-133.333333333333,4,2,1,60,0,0
13788,-100,4,1,1,60,0,0
16946,-100,4,1,1,50,0,0
21367,-100,4,1,1,60,0,0
21998,-100,4,1,0,60,0,0
22077,-100,4,1,1,60,0,0
27051,-100,4,1,0,60,0,0
27130,-100,4,1,1,60,0,0
32103,-100,4,1,0,60,0,0
32182,-100,4,1,1,60,0,0
42051,-133.333333333333,4,1,0,60,0,0
42130,-133.333333333333,4,1,1,60,0,0
47261,-133.333333333333,4,1,1,40,0,0
49788,-100,4,1,1,60,0,0
52156,-100,4,1,0,60,0,1
52235,-100,4,1,1,60,0,1
62261,-100,4,1,0,60,0,1
62340,-100,4,1,1,60,0,1
72525,-100,4,2,1,60,0,0
74419,-100,4,1,1,60,0,0
77577,-100,4,1,0,60,0,0
87682,-100,4,1,1,40,0,0
92735,-100,4,1,1,50,0,0
95103,-100,4,1,1,60,0,0
97630,-133.333333333333,4,1,0,60,0,0
97709,-133.333333333333,4,1,1,60,0,0
102840,-133.333333333333,4,1,1,40,0,0
105367,-100,4,1,1,60,0,0
107735,-100,4,1,0,60,0,1
107814,-100,4,1,1,60,0,1
117840,-100,4,1,0,60,0,1
117919,-100,4,1,1,60,0,1
128103,-100,4,2,1,60,0,0
129998,-100,4,1,1,60,0,0
133156,-100,4,1,0,60,0,0
133235,-100,4,1,1,60,0,0
153209,-133.333333333333,4,1,1,60,0,0
158419,-133.333333333333,4,2,1,60,0,0
160788,-100,4,1,1,60,0,0
163314,-100,4,1,0,60,0,1
163393,-100,4,1,1,60,0,1
173577,-100,4,2,1,60,0,0
175472,-100,4,1,1,60,0,0
176103,-100,4,1,1,60,0,1
178630,-100,4,1,0,60,0,0

[Colours]
Combo1 : 248,211,171
Combo2 : 171,252,203
Combo3 : 175,221,254
Combo4 : 249,254,186
Combo5 : 240,80,80

[HitObjects]
164,56,1314,1,0,0:0:0
164,56,1630,2,0,B|64:76|40:184,1,180.000006866455
48,240,2893,2,0,B|124:344,1,120.000004577637
184,220,4156,6,0,B|216:132|332:120,1,180.000006866455
356,72,5419,2,0,B|432:176,1,120.000004577637
384,280,6682,1,0,0:0:0
384,280,8419,6,0,B|256:280,1,120.000004577637
212,308,9367,2,0,B|208:236|144:200,1,120.000004577637
256,192,10077,12,2,11893,0:0:0
256,192,13788,6,0,B|256:108,1,80,0|8,0:0|0:0,0:0:0
292,32,14419,2,0,B|432:20|496:144,1,240,4|4,0:0|0:0,0:0:0
256,192,15446,12,0,16946,0:0:0
256,264,21367,5,0,0:0:0
256,264,21682,1,8,0:0:0
256,264,21998,2,0,B|164:256|120:176,1,160,4|0,0:0|0:0,0:0:0
96,100,22946,1,8,0:0:0
152,32,23261,2,0,B|236:56|264:144,1,160
312,212,24209,1,8,0:0:0
360,288,24525,6,0,B|448:288,2,80,0|8|0,0:0|0:0|0:0,0:0:0
288,340,25472,1,8,0:0:0
200,352,25788,2,0,B|120:320|116:208,2,160,0|0|4,0:0|0:0|0:0,0:0:0
284,328,27367,5,8,0:0:0
252,248,27682,2,0,B|232:208|240:160,1,80,0|8,0:0|0:0,0:0:0
184,100,28314,2,0,B|240:32|340:40,1,160
404,80,29261,1,8,0:0:0
460,148,29577,6,0,B|360:284,1,160
288,316,30525,1,8,0:0:0
208,348,30840,2,0,B|132:328|96:216|144:140,1,240,0|8,0:0|0:0,0:0:0
136,60,32103,6,0,B|188:64|212:100,1,80,4|8,0:0|0:0,0:0:0
260,164,32735,2,0,B|352:184|420:120,1,160
388,44,33682,1,8,0:0:0
410,128,33998,2,0,B|476:200,1,80,0|8,0:0|0:0,0:0:0
472,276,34630,6,0,B|413:331|321:311,2,160
464,187,36209,1,8,0:0:0
380,160,36525,2,0,B|288:160,1,80,0|8,0:0|0:0,0:0:0
232,220,37156,6,0,B|200:136|96:124,2,160
188,296,38735,1,8,0:0:0
272,328,39051,2,0,B|440:328,1,160
468,248,39998,5,8,0:0:0
380,232,40314,2,0,B|304:188|312:84,2,160
440,168,41893,6,0,B|472:128,2,40,8|4|0,0:0|0:0|0:0,0:0:0
380,232,42525,1,8,0:0:0
312,288,42840,2,0,B|216:276|180:168,1,180.000006866455,0|8,0:0|0:0,0:0:0
96,156,44103,6,0,B|112:60|212:32,1,180.000006866455,0|8,0:0|0:0,0:0:0
280,88,45367,2,0,B|320:124|304:176|304:176|344:184|360:236,1,180.000006866455
292,296,46630,1,0,0:0:0
208,332,46946,1,8,0:0:0
124,304,47261,6,0,B|64:276|56:212,2,120.000004577637
124,304,49156,1,0,0:0:0
92,132,49788,6,0,B|152:156|164:240,1,120
224,284,50577,1,0,0:0:0
164,348,50893,1,4,0:0:0
164,348,52156,6,0,B|260:348|308:276,1,160,4|0,0:0|0:0,0:0:0
288,196,53103,1,8,0:0:0
316,112,53419,2,0,B|408:112,1,80
356,32,54051,2,0,B|264:32,1,80,0|8,0:0|0:0,0:0:0
188,44,54682,6,0,B|100:56|64:148,1,160
104,220,55630,1,8,0:0:0
168,280,55946,2,0,B|252:280,2,80
196,196,56893,6,0,B|304:220|388:124,1,200,8|8,0:0|0:0,0:0:0
388,92,57840,2,0,B|376:52|328:36,1,80
244,40,58472,2,0,B|160:40,2,80
224,128,59419,1,8,0:0:0
136,140,59735,6,0,B|72:224|132:336,1,200
212,304,60840,2,0,B|248:224|348:220,1,160,0|0,0:0|0:0,0:0:0
412,268,61788,6,0,B|468:232|472:164,2,120,8|4|8,0:0|0:0|0:0,0:0:0
364,196,63051,2,0,B|364:72,1,120
288,32,63840,1,0,0:0:0
200,40,64156,2,0,B|200:132,1,80,0|8,0:0|0:0,0:0:0
116,148,64788,6,0,B|80:224|100:320,1,160
172,348,65735,1,0,0:0:0
256,320,66051,2,0,B|344:320,1,80,0|8,0:0|0:0,0:0:0
348,232,66682,2,0,B|436:232,1,80,0|8,0:0|0:0,0:0:0
428,144,67314,6,0,B|404:64|304:32|220:64,1,240,0|8,0:0|0:0,0:0:0
212,148,68577,2,0,B|172:236|32:240,1,200
32,152,69682,1,8,0:0:0
32,152,69998,1,0,0:0:0
256,192,70077,12,2,72525,0:0:0
256,192,74419,5,0,0:0:0
256,192,74735,1,8,0:0:0
256,192,75051,12,4,77577,0:0:0
136,216,87682,6,0,B|232:216,1,80
268,288,88314,2,0,B|320:256|388:268,1,120
452,212,89103,2,0,B|480:180|476:128,2,80
392,148,90051,6,0,B|272:92,1,120
196,108,90840,2,0,B|72:108,1,120
32,184,91630,2,0,B|20:228|32:268,2,80
112,224,92577,6,0,B|204:308,1,120
260,236,93367,2,0,B|200:180,1,80
260,116,93998,2,0,B|318:170,1,80
380,104,94630,2,0,B|320:48,1,80
236,32,95261,6,0,B|72:32,1,160
148,144,96367,2,0,B|184:168|192:212,1,80
228,288,96998,2,0,B|272:280|312:300,1,80,8|0,0:0|0:0,0:0:0
392,324,97630,6,0,B|448:240,1,90.0000034332277,4|8,0:0|0:0,0:0:0
432,160,98419,2,0,B|416:72|304:40,1,180.000006866455,0|8,0:0|0:0,0:0:0
232,88,99682,2,0,B|184:168|68:168,1,180.000006866455,0|8,0:0|0:0,0:0:0
80,260,100946,2,0,B|136:336,2,90.0000034332277,0|8|0,0:0|0:0|0:0,0:0:0
36,180,102209,1,0,0:0:0
56,92,102525,1,0,0:0:0
128,40,102840,5,0,0:0:0
128,40,103472,1,0,0:0:0
256,168,104103,1,0,0:0:0
256,168,104735,1,0,0:0:0
432,156,105367,6,0,B|444:220|400:272,1,120,4|0,0:0|0:0,0:0:0
332,320,106156,1,4,0:0:0
248,340,106472,1,0,0:0:0
348,36,107735,6,0,B|252:36|204:108,1,160,4|0,0:0|0:0,0:0:0
224,188,108682,1,8,0:0:0
196,272,108998,2,0,B|104:272,1,80
156,352,109630,2,0,B|248:352,1,80,0|8,0:0|0:0,0:0:0
324,340,110261,6,0,B|412:328|448:236,1,160
408,164,111209,1,8,0:0:0
344,104,111525,2,0,B|260:104,2,80
316,188,112472,6,0,B|208:164|124:260,1,200,8|8,0:0|0:0,0:0:0
124,292,113419,2,0,B|136:332|184:348,1,80
268,344,114051,2,0,B|352:344,2,80
288,256,114998,1,8,0:0:0
376,244,115314,6,0,B|440:160|380:48,1,200
300,80,116419,2,0,B|264:160|164:164,1,160,0|0,0:0|0:0,0:0:0
100,116,117367,6,0,B|44:152|40:220,2,120,8|4|8,0:0|0:0|0:0,0:0:0
148,188,118630,2,0,B|148:312,1,120
224,352,119419,1,0,0:0:0
312,344,119735,2,0,B|312:252,1,80,0|8,0:0|0:0,0:0:0
396,236,120367,6,0,B|432:160|412:64,1,160
340,36,121314,1,0,0:0:0
256,64,121630,2,0,B|168:64,1,80,0|8,0:0|0:0,0:0:0
164,152,122261,2,0,B|76:152,1,80,0|8,0:0|0:0,0:0:0
84,240,122893,6,0,B|108:320|208:352|292:320,1,240,0|8,0:0|0:0,0:0:0
300,236,124156,2,0,B|340:148|480:144,1,200
480,232,125261,1,8,0:0:0
480,232,125577,1,0,0:0:0
256,192,125656,12,2,128103,0:0:0
256,192,129998,5,0,0:0:0
256,192,130314,1,8,0:0:0
256,192,130630,2,0,B|400:168|412:20,1,240,4|0,0:0|0:0,0:0:0
324,28,131893,2,0,B|196:28,2,120,0|0|8,0:0|0:0|0:0,0:0:0
312,116,133156,6,0,B|224:116|168:180,1,160,4|0,0:0|0:0,0:0:0
120,248,134103,1,8,0:0:0
196,292,134419,2,0,B|284:280|356:324,2,160
160,212,135998,2,0,B|160:124,2,80,8|0|8,0:0|0:0|0:0,0:0:0
244,188,136946,5,0,0:0:0
332,188,137261,1,8,0:0:0
368,108,137577,2,0,B|304:120|240:84,1,120
120,104,138524,1,8,0:0:0
120,104,138840,2,0,B|120:16,1,80,0|8,0:0|0:0,0:0:0
204,44,139472,6,0,B|204:124,1,80,0|8,0:0|0:0,0:0:0
288,156,140103,2,0,B|288:32,1,120
412,80,141051,1,8,0:0:0
428,168,141367,2,0,B|328:252,2,120,0|0|8,0:0|0:0|0:0,0:0:0
352,124,142630,2,0,B|232:124,1,120
168,240,143577,5,8,0:0:0
168,240,143893,2,0,B|104:252|48:220,2,120,0|0|8,0:0|0:0|0:0,0:0:0
180,152,145156,2,0,B|253:121|337:137,1,160
400,76,146103,5,8,0:0:0
448,148,146419,1,0,0:0:0
444,236,146735,1,8,0:0:0
380,296,147051,2,0,B|312:236|316:140,1,160
248,100,147998,6,0,B|172:140|160:232,1,160,8|8,0:0|0:0,0:0:0
120,304,148946,2,0,B|32:304,1,80,0|8,0:0|0:0,0:0:0
20,220,149577,2,0,B|100:220,1,80,0|8,0:0|0:0,0:0:0
80,136,150209,2,0,B|0:136,1,80,0|8,0:0|0:0,0:0:0
256,192,150840,12,0,151946,0:0:0
256,96,153209,6,0,B|64:96,1,180.000006866455,4|0,0:0|0:0,0:0:0
84,184,154472,2,0,B|272:184,1,180.000006866455,4|0,0:0|0:0,0:0:0
300,268,155735,2,0,B|364:280|416:240,1,120.000004577637,4|0,0:0|0:0,0:0:0
428,152,156682,1,0,0:0:0
392,68,156998,6,0,B|328:68,1,60.0000022888184,4|0,0:0|0:0,0:0:0
284,144,157630,2,0,B|216:144,1,60.0000022888184
184,224,158261,2,0,B|140:224,1,30.0000011444092,0|0,0:0|0:0,0:0:0
328,144,160788,6,0,B|396:160|420:224,1,120,4|12,0:0|0:0,0:0:0
316,280,161577,2,0,B|184:280,2,120,0|4|8,0:0|0:0|0:0,0:0:0
404,276,162840,2,0,B|436:272|448:256,1,40
416,176,163314,6,0,B|412:96|320:44,1,160,4|0,0:0|0:0,0:0:0
240,40,164261,1,8,0:0:0
152,52,164577,2,0,B|64:52,1,80
56,140,165209,2,0,B|140:140,1,80,0|8,0:0|0:0,0:0:0
136,228,165840,6,0,B|216:268|304:220,1,160
284,140,166788,1,8,0:0:0
332,68,167103,2,0,B|368:40|416:44,1,80,8|0,0:0|0:0,0:0:0
420,132,167735,2,0,B|460:152|472:192,1,80,8|0,0:0|0:0,0:0:0
448,276,168367,6,0,B|304:320|216:220,1,240,0|8,0:0|0:0,0:0:0
140,220,169630,2,0,B|128:104|212:36,1,200,0|8,0:0|0:0,0:0:0
268,104,170735,2,0,B|300:132,2,40,0|0|4,0:0|0:0|0:0,0:0:0
256,192,171130,12,2,173577,0:0:0
256,192,175472,6,0,B|300:184|328:152,1,80,0|8,0:0|0:0,0:0:0
264,92,176103,2,0,B|220:60|136:64,2,120,4|4|4,0:0|0:0|0:0,0:0:0
256,192,177130,12,4,178630,0:0:0
