osu file format v10

[General]
AudioFilename: No Pain, No Game by Nano.mp3
AudioLeadIn: 1000
PreviewTime: 51840
Countdown: 0
SampleSet: Normal
StackLeniency: 0.8
Mode: 0
LetterboxInBreaks: 0

[Editor]
DistanceSpacing: 1.5
BeatDivisor: 4
GridSize: 4

[Metadata]
Title:No pain, No game
TitleUnicode:No pain, No game
Artist:nano
ArtistUnicode:nano
Creator:tutuhaha
Version:Hard
Source:BTOOOM!
Tags:AngelHoney kemu
BeatmapID:180428
BeatmapSetID:60214

[Difficulty]
HPDrainRate:5
CircleSize:3
OverallDifficulty:4
ApproachRate:6
SliderMultiplier:1.1
SliderTickRate:1

[Events]
//Background and Video events
Video,0,"no pain no game.avi"
0,0,"30169269_m.jpg"
//Break Periods
2,77777,86632
//Storyboard Layer 0 (Background)
//Storyboard Layer 1 (Fail)
//Storyboard Layer 2 (Pass)
//Storyboard Layer 3 (Foreground)
//Storyboard Sound Samples
//Background Colour Transformations
3,100,163,162,255

[TimingPoints]
525,315.789473684211,4,1,0,60,1,0
1314,-133.333333333333,4,1,1,40,0,0
11893,-133.333333333333,4,2,1,60,0,0
13788,-100,4,1,1,60,0,0
16630,-100,4,2,1,60,0,0
16946,-100,4,1,1,50,0,0
21998,-100,4,1,0,60,0,0
22077,-100,4,1,1,60,0,0
27051,-100,4,1,0,60,0,0
27130,-100,4,1,1,60,0,0
32103,-100,4,1,0,60,0,0
32182,-100,4,1,1,60,0,0
42051,-133.333333333333,4,1,0,60,0,0
42130,-133.333333333333,4,1,1,60,0,0
44577,-133.333333333333,4,1,0,60,0,0
44656,-133.333333333333,4,1,1,60,0,0
47261,-133.333333333333,4,1,1,40,0,0
49788,-100,4,1,0,60,0,0
49867,-100,4,1,1,60,0,0
52156,-100,4,1,0,60,0,1
52235,-100,4,1,1,60,0,1
62261,-100,4,1,0,60,0,1
62340,-100,4,1,1,60,0,1
72525,-100,4,2,1,60,0,0
74419,-100,4,1,1,60,0,0
77577,-100,4,1,0,60,0,0
87682,-133.333333333333,4,1,1,40,0,0
92735,-133.333333333333,4,1,1,50,0,0
95103,-133.333333333333,4,1,1,60,0,0
96367,-100,4,1,1,60,0,0
97630,-133.333333333333,4,1,0,60,0,0
97709,-133.333333333333,4,1,1,60,0,0
100156,-133.333333333333,4,1,0,60,0,0
100235,-133.333333333333,4,1,1,60,0,0
102840,-133.333333333333,4,1,1,40,0,0
105367,-100,4,1,1,60,0,0
107735,-100,4,1,0,60,0,1
107814,-100,4,1,1,60,0,1
117840,-100,4,1,0,60,0,1
117919,-100,4,1,1,60,0,1
128103,-100,4,2,1,60,0,0
129998,-100,4,1,1,60,0,0
133156,-100,4,1,0,60,0,0
133235,-100,4,1,1,60,0,0
143103,-100,4,1,0,60,0,0
143182,-100,4,1,1,60,0,0
153209,-133.333333333333,4,1,1,60,0,0
158419,-133.333333333333,4,2,1,60,0,0
160788,-100,4,1,1,60,0,0
163314,-100,4,1,0,60,0,1
163393,-100,4,1,1,60,0,1
173577,-100,4,2,1,60,0,0
175472,-100,4,1,1,60,0,0
176103,-100,4,1,1,60,0,1
178630,-100,4,1,0,60,0,0

[Colours]
Combo1 : 248,211,171
Combo2 : 171,252,203
Combo3 : 175,221,254
Combo4 : 249,254,186
Combo5 : 240,80,80

[HitObjects]
96,308,1314,1,0,0:0:0
96,308,1630,2,0,B|56:256|72:180,1,123.750004720688
72,140,2261,2,0,B|172:140,1,82.5000031471254
252,128,2893,2,0,B|224:76|264:28|328:20|348:56,1,165.000006294251
344,244,4156,6,0,B|344:312|288:360,1,123.750004720688
248,336,4788,2,0,B|180:276,1,82.5000031471254
168,184,5419,2,0,B|172:136|120:108|72:112|48:152,1,165.000006294251
132,332,6682,6,0,B|384:332,1,247.500009441376
452,264,7946,2,0,B|448:144|344:88,1,206.250007867813
256,56,9051,1,0,0:0:0
256,56,9367,1,0,0:0:0
256,192,9446,12,2,11893,0:0:0
256,188,13788,5,0,0:0:0
256,188,14103,1,0,0:0:0
136,204,14419,2,0,B|128:144|172:96,1,110,4|0,0:0|0:0,0:0:0
196,48,14893,2,0,B|308:100,1,110,4|0,0:0|0:0,0:0:0
348,124,15367,1,4,0:0:0
256,192,15446,12,0,16630,0:0:0
256,256,16946,6,0,B|204:324|84:316,2,165
96,168,18367,2,0,B|124:116|180:96,1,110
216,48,18840,2,0,B|288:144,1,110
340,244,19472,6,0,B|392:176|500:188,2,165
180,328,20893,2,0,B|52:328,1,110
40,276,21367,2,0,B|24:220,2,55
112,180,21998,6,0,B|128:116|184:92,1,110,4|8,0:0|0:0,0:0:0
276,24,22630,2,0,B|312:68|388:68,1,110,0|8,0:0|0:0,0:0:0
292,160,23261,2,0,B|424:152|484:276,1,220
372,328,24209,2,0,B|308:328,1,55,8|0,0:0|0:0,0:0:0
288,276,24525,6,0,B|244:316|176:316,2,110,0|8|0,0:0|0:0|0:0,0:0:0
220,176,25472,1,8,0:0:0
108,220,25788,2,0,B|96:132|172:68,1,165
220,44,26419,2,0,B|272:76,2,55,0|0|8,0:0|0:0|0:0,0:0:0
100,20,27051,6,0,B|24:104,1,110,4|8,0:0|0:0,0:0:0
44,220,27682,2,0,B|117:138,1,110,0|8,0:0|0:0,0:0:0
240,140,28314,2,0,B|164:224,1,110,0|8,0:0|0:0,0:0:0
172,344,28946,2,0,B|220:300,2,55,0|0|8,0:0|0:0|0:0,0:0:0
292,352,29577,6,0,B|424:356|476:232,1,220
428,132,30525,2,0,B|392:92,1,55,8|0,0:0|0:0,0:0:0
280,40,30998,2,0,B|252:24|216:32,2,55,0|8|0,0:0|0:0|0:0,0:0:0
268,100,31472,2,0,B|188:200,1,110,0|8,0:0|0:0,0:0:0
132,288,32103,5,4,0:0:0
240,340,32419,2,0,B|296:312,1,55,8|0,0:0|0:0,0:0:0
328,268,32735,2,0,B|392:276|440:236,1,110,0|8,0:0|0:0,0:0:0
472,196,33209,2,0,B|428:92,1,110
320,44,33840,2,0,B|362:145,1,110,0|0,0:0|0:0,0:0:0
336,200,34314,1,8,0:0:0
288,236,34472,6,0,B|224:236|184:180,1,110
132,184,34946,2,0,B|76:184,2,55,8|0|0,0:0|0:0|0:0,0:0:0
188,76,35577,1,8,0:0:0
188,76,35735,1,0,0:0:0
304,36,36051,1,0,0:0:0
424,64,36367,1,0,0:0:0
476,172,36682,1,0,0:0:0
444,288,36998,1,0,0:0:0
352,364,37314,6,0,B|352:304,2,55,0|8|0,0:0|0:0|0:0,0:0:0
292,364,37788,2,0,B|232:348|204:288,1,110,0|8,0:0|0:0,0:0:0
152,276,38261,2,0,B|196:164,1,110
312,148,38893,2,0,B|356:36,2,110
344,200,39682,6,0,B|348:232|328:264,1,55
340,312,39998,2,0,B|340:336|312:360,1,55,8|0,0:0|0:0,0:0:0
252,352,40314,2,0,B|224:296|156:288,1,110,0|8,0:0|0:0,0:0:0
108,280,40788,1,0,0:0:0
104,160,41103,1,0,0:0:0
188,72,41419,1,0,0:0:0
308,56,41735,5,0,0:0:0
308,56,41893,1,8,0:0:0
308,56,42051,2,0,B|372:80|392:152,1,123.750004720688,4|8,0:0|0:0,0:0:0
340,248,42840,2,0,B|280:228|256:156,1,123.750004720688
164,92,43630,2,8,B|108:104,1,41.2500015735627
112,156,43946,2,0,B|56:168,1,41.2500015735627
44,276,44419,5,8,0:0:0
44,276,44577,2,0,B|80:332|156:332,1,123.750004720688,4|8,0:0|0:0,0:0:0
232,252,45367,2,0,B|264:192|352:196,1,123.750004720688
420,272,46156,2,0,B|464:252,1,41.2500015735627,0|8,0:0|0:0,0:0:0
448,140,46630,1,0,0:0:0
448,140,46946,1,8,0:0:0
448,140,47261,6,0,B|292:48,1,165.000006294251
76,88,48525,2,0,B|218:171,1,165.000006294251
204,288,49472,1,0,0:0:0
204,288,49788,6,0,B|304:312|376:260,2,165,4|8|0,0:0|0:0|0:0,0:0:0
152,320,50893,1,4,0:0:0
152,320,52156,6,0,B|72:168,1,165,4|8,0:0|0:0,0:0:0
56,116,52788,2,0,B|112:140|176:120,1,110
252,40,53419,1,0,0:0:0
252,40,53735,1,0,0:0:0
348,123,54051,2,0,B|400:140|456:116,1,110
488,168,54525,1,8,0:0:0
468,224,54682,6,0,B|364:364,1,165,0|8,0:0|0:0,0:0:0
312,340,55314,2,0,B|264:312|256:248,1,110
148,192,55946,1,0,0:0:0
148,192,56261,1,0,0:0:0
84,92,56577,1,0,0:0:0
84,92,56893,2,0,B|144:56,2,55,0|8|0,0:0|0:0|0:0,0:0:0
32,124,57367,6,0,B|56:184|20:252,1,110,0|8,0:0|0:0,0:0:0
32,292,57840,2,0,B|136:356,1,110
240,312,58472,2,0,B|146:254,1,110
128,136,59103,2,0,B|232:200,1,110
284,200,59577,1,8,0:0:0
320,152,59735,6,0,B|312:80|380:40,1,110
416,32,60209,1,8,0:0:0
472,140,60525,2,0,B|504:136|520:112,2,55,0|0|8,0:0|0:0|0:0,0:0:0
456,200,60998,2,0,B|464:272|396:312,1,110
368,332,61472,2,0,B|240:332,1,110,8|0,0:0|0:0,0:0:0
208,296,61946,1,0,0:0:0
208,296,62261,6,0,B|176:212|56:204,1,165,4|8,0:0|0:0,0:0:0
76,144,62893,2,0,B|136:120|160:48,1,110
256,148,63525,1,0,0:0:0
256,148,63840,1,0,0:0:0
359,68,64156,2,0,B|376:120|436:144,1,110
476,188,64630,1,8,0:0:0
460,248,64788,6,0,B|308:328,1,165,0|8,0:0|0:0,0:0:0
256,348,65419,2,0,B|248:288|184:248,1,110
100,184,66051,1,0,0:0:0
100,184,66367,1,0,0:0:0
156,76,66682,1,0,0:0:0
156,76,66998,1,0,0:0:0
276,52,67314,5,0,0:0:0
376,124,67630,2,0,B|372:160|344:184,1,55,8|0,0:0|0:0,0:0:0
364,232,67946,2,0,B|335:254|298:251,1,55,8|0,0:0|0:0,0:0:0
276,300,68261,2,0,B|240:296|216:268,1,55,8|0,0:0|0:0,0:0:0
168,288,68577,2,0,B|145:259|148:222,1,55,8|0,0:0|0:0,0:0:0
92,208,68893,6,0,B|96:171|124:147,2,55,8|0|8,0:0|0:0|0:0,0:0:0
32,192,69367,2,0,B|8:132|32:68,1,110,0|8,0:0|0:0,0:0:0
140,44,69998,2,0,B|240:28|300:108,2,165,4|8|0,0:0|0:0|0:0,0:0:0
148,164,71261,6,0,B|104:208,1,55
156,240,71577,2,0,B|112:284,1,55,8|0,0:0|0:0,0:0:0
152,328,71893,2,0,B|204:368|280:344,1,110
348,272,72525,1,2,0:0:0
348,272,74419,6,0,B|408:224,2,55
256,192,75051,1,4,0:0:0
256,192,75130,12,4,77577,0:0:0
208,192,87682,6,0,B|112:192,1,82.5000031471254
24,120,88314,2,0,B|48:60|124:36,1,123.750004720688
236,48,89103,1,0,0:0:0
344,112,89419,1,0,0:0:0
396,224,89735,1,0,0:0:0
416,348,90051,1,0,0:0:0
292,352,90367,6,0,B|240:352,2,41.2500015735627
292,292,90840,2,0,B|272:224|200:196,1,123.750004720688
92,224,91630,1,0,0:0:0
148,116,91946,1,0,0:0:0
256,56,92261,1,0,0:0:0
380,40,92577,1,0,0:0:0
380,164,92893,6,0,B|356:208,2,41.2500015735627,0|0|0,0:0|0:0|0:0,0:0:0
444,164,93367,2,0,B|476:196|480:252|480:248,1,82.5000031471254
460,296,93840,1,0,0:0:0
408,328,93998,2,0,B|320:328,1,82.5000031471254
264,336,94472,2,0,B|248:288|204:272,1,82.5000031471254
152,256,94946,6,0,B|152:200,2,41.2500015735627,0|0|0,0:0|0:0|0:0,0:0:0
460,48,96209,1,0,0:0:0
460,48,96367,2,0,B|332:48,1,110,8|0,0:0|0:0,0:0:0
260,132,96998,2,0,B|128:132,1,110,8|0,0:0|0:0,0:0:0
80,232,97630,6,0,B|216:232,1,123.750004720688,4|8,0:0|0:0,0:0:0
268,336,98419,2,0,B|344:344|392:280,2,123.750004720688,0|0|8,0:0|0:0|0:0,0:0:0
300,216,99682,2,0,B|324:148|404:128,1,123.750004720688,0|4,0:0|0:0,0:0:0
292,52,100472,6,0,B|256:24,2,41.2500015735627,0|8|0,0:0|0:0|0:0,0:0:0
352,40,100946,2,0,B|428:32|472:80,1,123.750004720688
456,196,101735,2,0,B|428:244,1,41.2500015735627,0|8,0:0|0:0,0:0:0
312,244,102209,2,0,B|368:168,1,82.5000031471254,0|0,0:0|0:0,0:0:0
256,108,102840,5,0,0:0:0
256,108,103472,1,0,0:0:0
68,268,104103,2,0,B|32:176|80:96,1,165.000006294251
156,148,105051,2,0,B|180:196,1,41.2500015735627
204,240,105367,6,0,B|228:332|340:360,2,165,4|4|4,0:0|0:0|0:0,0:0:0
256,208,106472,1,0,0:0:0
360,64,107735,6,0,B|440:216,1,165,4|8,0:0|0:0,0:0:0
456,268,108367,2,0,B|400:244|336:264,1,110
260,344,108998,1,0,0:0:0
260,344,109314,1,0,0:0:0
164,261,109630,2,0,B|112:244|56:268,1,110
24,216,110103,1,8,0:0:0
44,160,110261,6,0,B|148:20,1,165,0|8,0:0|0:0,0:0:0
200,44,110893,2,0,B|248:72|256:136,1,110
364,192,111525,1,0,0:0:0
364,192,111840,1,0,0:0:0
428,292,112156,1,0,0:0:0
428,292,112472,2,0,B|368:328,2,55,0|8|0,0:0|0:0|0:0,0:0:0
480,260,112946,6,0,B|456:200|492:132,1,110,0|8,0:0|0:0,0:0:0
480,92,113419,2,0,B|376:28,1,110
272,72,114051,2,0,B|366:130,1,110
384,248,114682,2,0,B|280:184,1,110
228,184,115156,1,8,0:0:0
192,232,115314,6,0,B|200:304|132:344,1,110
96,352,115788,1,8,0:0:0
40,244,116103,2,0,B|8:248|-8:272,2,55,0|0|8,0:0|0:0|0:0,0:0:0
56,184,116577,2,0,B|48:112|116:72,1,110
144,52,117051,2,0,B|272:52,1,110,8|0,0:0|0:0,0:0:0
304,88,117525,1,0,0:0:0
304,88,117840,6,0,B|336:172|456:180,1,165,4|8,0:0|0:0,0:0:0
436,240,118472,2,0,B|376:264|352:336,1,110
256,236,119103,1,0,0:0:0
256,236,119419,1,0,0:0:0
153,316,119735,2,0,B|136:264|76:240,1,110
36,196,120209,1,8,0:0:0
52,136,120367,6,0,B|204:56,1,165,0|8,0:0|0:0,0:0:0
256,36,120998,2,0,B|264:96|328:136,1,110
412,200,121630,1,0,0:0:0
412,200,121946,1,0,0:0:0
356,308,122261,1,0,0:0:0
356,308,122577,1,0,0:0:0
236,332,122893,5,0,0:0:0
136,260,123209,2,0,B|140:224|168:200,1,55,8|0,0:0|0:0,0:0:0
148,152,123525,2,0,B|177:130|214:133,1,55,8|0,0:0|0:0,0:0:0
236,84,123840,2,0,B|272:88|296:116,1,55,8|0,0:0|0:0,0:0:0
344,96,124156,2,0,B|367:125|364:162,1,55,8|0,0:0|0:0,0:0:0
420,176,124472,6,0,B|416:213|388:237,2,55,8|0|8,0:0|0:0|0:0,0:0:0
480,192,124946,2,0,B|504:252|480:316,1,110,0|8,0:0|0:0,0:0:0
372,340,125577,2,0,B|272:356|212:276,2,165,4|8|0,0:0|0:0|0:0,0:0:0
364,220,126840,6,0,B|408:176,1,55
356,144,127156,2,0,B|400:100,1,55,8|0,0:0|0:0,0:0:0
360,56,127472,2,0,B|308:16|232:40,1,110
164,112,128103,1,2,0:0:0
164,112,129998,6,0,B|104:160,2,55,0|0|8,0:0|0:0|0:0,0:0:0
256,192,130630,2,0,B|356:188|400:112,2,165,4|4|4,0:0|0:0|0:0,0:0:0
220,308,131893,2,0,B|104:272|92:128,1,220
172,48,132840,6,0,B|228:92,2,55,8|0|4,0:0|0:0|0:0,0:0:0
52,44,133472,1,8,0:0:0
56,164,133788,2,0,B|96:276,1,110,0|8,0:0|0:0,0:0:0
104,328,134261,2,0,B|132:276|200:256,1,110
248,272,134735,1,8,0:0:0
356,220,135051,2,0,B|412:196,2,55,0|0|8,0:0|0:0|0:0,0:0:0
308,180,135525,6,0,B|316:112|276:64,1,110
240,36,135998,1,8,0:0:0
128,88,136314,2,0,B|128:152|84:204,1,110,0|8,0:0|0:0,0:0:0
64,308,136946,2,0,B|116:268|192:288,1,110,0|8,0:0|0:0,0:0:0
204,332,137419,2,0,B|228:284|292:276,1,110
344,244,137893,1,8,0:0:0
396,212,138051,6,0,B|428:128|388:40,1,165,0|8,0:0|0:0,0:0:0
272,68,138840,2,0,B|144:68,1,110,0|8,0:0|0:0,0:0:0
108,40,139314,2,0,B|84:104|32:128,1,110
60,180,139788,2,0,B|88:252,1,55,8|0,0:0|0:0,0:0:0
140,232,140103,2,0,B|168:304,1,55
252,204,140577,6,0,B|208:80,1,110
260,56,141051,2,0,B|280:36|320:32,1,55,8|0,0:0|0:0,0:0:0
364,60,141367,2,0,B|392:56|428:68,2,55,0|0|8,0:0|0:0|0:0,0:0:0
364,120,141840,2,0,B|400:164|392:240,1,110
364,276,142314,1,8,0:0:0
316,316,142472,2,0,B|252:336|192:300,1,110
168,264,142946,1,8,0:0:0
164,204,143103,6,0,B|128:132|24:128,1,165,4|8,0:0|0:0,0:0:0
112,40,143893,2,0,B|288:40,2,165,0|0|8,0:0|0:0|0:0,0:0:0
188,132,145156,2,0,B|360:132,1,165
284,232,145946,6,0,B|256:256|256:288,2,55,0|8|0,0:0|0:0|0:0,0:0:0
344,240,146419,2,0,B|404:244|456:208,1,110,0|8,0:0|0:0,0:0:0
496,176,146893,2,0,B|424:84,1,110
388,44,147367,2,0,B|360:24|324:28,1,55,8|0,0:0|0:0,0:0:0
280,52,147682,2,0,B|248:56|228:80,1,55
204,128,147998,1,8,0:0:0
188,188,148156,6,0,B|140:224|68:216,1,110
24,200,148630,2,0,B|56:320,2,110,8|0|8,0:0|0:0|0:0,0:0:0
40,140,149419,1,0,0:0:0
64,84,149577,2,0,B|104:36|172:32,1,110,0|8,0:0|0:0,0:0:0
220,136,150209,2,0,B|232:168|264:184,2,55,0|0|8,0:0|0:0|0:0,0:0:0
256,192,150840,12,0,151946,0:0:0
256,192,153209,6,0,B|224:56|56:52,1,247.500009441376,4|0,0:0|0:0,0:0:0
60,176,154472,2,0,B|44:264,1,82.5000031471254,4|0,0:0|0:0,0:0:0
136,340,155103,2,0,B|150:258,1,82.5000031471254
256,192,155735,6,0,B|288:328|456:332,1,247.500009441376,4|0,0:0|0:0,0:0:0
452,208,156998,2,0,B|468:120,1,82.5000031471254,4|0,0:0|0:0,0:0:0
376,44,157630,2,0,B|361:125,1,82.5000031471254
300,136,158103,2,0,B|292:112|272:104,2,41.2500015735627,8|0|2,0:0|0:0|0:0,0:0:0
300,136,160788,6,0,B|228:188|120:164,1,165,4|4,0:0|0:0,0:0:0
68,76,161577,2,0,B|84:48|120:40,2,55,8|0|4,0:0|0:0|0:0,0:0:0
20,112,162051,2,0,B|48:160|32:232,1,110,0|0,0:0|0:0,0:0:0
52,276,162524,2,0,B|96:328,1,55
148,304,162840,2,0,B|192:356,1,55,4|0,0:0|0:0,0:0:0
183,345,163314,6,0,B|220:272|332:252,1,165,4|8,0:0|0:0,0:0:0
372,236,163946,1,0,0:0:0
428,128,164261,2,0,B|440:96|436:64,1,55,0|8,0:0|0:0,0:0:0
400,24,164577,2,0,B|296:64,1,110
240,88,165051,1,8,0:0:0
184,104,165209,2,0,B|168:168|108:196,1,110
72,224,165682,1,8,0:0:0
16,244,165840,6,0,B|4:152|72:84,1,165,0|8,0:0|0:0,0:0:0
104,44,166472,1,0,0:0:0
104,44,166788,1,0,0:0:0
224,40,167103,1,0,0:0:0
224,40,167419,1,0,0:0:0
332,96,167735,1,0,0:0:0
332,96,168051,1,0,0:0:0
364,212,168367,1,0,0:0:0
328,328,168682,6,0,B|296:320|280:292,1,55,8|0,0:0|0:0,0:0:0
224,308,168998,2,0,B|207:279|215:248,1,55,8|0,0:0|0:0,0:0:0
164,220,169314,2,0,B|172:188|200:172,1,55,8|0,0:0|0:0,0:0:0
184,116,169630,2,0,B|212:99|243:107,1,55,8|0,0:0|0:0,0:0:0
280,64,169946,6,0,B|312:72|328:100,2,55,8|0|8,0:0|0:0|0:0,0:0:0
240,20,170419,2,0,B|108:20,1,110,0|8,0:0|0:0,0:0:0
48,112,171051,2,0,B|44:184|104:224,1,110,0|8,0:0|0:0,0:0:0
72,268,171524,2,0,B|124:216|184:216,1,110,0|0,0:0|0:0,0:0:0
208,172,171998,6,0,B|240:228|312:240,1,110,8|0,0:0|0:0,0:0:0
340,276,172472,2,0,B|368:248|408:248,2,55,0|8|0,0:0|0:0|0:0,0:0:0
356,336,172946,1,0,0:0:0
236,356,173261,1,0,0:0:0
132,292,173577,1,2,0:0:0
132,292,175472,6,0,B|148:168,1,110,0|8,0:0|0:0,0:0:0
152,124,175946,1,0,0:0:0
160,64,176103,1,4,0:0:0
256,192,176182,12,4,178630,0:0:0
