osu file format v10

[General]
AudioFilename: No Pain, No Game by Nano.mp3
AudioLeadIn: 1000
PreviewTime: 51840
Countdown: 0
SampleSet: Normal
StackLeniency: 0.7
Mode: 0
LetterboxInBreaks: 0

[Editor]
DistanceSpacing: 1.3
BeatDivisor: 4
GridSize: 4

[Metadata]
Title:No pain, No game
TitleUnicode:No pain, No game
Artist:nano
ArtistUnicode:nano
Creator:tutuhaha
Version:Game
Source:BTOOOM!
Tags:AngelHoney kemu
BeatmapID:182425
BeatmapSetID:60214

[Difficulty]
HPDrainRate:7
CircleSize:4
OverallDifficulty:8
ApproachRate:9
SliderMultiplier:1.6
SliderTickRate:1

[Events]
//Background and Video events
Video,0,"no pain no game.avi"
0,0,"30169269_m.jpg"
//Break Periods
2,12093,13188
2,72725,73819
2,77777,87082
2,128303,129398
2,158619,160188
//Storyboard Layer 0 (Background)
//Storyboard Layer 1 (Fail)
//Storyboard Layer 2 (Pass)
//Storyboard Layer 3 (Foreground)
//Storyboard Sound Samples
//Background Colour Transformations
3,100,163,162,255

[TimingPoints]
525,315.789473684211,4,1,0,60,1,0
1314,-133.333333333333,4,1,1,40,0,0
11893,-133.333333333333,4,2,1,50,0,0
13788,-100,4,1,1,60,0,0
16630,-100,4,2,1,60,0,0
16946,-100,4,1,1,50,0,0
20893,-200,4,1,1,50,0,0
21682,-100,4,1,1,60,0,0
21998,-100,4,1,0,60,0,0
22077,-100,4,1,1,60,0,0
24209,-66.6666666666667,4,1,1,60,0,0
24525,-100,4,1,1,60,0,0
26735,-66.6666666666667,4,1,1,60,0,0
27051,-100,4,1,0,60,0,0
27130,-100,4,1,1,60,0,0
29261,-66.6666666666667,4,1,1,60,0,0
29498,-100,4,1,1,60,0,0
32103,-100,4,1,0,60,0,0
32182,-100,4,1,1,60,0,0
42051,-133.333333333333,4,1,0,60,0,0
42130,-133.333333333333,4,1,1,60,0,0
44577,-133.333333333333,4,1,0,60,0,0
44656,-133.333333333333,4,1,1,60,0,0
47261,-133.333333333333,4,1,1,40,0,0
48525,-100,4,1,1,60,0,0
52156,-100,4,1,0,60,0,1
52235,-100,4,1,1,60,0,1
72525,-100,4,2,1,60,0,0
74419,-100,4,1,1,60,0,0
77577,-100,4,1,0,60,0,0
87682,-200,4,1,1,40,0,0
92735,-133.333333333333,4,1,1,60,0,0
96367,-100,4,1,1,60,0,0
97788,-133.333333333333,4,1,1,60,0,0
102840,-133.333333333333,4,1,1,40,0,0
104103,-133.333333333333,4,1,1,50,0,0
104735,-133.333333333333,4,1,1,60,0,0
105367,-100,4,1,1,60,0,0
107735,-100,4,1,0,60,0,1
107814,-100,4,1,1,60,0,1
128103,-100,4,2,1,60,0,0
129998,-100,4,1,1,60,0,0
133156,-100,4,1,0,60,0,0
133235,-100,4,1,1,60,0,0
143103,-100,4,1,0,60,0,0
143182,-100,4,1,1,60,0,0
150840,-100,4,1,0,60,0,0
150919,-100,4,1,1,60,0,0
152261,-100,4,1,1,40,0,0
152735,-100,4,1,1,50,0,0
153209,-133.333333333333,4,1,1,60,0,0
158419,-133.333333333333,4,2,1,60,0,0
160788,-133.333333333333,4,1,1,60,0,0
163314,-100,4,1,0,60,0,1
163393,-100,4,1,1,60,0,1
173577,-100,4,2,1,60,0,0
175472,-100,4,1,1,60,0,0
176103,-100,4,1,1,60,0,1
178630,-100,4,1,0,60,0,0

[Colours]
Combo1 : 248,211,171
Combo2 : 171,252,203
Combo3 : 175,221,254
Combo4 : 249,254,186
Combo5 : 240,80,80

[HitObjects]
136,92,1314,1,0,0:0:0
136,92,1630,2,0,B|132:144|168:200|240:204|280:176,1,180.000006866455,0|0,0:0|0:0,0:0:0
304,104,2261,1,0,0:0:0
304,104,2577,1,0,0:0:0
304,104,2893,2,0,B|448:104,1,120.000004577637
308,244,3525,2,0,B|440:244,1,120.000004577637
476,168,3998,1,0,0:0:0
476,168,4156,6,0,B|408:164|372:80|404:24,1,180.000006866455,0|0,0:0|0:0,0:0:0
476,80,4788,2,0,B|364:148,1,120.000004577637
192,136,5419,2,0,B|304:68,1,120.000004577637
200,276,6051,2,0,B|302:213,1,120.000004577637
302,213,6682,1,0,0:0:0
302,213,6998,5,0,0:0:0
320,124,7156,2,0,B|304:56|232:32,1,120.000004577637
156,44,7630,1,0,0:0:0
112,124,7788,1,0,0:0:0
132,212,7946,1,0,0:0:0
216,240,8103,5,0,0:0:0
302,213,8261,1,0,0:0:0
320,124,8419,2,0,B|296:60|220:60,1,120.000004577637
227,60,9051,1,0,0:0:0
256,192,9367,12,2,11893,0:0:0
60,160,13788,5,0,0:0:0
88,132,13867,1,0,0:0:0
128,128,13946,1,0,0:0:0
160,148,14025,1,0,0:0:0
168,192,14103,1,0,0:0:0
204,212,14182,1,0,0:0:0
244,208,14261,1,0,0:0:0
272,180,14340,1,0,0:0:0
292,144,14419,6,0,B|316:56|424:48,1,160,4|0,0:0|0:0,0:0:0
392,228,14893,2,0,B|308:264|236:204,1,160,4|0,0:0|0:0,0:0:0
220,48,15367,1,4,0:0:0
256,192,15446,12,0,16630,0:0:0
256,192,16946,5,0,0:0:0
256,192,17261,1,0,0:0:0
156,128,17419,1,0,0:0:0
256,192,17735,1,0,0:0:0
156,128,17893,6,0,B|180:32|284:20,1,160
380,56,18367,1,0,0:0:0
380,56,18682,1,0,0:0:0
356,172,18840,1,0,0:0:0
156,212,19156,1,0,0:0:0
356,172,19472,5,0,0:0:0
156,212,19788,1,0,0:0:0
244,132,19946,1,0,0:0:0
124,288,20261,1,0,0:0:0
244,268,20419,1,0,0:0:0
56,336,20735,5,0,0:0:0
172,372,20893,2,0,B|268:372,1,80
356,308,21367,1,0,0:0:0
320,136,21525,1,0,0:0:0
156,76,21682,1,8,0:0:0
156,76,21761,1,0,0:0:0
156,76,21840,1,0,0:0:0
104,192,21998,6,0,B|152:200|192:172,1,80,4|0,0:0|0:0,0:0:0
288,244,22314,2,0,B|328:232|344:184,1,80,8|0,0:0|0:0,0:0:0
256,72,22630,1,0,0:0:0
352,68,22788,1,0,0:0:0
436,116,22946,1,8,0:0:0
488,196,23103,1,0,0:0:0
342,189,23261,5,0,0:0:0
246,189,23419,1,0,0:0:0
162,141,23577,1,8,0:0:0
120,56,23735,1,0,0:0:0
76,192,23893,1,0,0:0:0
76,192,23972,1,0,0:0:0
76,192,24051,1,0,0:0:0
20,284,24209,6,0,B|80:320|152:272,1,120.000004577637,8|0,0:0|0:0,0:0:0
162,141,24525,5,0,0:0:0
232,76,24682,1,0,0:0:0
324,52,24840,1,8,0:0:0
420,60,24998,1,0,0:0:0
316,160,25156,1,0,0:0:0
236,212,25314,1,0,0:0:0
140,224,25472,1,8,0:0:0
44,204,25630,1,0,0:0:0
80,56,25788,6,0,B|112:28|164:36,1,80,0|0,0:0|0:0,0:0:0
232,128,26103,2,0,B|252:84|300:72,1,80,8|0,0:0|0:0,0:0:0
396,172,26419,1,0,0:0:0
380,216,26498,1,0,0:0:0
340,244,26577,1,0,0:0:0
232,128,26735,6,0,B|260:72|336:64,1,120.000004577637,8|0,0:0|0:0,0:0:0
396,172,27051,5,4,0:0:0
496,204,27209,1,0,0:0:0
412,268,27367,2,0,B|368:272|336:240,1,80,8|0,0:0|0:0,0:0:0
223,115,27682,2,0,B|268:124|284:164,1,80
140,164,27998,1,8,0:0:0
200,32,28156,1,0,0:0:0
112,68,28314,6,0,B|64:84|48:120,1,80
56,260,28630,2,0,B|68:308|116:324,1,80,8|0,0:0|0:0,0:0:0
148,236,28946,1,0,0:0:0
148,236,29025,1,0,0:0:0
148,236,29103,1,0,0:0:0
252,336,29261,6,0,B|228:272|264:216,1,120.000004577637,8|0,0:0|0:0,0:0:0
276,124,29577,5,0,0:0:0
352,68,29735,1,0,0:0:0
444,48,29893,1,8,0:0:0
504,160,30051,1,0,0:0:0
412,136,30209,2,0,B|364:144|324:108,1,80
194,31,30525,2,0,B|236:24|272:44,1,80,8|0,0:0|0:0,0:0:0
104,64,30840,5,0,0:0:0
236,120,30998,1,0,0:0:0
80,168,31156,1,8,0:0:0
236,120,31314,1,0,0:0:0
104,264,31472,1,0,0:0:0
140,296,31551,1,0,0:0:0
192,304,31630,1,0,0:0:0
240,300,31709,1,0,0:0:0
284,276,31788,1,8,0:0:0
312,236,31867,1,0,0:0:0
344,200,31946,1,0,0:0:0
384,176,32025,1,0,0:0:0
432,172,32103,6,0,B|472:76,1,80,4|0,0:0|0:0,0:0:0
388,40,32419,1,8,0:0:0
388,40,32577,1,0,0:0:0
292,100,32735,2,0,B|284:48|204:16|140:64,1,160,0|8,0:0|0:0,0:0:0
64,104,33209,1,0,0:0:0
256,192,33525,5,0,0:0:0
256,192,33682,1,8,0:0:0
144,180,33840,2,0,B|128:228|156:284|200:312|244:300,1,160
304,376,34314,1,8,0:0:0
428,292,34472,6,0,B|452:256|448:204|404:168|360:168,1,160
332,256,34946,1,8,0:0:0
256,192,35103,1,0,0:0:0
164,164,35261,1,0,0:0:0
164,164,35577,1,8,0:0:0
108,68,35735,1,0,0:0:0
328,24,36051,5,0,0:0:0
208,80,36209,1,8,0:0:0
304,116,36367,2,0,B|344:140|344:184,2,80
164,164,36840,2,0,B|208:160|236:200,1,80,8|0,0:0|0:0,0:0:0
212,240,37077,1,0,0:0:0
168,260,37156,5,0,0:0:0
80,220,37314,1,0,0:0:0
80,124,37472,1,8,0:0:0
160,68,37630,1,0,0:0:0
244,116,37788,1,0,0:0:0
244,116,38103,5,8,0:0:0
320,176,38261,2,0,B|364:168|384:124,2,80
256,256,38735,1,8,0:0:0
396,228,38893,2,0,B|464:184|460:80,1,160
388,28,39367,1,8,0:0:0
244,116,39525,1,0,0:0:0
256,256,39682,6,0,B|248:212|204:200,1,80,0|0,0:0|0:0,0:0:0
132,76,39998,2,0,B|84:92|76:156,1,80,8|0,0:0|0:0,0:0:0
64,180,40235,1,0,0:0:0
68,228,40314,2,0,B|84:316|184:336,1,160,0|8,0:0|0:0,0:0:0
256,256,40788,1,0,0:0:0
436,192,41103,5,0,0:0:0
256,256,41261,1,8,0:0:0
308,120,41419,1,0,0:0:0
308,120,41498,1,0,0:0:0
308,120,41577,1,8,0:0:0
224,164,41735,1,0,0:0:0
292,344,41893,1,8,0:0:0
164,240,42051,6,0,B|112:196|136:104,1,120,4|0,0:0|0:0,0:0:0
168,48,42525,1,8,0:0:0
168,48,42840,2,0,B|216:96|288:88,1,120.000004577637,0|8,0:0|0:0,0:0:0
360,56,43314,1,0,0:0:0
360,56,43630,5,0,0:0:0
400,136,43788,1,8,0:0:0
400,228,43946,1,0,0:0:0
364,308,44103,2,0,B|332:288|320:248,2,60.0000022888184,0|0|8,0:0|0:0|0:0,0:0:0
236,268,44577,6,0,B|200:208|224:136,1,120.000004577637,4|0,0:0|0:0,0:0:0
256,68,45051,1,8,0:0:0
128,20,45209,1,0,0:0:0
164,104,45367,2,0,B|136:128|88:128,1,60.0000022888184,0|0,0:0|0:0,0:0:0
24,96,45682,1,8,0:0:0
24,96,45840,6,0,B|24:164|64:208,1,120.000004577637
128,272,46314,1,8,0:0:0
128,272,46472,1,0,0:0:0
128,272,46630,2,0,B|140:304,2,30.0000011444092
204,220,46946,2,0,B|228:244,2,30.0000011444092,8|0|0,0:0|0:0|0:0,0:0:0
256,144,47261,1,0,0:0:0
256,144,47577,1,0,0:0:0
256,144,47893,5,0,0:0:0
256,144,48051,1,0,0:0:0
256,144,48209,1,0,0:0:0
256,144,48367,1,0,0:0:0
352,152,48525,6,0,B|352:200|320:232,1,80
224,328,48840,2,0,B|172:332|136:304,1,80,8|0,0:0|0:0,0:0:0
16,248,49156,2,0,B|16:204|52:164,1,80
84,148,49393,1,0,0:0:0
132,144,49472,1,8,0:0:0
256,216,49630,1,0,0:0:0
256,72,49788,6,0,B|232:140|168:216,1,160,4|8,0:0|0:0,0:0:0
72,312,50261,2,0,B|142:298|240:316,1,160,4|0,0:0|0:0,0:0:0
400,220,50735,1,4,0:0:0
324,276,50893,1,4,0:0:0
324,276,51840,5,0,0:0:0
324,276,52156,2,0,B|308:196|212:168,1,160,4|0,0:0|0:0,0:0:0
120,164,52630,1,8,0:0:0
40,220,52788,1,0,0:0:0
120,164,52946,1,0,0:0:0
176,88,53103,1,0,0:0:0
216,169,53261,1,8,0:0:0
284,240,53419,6,0,B|376:224|412:136,1,160
324,0,53893,1,8,0:0:0
324,0,54051,2,0,B|272:68|292:160,1,160
188,252,54525,1,8,0:0:0
284,240,54682,6,0,B|316:320|416:328,1,160,0|0,0:0|0:0,0:0:0
348,196,55156,1,8,0:0:0
348,196,55314,2,0,B|260:216|240:320,1,160
112,244,55788,1,8,0:0:0
80,104,55946,1,0,0:0:0
112,244,56103,1,0,0:0:0
80,104,56261,5,0,0:0:0
160,156,56419,1,8,0:0:0
256,164,56577,2,0,B|256:112|288:72,1,80
360,40,56893,1,0,0:0:0
360,40,57051,1,8,0:0:0
444,156,57209,1,8,0:0:0
348,264,57367,6,0,B|288:328|200:296,1,160,0|8,0:0|0:0,0:0:0
64,256,57840,1,0,0:0:0
64,256,58156,1,0,0:0:0
64,112,58314,1,8,0:0:0
164,176,58472,6,0,B|176:132|224:112,2,80
264,212,58946,1,8,0:0:0
320,68,59103,1,0,0:0:0
320,68,59182,1,0,0:0:0
320,68,59261,1,0,0:0:0
416,104,59419,1,0,0:0:0
480,176,59577,1,8,0:0:0
492,272,59735,6,0,B|392:280|352:184,1,160
228,264,60209,2,0,B|144:220|140:100,1,160,8|0,0:0|0:0,0:0:0
320,68,60682,1,0,0:0:0
288,176,60840,1,8,0:0:0
228,264,60998,1,0,0:0:0
148,328,61156,6,0,B|104:328|72:288,1,80
44,204,61472,1,8,0:0:0
188,216,61630,1,0,0:0:0
188,216,61709,1,0,0:0:0
188,216,61788,1,8,0:0:0
256,88,61946,1,8,0:0:0
256,88,62261,6,0,B|304:88|336:120,2,80,4|0|0,0:0|0:0|0:0,0:0:0
188,216,62735,1,8,0:0:0
352,220,62893,2,0,B|308:220|280:188,1,80
444,196,63209,1,0,0:0:0
328,320,63367,1,8,0:0:0
188,216,63525,6,0,B|120:160|128:68,1,160
236,148,63998,1,8,0:0:0
236,148,64156,2,0,B|212:236|104:252,1,160
72,112,64630,1,8,0:0:0
122,248,64788,6,0,B|156:336|264:332,1,160
336,296,65261,1,8,0:0:0
396,220,65419,1,0,0:0:0
384,124,65577,1,0,0:0:0
324,48,65735,1,0,0:0:0
324,48,65814,1,0,0:0:0
324,48,65893,1,8,0:0:0
228,36,66051,5,0,0:0:0
68,216,66367,1,0,0:0:0
264,352,66682,1,0,0:0:0
428,176,66998,1,0,0:0:0
228,36,67314,1,0,0:0:0
181,100,67630,6,0,B|228:36,1,80,8|0,0:0|0:0,0:0:0
224,180,67946,2,0,B|270:115,1,80,8|0,0:0|0:0,0:0:0
268,260,68261,2,0,B|314:195,1,80,8|0,0:0|0:0,0:0:0
310,339,68577,6,0,B|356:274,1,80,8|0,0:0|0:0,0:0:0
270,115,68893,2,0,B|224:180,1,80,8|0,0:0|0:0,0:0:0
268,260,69209,2,0,B|314:195,1,80,8|0,0:0|0:0,0:0:0
181,100,69525,1,8,0:0:0
181,100,69603,1,0,0:0:0
181,100,69682,1,0,0:0:0
232,20,69840,1,8,0:0:0
231,19,69998,5,4,0:0:0
416,80,70314,1,0,0:0:0
416,80,70472,1,8,0:0:0
412,272,70788,1,0,0:0:0
308,172,70946,1,8,0:0:0
216,204,71103,1,8,0:0:0
308,172,71261,5,0,0:0:0
244,300,71419,1,8,0:0:0
244,300,71577,1,0,0:0:0
124,224,71735,1,0,0:0:0
308,172,71893,5,0,0:0:0
305,124,71972,1,0,0:0:0
275,86,72051,1,0,0:0:0
228,74,72130,1,0,0:0:0
184,91,72209,1,0,0:0:0
157,131,72288,1,0,0:0:0
160,179,72367,1,0,0:0:0
190,217,72446,1,0,0:0:0
237,229,72525,1,2,0:0:0
184,91,74419,5,0,0:0:0
157,131,74498,1,0,0:0:0
160,179,74577,1,0,0:0:0
190,217,74656,1,0,0:0:0
237,229,74735,1,0,0:0:0
281,212,74814,1,0,0:0:0
308,172,74893,1,0,0:0:0
305,124,74972,1,0,0:0:0
275,86,75051,6,0,B|304:52|368:48,2,80,4|0|8,0:0|0:0|0:0,0:0:0
456,124,75525,2,0,B|420:197|307:207,1,160,4|0,0:0|0:0,0:0:0
204,36,75998,1,4,0:0:0
256,192,76077,12,4,77577,0:0:0
256,188,87682,6,0,B|248:160|216:148,1,40
116,188,87998,2,0,B|122:202|146:214,1,40
148,92,88314,1,0,0:0:0
148,92,88630,1,0,0:0:0
252,32,88788,6,0,B|340:32,1,80
380,140,89261,1,0,0:0:0
380,140,89419,2,0,B|296:140,1,80
216,228,89893,1,0,0:0:0
284,328,90051,1,0,0:0:0
284,328,90367,6,0,B|316:320|328:300,2,40
216,228,90840,2,0,B|120:228,1,80
64,128,91314,1,0,0:0:0
64,128,91630,6,0,B|8:128,2,40
256,72,92261,1,0,0:0:0
256,72,92419,1,0,0:0:0
256,72,92577,1,0,0:0:0
204,180,92735,6,0,B|204:252,1,60.0000022888184,0|0,0:0|0:0,0:0:0
308,304,93051,2,0,B|308:240,1,60.0000022888184,8|0,0:0|0:0,0:0:0
412,184,93367,2,0,B|412:260,1,60.0000022888184,0|0,0:0|0:0,0:0:0
308,180,93682,2,0,B|308:108,1,60.0000022888184,8|0,0:0|0:0,0:0:0
204,180,93998,6,0,B|204:256,1,60.0000022888184
96,184,94314,2,0,B|96:116,1,60.0000022888184,8|0,0:0|0:0,0:0:0
256,56,94630,1,0,0:0:0
232,94,94709,1,0,0:0:0
227,139,94788,1,0,0:0:0
242,181,94867,1,0,0:0:0
274,212,94946,1,0,0:0:0
316,228,95025,1,0,0:0:0
362,222,95103,1,0,0:0:0
399,199,95182,1,0,0:0:0
423,161,95261,5,0,0:0:0
423,161,95893,1,0,0:0:0
423,161,96209,1,0,0:0:0
368,52,96367,2,0,B|280:68|268:172,1,160,4|0,0:0|0:0,0:0:0
256,280,96840,1,8,0:0:0
168,200,96998,1,0,0:0:0
168,200,97077,1,0,0:0:0
168,200,97156,1,0,0:0:0
112,96,97314,1,8,0:0:0
284,152,97472,1,8,0:0:0
168,200,97630,1,4,0:0:0
256,280,97788,6,0,B|304:284|328:260,2,60.0000022888184,0|0|8,0:0|0:0|0:0,0:0:0
256,280,98419,2,0,B|264:208|196:164,1,120.000004577637,0|8,0:0|0:0,0:0:0
88,120,98893,6,0,B|80:192|144:232,1,120.000004577637,0|0,0:0|0:0,0:0:0
180,96,99367,2,0,B|180:56|148:32,2,60.0000022888184,8|0|0,0:0|0:0|0:0,0:0:0
220,176,99840,1,0,0:0:0
228,264,99998,1,8,0:0:0
176,336,100156,6,0,B|112:312|100:228,1,120.000004577637
220,176,100630,1,8,0:0:0
103,246,100788,1,0,0:0:0
220,176,100946,2,0,B|208:144|216:104,1,60.0000022888184
372,32,101419,6,0,B|392:100|364:168,1,120.000004577637
308,216,101893,1,8,0:0:0
228,256,102051,1,0,0:0:0
140,268,102209,1,0,0:0:0
52,256,102367,1,0,0:0:0
52,256,102446,1,0,0:0:0
52,256,102525,1,8,0:0:0
88,172,102682,1,0,0:0:0
164,120,102840,5,0,0:0:0
164,120,103472,2,0,B|200:72,2,40.000001525879
208,188,103788,2,0,B|267:179,2,40.000001525879
204,268,104103,6,0,B|252:304,2,40.000001525879
152,328,104419,2,0,B|160:387,2,40.000001525879
72,336,104735,2,0,B|36:384,2,40.000001525879
36,264,105051,2,0,B|72:215,2,40.000001525879
0,188,105367,6,0,B|96:44,1,160,4|8,0:0|0:0,0:0:0
96,216,105840,2,0,B|192:72,1,160,4|0,0:0|0:0,0:0:0
192,244,106314,1,12,0:0:0
192,244,106472,6,0,B|288:100,1,160,8|0,0:0|0:0,0:0:0
488,32,106946,1,0,0:0:0
492,77,107025,1,0,0:0:0
469,116,107103,1,0,0:0:0
437,149,107182,1,0,0:0:0
395,165,107261,1,0,0:0:0
353,176,107340,1,0,0:0:0
310,171,107419,1,0,0:0:0
272,152,107498,1,0,0:0:0
240,124,107577,1,0,0:0:0
228,81,107656,1,0,0:0:0
188,108,107735,6,0,B|204:188|300:216,1,160,4|0,0:0|0:0,0:0:0
392,220,108209,1,8,0:0:0
472,164,108367,1,0,0:0:0
392,220,108525,1,0,0:0:0
336,296,108682,1,0,0:0:0
296,215,108840,1,8,0:0:0
228,144,108998,6,0,B|136:160|100:248,1,160
188,384,109472,1,8,0:0:0
188,384,109630,2,0,B|240:316|220:224,1,160
324,132,110103,1,8,0:0:0
228,144,110261,6,0,B|196:64|96:56,1,160,0|0,0:0|0:0,0:0:0
164,188,110735,1,8,0:0:0
164,188,110893,2,0,B|252:168|272:64,1,160
400,140,111367,1,8,0:0:0
432,280,111525,1,0,0:0:0
400,140,111682,1,0,0:0:0
432,280,111840,5,0,0:0:0
352,228,111998,1,8,0:0:0
256,220,112156,2,0,B|256:272|224:312,1,80
152,344,112472,1,0,0:0:0
152,344,112551,1,0,0:0:0
152,344,112630,1,8,0:0:0
68,228,112788,1,0,0:0:0
164,120,112946,6,0,B|224:56|312:88,1,160,0|8,0:0|0:0,0:0:0
448,128,113419,1,0,0:0:0
448,128,113735,1,0,0:0:0
448,272,113893,1,8,0:0:0
348,208,114051,6,0,B|336:252|288:272,2,80
248,172,114525,1,8,0:0:0
192,316,114682,1,0,0:0:0
192,316,114761,1,0,0:0:0
192,316,114840,1,0,0:0:0
96,280,114998,1,0,0:0:0
32,208,115156,1,8,0:0:0
20,112,115314,6,0,B|120:104|160:200,1,160
284,120,115788,2,0,B|368:164|372:284,1,160,8|0,0:0|0:0,0:0:0
192,316,116261,1,0,0:0:0
224,208,116419,1,8,0:0:0
284,120,116577,1,0,0:0:0
364,56,116735,6,0,B|408:56|440:96,1,80
468,180,117051,1,8,0:0:0
324,168,117209,1,0,0:0:0
324,168,117288,1,0,0:0:0
324,168,117367,1,8,0:0:0
256,296,117525,1,8,0:0:0
256,296,117840,6,0,B|208:296|176:264,2,80,0|0|0,0:0|0:0|0:0,0:0:0
324,168,118314,1,8,0:0:0
232,196,118472,2,0,B|204:164|160:164,1,80
68,188,118788,1,0,0:0:0
184,64,118946,1,8,0:0:0
324,168,119103,6,0,B|392:224|384:316,1,160
276,236,119577,1,8,0:0:0
276,236,119735,2,0,B|300:148|408:132,1,160
440,272,120209,1,8,0:0:0
390,136,120367,6,0,B|356:48|248:52,1,160
176,88,120840,1,8,0:0:0
116,164,120998,1,0,0:0:0
128,260,121156,1,0,0:0:0
188,336,121314,1,0,0:0:0
188,336,121393,1,0,0:0:0
188,336,121472,1,8,0:0:0
284,348,121630,5,0,0:0:0
444,168,121946,1,0,0:0:0
248,32,122261,1,0,0:0:0
84,208,122577,1,0,0:0:0
284,348,122893,1,0,0:0:0
331,284,123209,6,0,B|284:348,1,80,8|0,0:0|0:0,0:0:0
288,204,123525,2,0,B|242:269,1,80,8|0,0:0|0:0,0:0:0
244,124,123840,2,0,B|198:189,1,80,8|0,0:0|0:0,0:0:0
202,45,124156,6,0,B|156:110,1,80,8|0,0:0|0:0,0:0:0
242,269,124472,2,0,B|288:204,1,80,8|0,0:0|0:0,0:0:0
244,124,124788,2,0,B|198:189,1,80,8|0,0:0|0:0,0:0:0
331,284,125103,1,8,0:0:0
331,284,125182,1,0,0:0:0
331,284,125261,1,0,0:0:0
280,364,125419,1,8,0:0:0
281,365,125577,5,4,0:0:0
96,304,125893,1,0,0:0:0
96,304,126051,1,8,0:0:0
80,208,126209,1,0,0:0:0
100,112,126367,1,8,0:0:0
204,212,126525,1,0,0:0:0
296,184,126682,1,0,0:0:0
204,212,126840,5,0,0:0:0
268,84,126998,1,0,0:0:0
268,84,127077,1,0,0:0:0
268,84,127156,1,8,0:0:0
388,160,127314,1,0,0:0:0
204,212,127472,5,0,0:0:0
207,260,127551,1,0,0:0:0
237,298,127630,1,0,0:0:0
284,310,127709,1,0,0:0:0
328,293,127788,1,0,0:0:0
355,253,127867,1,0,0:0:0
352,205,127946,1,0,0:0:0
322,167,128025,1,0,0:0:0
275,155,128103,1,2,0:0:0
328,293,129998,5,0,0:0:0
355,253,130077,1,0,0:0:0
352,205,130156,1,0,0:0:0
322,167,130235,1,0,0:0:0
275,155,130314,1,0,0:0:0
231,172,130393,1,0,0:0:0
204,212,130472,1,0,0:0:0
207,260,130551,1,0,0:0:0
237,298,130630,6,0,B|208:332|144:336,2,80,4|0|8,0:0|0:0|0:0,0:0:0
56,260,131103,2,0,B|91:186|204:176,1,160,4|0,0:0|0:0,0:0:0
308,348,131577,1,4,0:0:0
356,252,131735,1,0,0:0:0
320,152,131893,1,0,0:0:0
216,124,132051,1,0,0:0:0
124,180,132209,1,8,0:0:0
120,288,132367,5,0,0:0:0
120,288,132446,1,0,0:0:0
120,288,132525,1,0,0:0:0
232,196,132682,1,0,0:0:0
268,336,132840,1,8,0:0:0
388,252,132998,5,0,0:0:0
388,252,133077,1,0,0:0:0
388,252,133156,2,0,B|324:192|356:80,1,160,4|8,0:0|0:0,0:0:0
276,40,133630,1,0,0:0:0
180,40,133788,2,0,B|128:52|112:104,1,80
96,132,134025,1,0,0:0:0
96,180,134103,2,0,B|136:200|156:248,1,80,8|0,0:0|0:0,0:0:0
232,356,134419,6,0,B|248:316|232:264,1,80
324,236,134735,2,0,B|308:192|260:168,1,80,8|0,0:0|0:0,0:0:0
232,148,134972,1,0,0:0:0
204,108,135051,2,0,B|184:72|196:24,2,80,0|0|8,0:0|0:0|0:0,0:0:0
224,252,135525,6,0,B|292:208|308:112,1,160
194,29,135998,1,8,0:0:0
194,29,136156,1,0,0:0:0
132,104,136314,1,0,0:0:0
132,104,136393,1,0,0:0:0
132,104,136472,1,0,0:0:0
108,196,136630,1,8,0:0:0
108,196,136709,1,0,0:0:0
108,196,136788,1,0,0:0:0
112,292,136946,5,0,0:0:0
292,200,137103,1,0,0:0:0
256,340,137261,1,8,0:0:0
220,200,137419,1,0,0:0:0
400,292,137577,1,0,0:0:0
256,340,137735,1,0,0:0:0
112,292,137893,1,8,0:0:0
256,132,138051,6,0,B|272:48|360:20,1,160
436,76,138524,1,8,0:0:0
436,76,138603,1,0,0:0:0
436,76,138682,1,0,0:0:0
352,192,138840,1,0,0:0:0
352,192,138919,1,0,0:0:0
352,192,138998,1,0,0:0:0
444,172,139156,1,8,0:0:0
352,284,139314,6,0,B|256:292|204:196,1,160
128,176,139788,2,0,B|84:148,2,40,8|0|0,0:0|0:0|0:0,0:0:0
256,108,140103,2,0,B|256:60,2,40
128,176,140419,1,8,0:0:0
256,108,140577,6,0,B|344:124|408:48,1,160
336,188,141051,2,0,B|292:204|236:184,1,80,8|0,0:0|0:0,0:0:0
106,276,141367,2,0,B|124:304|176:312,1,80
108,132,141682,2,0,B|76:100|76:56,1,80,8|0,0:0|0:0,0:0:0
220,76,141998,5,0,0:0:0
268,160,142156,1,0,0:0:0
268,160,142235,1,0,0:0:0
268,160,142314,1,8,0:0:0
348,256,142472,5,0,0:0:0
176,312,142630,1,0,0:0:0
76,208,142788,1,0,0:0:0
256,256,142946,1,8,0:0:0
308,168,143103,6,0,B|316:84|404:48,1,160,4|0,0:0|0:0,0:0:0
452,44,143498,1,0,0:0:0
500,56,143577,1,8,0:0:0
432,184,143735,1,0,0:0:0
408,92,143893,2,0,B|312:80|272:4,1,160,0|8,0:0|0:0,0:0:0
180,28,144367,1,0,0:0:0
180,28,144682,5,0,0:0:0
156,120,144840,1,8,0:0:0
168,216,144998,1,0,0:0:0
168,216,145077,1,0,0:0:0
168,216,145156,1,0,0:0:0
216,300,145314,1,0,0:0:0
304,340,145472,1,8,0:0:0
252,204,145630,6,0,B|160:184|100:256,1,160
156,120,146103,1,8,0:0:0
156,120,146261,2,0,B|208:104|260:120,1,80
340,216,146577,2,0,B|356:260|344:304,1,80,0|8,0:0|0:0,0:0:0
252,204,146893,6,0,B|320:152|328:64,1,160
412,24,147367,1,8,0:0:0
448,112,147524,1,0,0:0:0
432,208,147682,1,0,0:0:0
376,288,147840,1,0,0:0:0
376,288,147919,1,0,0:0:0
376,288,147998,1,8,0:0:0
252,204,148156,6,0,B|320:152|328:64,1,160
292,36,148551,1,0,0:0:0
244,24,148630,1,8,0:0:0
100,40,148788,1,0,0:0:0
100,40,148867,1,0,0:0:0
100,40,148946,1,0,0:0:0
156,172,149103,2,0,B|176:216,2,40,0|0|8,0:0|0:0|0:0,0:0:0
96,304,149419,5,0,0:0:0
136,332,149498,1,0,0:0:0
184,344,149577,1,0,0:0:0
328,344,149735,1,0,0:0:0
376,332,149814,1,0,0:0:0
416,304,149893,1,8,0:0:0
339,208,150051,2,0,B|356:172,2,40
412,40,150367,1,0,0:0:0
412,40,150446,1,0,0:0:0
412,40,150524,1,8,0:0:0
268,24,150682,5,0,0:0:0
220,36,150761,1,0,0:0:0
184,68,150840,2,0,B|192:152|260:204,1,160,4|8,0:0|0:0,0:0:0
400,176,151314,1,0,0:0:0
412,40,151472,1,0,0:0:0
268,24,151630,2,0,B|232:104|268:196,1,160,0|0,0:0|0:0,0:0:0
262,180,152261,5,0,0:0:0
184,268,152419,1,0,0:0:0
292,216,152577,1,0,0:0:0
172,228,152735,1,0,0:0:0
288,260,152893,1,0,0:0:0
196,184,153051,1,0,0:0:0
252,288,153209,6,0,B|228:348|148:352,1,120.000004577637,4|0,0:0|0:0,0:0:0
72,324,153682,1,8,0:0:0
52,236,153840,2,0,B|64:200|112:184,2,60.0000022888184
72,324,154314,1,8,0:0:0
188,252,154472,6,0,B|244:212|244:128,1,120.000004577637,4|0,0:0|0:0,0:0:0
256,60,154946,1,8,0:0:0
256,60,155024,1,0,0:0:0
256,60,155103,1,0,0:0:0
336,104,155261,1,0,0:0:0
368,188,155419,1,0,0:0:0
364,276,155577,1,8,0:0:0
228,292,155735,6,0,B|260:232|248:160,1,120.000004577637,4|0,0:0|0:0,0:0:0
220,140,156130,1,0,0:0:0
180,120,156209,1,8,0:0:0
116,60,156367,1,0,0:0:0
48,120,156524,1,0,0:0:0
36,208,156682,1,0,0:0:0
68,292,156840,1,8,0:0:0
144,340,156998,6,0,B|200:296,1,60.0000022888184,4|0,0:0|0:0,0:0:0
323,298,157314,2,0,B|276:336,1,60.0000022888184,0|8,0:0|0:0,0:0:0
248,212,157630,2,0,B|304:168,1,60.0000022888184
456,188,157946,2,0,B|408:225,1,60.0000022888184,0|8,0:0|0:0,0:0:0
408,64,158261,5,0,0:0:0
256,116,158419,1,2,0:0:0
256,116,160788,5,4,0:0:0
256,116,161103,1,0,0:0:0
144,208,161261,1,12,0:0:0
256,116,161419,1,0,0:0:0
144,208,161577,1,4,0:0:0
72,332,161735,1,0,0:0:0
144,208,161893,1,8,0:0:0
212,368,162051,6,0,B|252:308|340:316,1,120.000004577637,4|0,0:0|0:0,0:0:0
352,316,162446,1,0,0:0:0
396,304,162524,1,0,0:0:0
432,276,162603,1,0,0:0:0
452,236,162682,1,0,0:0:0
448,192,162761,1,0,0:0:0
436,148,162840,1,4,0:0:0
400,116,162919,1,0,0:0:0
356,104,162998,1,0,0:0:0
356,104,163314,6,0,B|320:32|208:40,1,160,4|0,0:0|0:0,0:0:0
84,88,163788,1,8,0:0:0
172,128,163946,2,0,B|200:160|248:164,1,80
329,243,164261,2,0,B|296:264|252:260,1,80,0|8,0:0|0:0,0:0:0
356,104,164577,6,0,B|444:120|480:208,1,160
412,272,165051,1,8,0:0:0
332,220,165209,2,0,B|300:192|296:144,2,80
412,272,165682,1,8,0:0:0
252,260,165840,6,0,B|168:224|160:116,1,160
236,12,166314,1,8,0:0:0
236,12,166393,1,0,0:0:0
236,12,166472,1,0,0:0:0
296,88,166630,1,0,0:0:0
236,164,166788,1,0,0:0:0
252,260,166946,1,8,0:0:0
344,284,167103,5,0,0:0:0
108,320,167419,1,0,0:0:0
116,80,167735,1,0,0:0:0
352,44,168051,1,0,0:0:0
344,284,168367,1,0,0:0:0
344,284,168682,5,8,0:0:0
256,244,168840,1,0,0:0:0
400,224,168998,1,8,0:0:0
312,184,169156,1,0,0:0:0
456,164,169314,1,8,0:0:0
368,124,169472,1,0,0:0:0
512,104,169630,5,8,0:0:0
424,64,169788,1,0,0:0:0
312,184,169946,1,8,0:0:0
400,224,170103,1,0,0:0:0
456,164,170261,1,8,0:0:0
368,124,170419,1,0,0:0:0
256,244,170577,1,8,0:0:0
300,264,170656,1,0,0:0:0
344,284,170735,2,0,B|428:320,1,80,0|8,0:0|0:0,0:0:0
224,332,171051,6,0,B|168:304|152:228,1,120,0|0,0:0|0:0,0:0:0
88,196,171367,2,0,B|116:164|116:104,1,80,8|0,0:0|0:0,0:0:0
176,48,171682,1,0,0:0:0
176,48,171761,1,0,0:0:0
176,48,171840,1,0,0:0:0
256,168,171998,1,8,0:0:0
256,168,172077,1,0,0:0:0
256,168,172156,1,0,0:0:0
336,48,172314,5,0,0:0:0
396,122,172472,1,0,0:0:0
396,122,172551,1,0,0:0:0
396,122,172630,1,8,0:0:0
252,248,172788,1,0,0:0:0
340,212,172946,1,0,0:0:0
340,212,173024,1,0,0:0:0
340,212,173103,1,0,0:0:0
256,84,173261,5,8,0:0:0
108,168,173419,1,0,0:0:0
256,84,173577,5,2,0:0:0
256,84,173893,1,0,0:0:0
172,132,174051,1,2,0:0:0
256,84,174367,1,0,0:0:0
164,224,174524,1,2,0:0:0
256,84,175472,5,0,0:0:0
297,115,175551,1,0,0:0:0
321,161,175630,1,0,0:0:0
322,213,175709,1,0,0:0:0
301,261,175788,1,0,0:0:0
261,294,175867,1,0,0:0:0
210,307,175946,1,0,0:0:0
159,297,176024,1,0,0:0:0
118,265,176103,6,0,B|88:204|120:144,1,120,4|0,0:0|0:0,0:0:0
142,115,176419,1,8,0:0:0
369,115,176577,2,0,B|428:180|394:265,1,160
256,192,177051,1,4,0:0:0
256,192,177130,12,4,178630,0:0:0
