osu file format v10

[General]
AudioFilename: No Pain, No Game by Nano.mp3
AudioLeadIn: 0
PreviewTime: 51840
Countdown: 0
SampleSet: Normal
StackLeniency: 0.7
Mode: 0
LetterboxInBreaks: 0

[Editor]
DistanceSpacing: 1.3
BeatDivisor: 4
GridSize: 4

[Metadata]
Title:No pain, No game
TitleUnicode:No pain, No game
Artist:nano
ArtistUnicode:nano
Creator:tutuhaha
Version:AngelHoney
Source:BTOOOM!
Tags:AngelHoney kemu
BeatmapID:180423
BeatmapSetID:60214

[Difficulty]
HPDrainRate:7
CircleSize:5
OverallDifficulty:7
ApproachRate:9
SliderMultiplier:2.2
SliderTickRate:1

[Events]
//Background and Video events
0,0,"30169269_m.jpg"
Video,0,"no pain no game.avi"
//Break Periods
2,17146,21082
2,72567,73819
2,87882,92135
2,103040,104767
2,127988,129398
2,158461,160188
2,173461,174872
//Storyboard Layer 0 (Background)
//Storyboard Layer 1 (Fail)
//Storyboard Layer 2 (Pass)
//Storyboard Layer 3 (Foreground)
//Storyboard Sound Samples
//Background Colour Transformations
3,100,163,162,255

[TimingPoints]
525,315.789473684211,4,1,1,60,1,0
21998,-100,4,1,1,60,0,1
22077,-100,4,1,1,60,0,0
47261,-133.333333333333,4,1,1,40,0,0
48525,-100,4,1,1,50,0,0
49788,-100,4,1,1,60,0,0
51051,-100,4,1,1,20,0,0
51840,-100,4,1,1,60,0,0
52156,-100,4,1,1,60,0,1
52235,-100,4,1,1,60,0,0
61946,-117.647058823529,4,1,1,60,0,0
62261,-100,4,1,1,60,0,1
62340,-100,4,1,1,60,0,0
66051,-100,4,1,1,80,0,0
67709,-100,4,1,1,60,0,0
77577,-100,4,1,1,60,0,1
77656,-100,4,1,1,60,0,0
87682,-100,4,1,2,40,0,0
87998,-100,4,1,1,60,0,0
95261,-100,4,1,1,70,0,0
96367,-100,4,1,1,80,0,0
97472,-100,4,1,1,60,0,0
102840,-100,4,1,2,40,0,0
103156,-100,4,1,1,60,0,0
106630,-100,4,1,1,5,0,0
106709,-100,4,1,1,60,0,0
107735,-100,4,1,1,60,0,1
107814,-100,4,1,1,60,0,0
117840,-117.647058823529,4,1,1,60,0,1
117919,-100,4,1,1,60,0,0
121630,-100,4,1,1,80,0,0
123288,-100,4,1,1,60,0,0
123761,-100,4,1,1,65,0,0
124235,-100,4,1,1,70,0,0
124867,-100,4,1,1,75,0,0
125498,-100,4,1,1,80,0,0
132998,-100,4,1,1,60,0,1
133077,-100,4,1,1,60,0,0
153051,-100,4,1,1,5,0,0
153130,-133.333333333333,4,1,1,60,0,0
160630,-100,4,1,1,60,0,0
162998,-117.647058823529,4,1,1,60,0,0
163314,-117.647058823529,4,1,1,60,0,1
163393,-100,4,1,1,60,0,0
167103,-100,4,1,1,80,0,0
168761,-100,4,1,1,60,0,0
178630,-100,4,1,1,60,0,1
178709,-100,4,1,1,60,0,0

[Colours]
Combo1 : 248,211,171
Combo2 : 171,252,203
Combo3 : 175,221,254
Combo4 : 249,254,186
Combo5 : 240,80,80

[HitObjects]
112,104,13788,2,0,B|88:84|52:76,3,55
96,168,14103,2,0,B|68:168|32:156,3,55
72,232,14419,2,0,B|108:288|168:320|244:296|292:236,1,220,4|0,0:0|0:0,0:0:0
376,96,14893,2,0,B|340:40|280:8|204:32|156:92,1,220,4|0,0:0|0:0,0:0:0
416,256,15367,1,4,0:0:0
256,192,15525,12,0,16946,0:0:0
88,112,21682,5,0,0:0:0
88,112,21761,1,0,0:0:0
88,112,21840,1,0,0:0:0
88,112,21919,1,0,0:0:0
88,112,21998,6,0,B|72:168|72:168|104:240,1,110,4|0,0:0|0:0,0:0:0
224,264,22314,1,8,0:0:0
224,264,22472,2,0,B|240:208|240:208|208:136,1,110
296,64,22788,1,0,0:0:0
448,120,22946,2,0,B|392:144|392:144|376:200,1,110,8|0,0:0|0:0,0:0:0
480,296,23261,5,0,0:0:0
488,328,23419,1,0,0:0:0
336,280,23577,1,0,0:0:0
344,312,23735,1,0,0:0:0
180,256,23893,1,0,0:0:0
188,288,24051,1,0,0:0:0
36,232,24209,1,0,0:0:0
44,264,24367,1,0,0:0:0
112,128,24525,6,0,B|168:112|168:112|208:72,1,110
360,40,24840,1,8,0:0:0
360,40,24998,2,0,B|352:96|352:96|384:160,1,110
216,200,25314,1,0,0:0:0
216,200,25472,2,0,B|264:208|264:208|312:280,1,110,8|0,0:0|0:0,0:0:0
448,288,25788,5,0,0:0:0
480,272,25946,1,0,0:0:0
328,208,26103,1,0,0:0:0
360,192,26261,1,0,0:0:0
200,112,26419,1,0,0:0:0
232,96,26577,1,0,0:0:0
80,24,26735,2,0,B|56:56|56:56|64:80|64:80|48:144,1,110
48,144,26972,1,0,0:0:0
42,166,27051,6,0,B|154:150,1,110,4|0,0:0|0:0,0:0:0
272,208,27367,1,8,0:0:0
96,336,27525,2,0,B|208:312,1,110
368,184,27840,1,0,0:0:0
40,72,27998,2,0,B|176:88,1,110,8|0,0:0|0:0,0:0:0
448,88,28314,5,0,0:0:0
448,88,28472,2,0,B|488:152|464:224,1,110
256,264,28788,2,0,B|216:200|240:128,1,110
320,56,29103,1,0,0:0:0
136,168,29261,2,0,B|96:208|0:200,1,110
88,336,29577,5,0,0:0:0
208,296,29735,1,0,0:0:0
320,144,29893,2,0,B|352:272,1,110,8|0,0:0|0:0,0:0:0
480,80,30209,1,0,0:0:0
440,224,30367,1,0,0:0:0
224,64,30525,1,8,0:0:0
256,208,30682,1,0,0:0:0
16,160,30840,6,0,B|72:128|128:144,1,110
192,312,31156,2,0,B|136:344|80:328,1,110
312,168,31472,1,0,0:0:0
464,128,31630,1,0,0:0:0
464,128,31709,1,0,0:0:0
464,128,31788,1,0,0:0:0
384,296,31946,1,0,0:0:0
136,232,32103,6,0,B|184:271|255:257|304:218|299:151,1,220,4|8,0:0|0:0,0:0:0
264,40,32577,1,0,0:0:0
176,120,32735,2,0,B|127:80|56:94|7:133|12:200,1,220,0|8,0:0|0:0,0:0:0
168,272,33209,2,0,B|181:210|232:176|309:178|346:234,1,220
464,264,33682,2,0,B|468:321|419:360|348:374|299:334,1,220,8|0,0:0|0:0,0:0:0
216,208,34156,1,0,0:0:0
216,208,34314,2,0,B|208:248|208:248|176:280|176:280|160:320,1,110,8|0,0:0|0:0,0:0:0
48,200,34630,5,0,0:0:0
112,80,34788,1,0,0:0:0
240,152,34946,1,8,0:0:0
360,80,35103,1,0,0:0:0
496,208,35261,2,0,B|408:192|408:192|408:208|408:208|328:192|328:192|264:208,1,220,0|8,0:0|0:0,0:0:0
136,312,35735,2,0,B|224:328|224:328|224:312|224:312|304:328|304:328|368:312,1,220
152,184,36209,1,8,0:0:0
336,64,36367,2,0,B|280:40|280:40|248:64|248:64|224:56|224:56|120:96,1,220
40,296,36840,2,0,B|160:248,1,110,8|0,0:0|0:0,0:0:0
320,176,37156,5,0,0:0:0
288,320,37314,1,0,0:0:0
456,256,37472,2,0,B|456:312|392:368,1,110,8|0,0:0|0:0,0:0:0
160,336,37788,2,0,B|104:304|80:240|96:176|152:136,1,220,0|8,0:0|0:0,0:0:0
384,48,38261,2,0,B|440:80|464:144|448:208|392:248,1,220
256,136,38735,2,0,B|190:117|190:117|144:144|144:144|8:104,2,220,8|0|8,0:0|0:0|0:0,0:0:0
72,256,39525,1,0,0:0:0
224,256,39682,6,0,B|256:312|256:312|248:376,1,110
488,208,39998,2,0,B|456:160|456:160|464:88,1,110,8|0,0:0|0:0,0:0:0
272,64,40314,2,0,B|312:120|312:120|312:160|312:160|384:272,1,220,0|8,0:0|0:0,0:0:0
128,320,40788,2,0,B|104:256|104:256|56:224|56:224|64:120,1,220
264,112,41261,1,0,0:0:0
264,112,41340,1,0,0:0:0
264,112,41419,1,0,0:0:0
264,112,41498,1,0,0:0:0
264,112,41577,1,0,0:0:0
264,112,41656,1,0,0:0:0
264,112,41735,1,0,0:0:0
264,112,41814,1,0,0:0:0
264,112,41893,1,0,0:0:0
264,112,41972,1,0,0:0:0
264,112,42051,6,0,B|160:88|24:96,1,220,4|0,0:0|0:0,0:0:0
152,320,42525,2,0,B|256:344|392:336,2,220,0|8|0,0:0|0:0|0:0,0:0:0
176,128,43314,2,0,B|176:248|224:352,1,220
448,272,43788,2,0,B|448:152|400:48,1,220,0|8,0:0|0:0,0:0:0
48,208,44419,1,0,0:0:0
48,208,44577,6,0,B|88:264|144:264|208:240|216:168,1,220,0|8,0:0|0:0,0:0:0
472,176,45051,2,0,B|431:173|408:168|392:152|368:120,1,110
448,304,45367,2,0,B|408:240|344:232|288:256|256:328,1,220,8|0,0:0|0:0,0:0:0
48,272,45840,2,0,B|24:152|104:32,1,220,0|8,0:0|0:0,0:0:0
360,32,46314,2,0,B|402:146|342:277,1,220,0|8,0:0|0:0,0:0:0
334,279,46709,1,0,0:0:0
306,307,46788,1,0,0:0:0
269,329,46867,1,0,0:0:0
228,328,46946,1,0,0:0:0
200,300,47025,1,0,0:0:0
185,262,47103,1,0,0:0:0
195,220,47182,1,0,0:0:0
208,184,47261,6,0,B|120:184,1,82.5000031471254
160,48,47577,2,0,B|248:104,1,82.5000031471254
392,48,47893,2,0,B|304:104,1,82.5000031471254
382,164,48209,2,0,B|464:164,1,82.5000031471254
392,336,48525,6,0,B|320:240,1,110
72,336,48840,2,0,B|192:336,1,110
184,192,49156,2,0,B|264:104,1,110
128,64,49472,2,0,B|16:64,1,110
32,224,49788,5,4,0:0:0
264,288,49946,2,0,B|208:320|104:304,1,110
296,120,50261,1,0,0:0:0
296,120,50419,2,0,B|352:88|432:96,1,110
440,336,50735,2,0,B|392:296|384:232,1,110
256,192,51051,12,0,51840,0:0:0
72,264,52156,6,0,B|128:312|184:312|240:280|256:208,1,220,4|0,0:0|0:0,0:0:0
176,104,52630,1,8,0:0:0
480,128,52788,2,0,B|456:64|408:40|344:48|304:96,1,220,0|0,0:0|0:0,0:0:0
112,40,53261,2,0,B|64:80|56:144|96:208|176:208,1,220,8|0,0:0|0:0,0:0:0
288,168,53735,1,0,0:0:0
488,336,53893,2,0,B|472:272|424:240|352:240|312:296,1,220,8|0,0:0|0:0,0:0:0
176,360,54367,1,0,0:0:0
32,160,54525,2,0,B|56:168|72:184|88:216|72:256,1,110,8|0,0:0|0:0,0:0:0
256,32,54840,6,0,B|200:72|184:128|208:184|272:208,1,220,0|8,0:0|0:0,0:0:0
200,336,55314,2,0,B|256:304|256:304|424:336,1,220
496,216,55788,1,8,0:0:0
408,104,55946,2,0,B|352:136|352:136|184:104,1,220
48,72,56419,1,8,0:0:0
8,264,56577,2,0,B|48:240|48:240|136:256|136:256|248:224,1,220
392,192,57051,1,8,0:0:0
192,120,57209,1,0,0:0:0
488,48,57367,6,0,B|448:88|448:88|432:160,1,110
288,304,57682,1,8,0:0:0
288,304,57840,2,0,B|240:288|240:288|128:304|128:304|56:280,1,220
200,176,58314,1,8,0:0:0
328,88,58472,2,0,B|240:40|240:40|96:56,1,220
24,176,58946,1,8,0:0:0
120,296,59103,2,0,B|224:248|224:248|360:288,1,220
488,296,59577,1,8,0:0:0
480,64,59735,2,0,B|432:128|432:128|368:136|368:136|312:192,1,220
208,128,60209,6,0,B|168:88|88:80,1,110,8|0,0:0|0:0,0:0:0
80,256,60525,2,0,B|24:296|16:352,1,110,8|0,0:0|0:0,0:0:0
272,304,60840,2,0,B|344:304|392:240,1,110,8|0,0:0|0:0,0:0:0
456,160,61156,1,8,0:0:0
368,72,61314,1,0,0:0:0
248,112,61472,1,8,0:0:0
120,80,61630,1,8,0:0:0
120,80,61709,1,0,0:0:0
120,80,61788,1,8,0:0:0
184,232,61946,6,0,B|128:272|128:272|56:248|56:248|-8:264,2,187.000003566742,0|4|0,0:0|0:0|0:0,0:0:0
448,80,62735,2,0,B|384:104|384:104|312:80|312:80|232:96,1,220,8|0,0:0|0:0,0:0:0
288,256,63209,2,0,B|368:272|368:272|416:312|416:312|496:328,2,220,8|0|0,0:0|0:0|0:0,0:0:0
80,224,63998,1,8,0:0:0
240,96,64156,2,0,B|336:112|336:112|384:88|384:88|488:80,1,220
480,216,64630,1,8,0:0:0
368,312,64788,6,0,B|320:288|320:288|216:312|216:312|144:296,1,220,8|0,0:0|0:0,0:0:0
56,144,65261,1,8,0:0:0
56,144,65419,2,0,B|200:168|200:168|288:144,2,220,8|8|0,0:0|0:0|0:0,0:0:0
440,224,66367,1,0,0:0:0
80,288,66682,1,0,0:0:0
480,296,66998,1,0,0:0:0
40,216,67314,1,0,0:0:0
488,168,67630,1,0,0:0:0
424,80,67788,5,0,0:0:0
408,56,67946,1,0,0:0:0
296,72,68103,1,0,0:0:0
280,48,68261,1,0,0:0:0
168,64,68419,1,0,0:0:0
152,40,68577,1,0,0:0:0
40,56,68735,1,0,0:0:0
24,32,68893,1,0,0:0:0
80,192,69051,5,0,0:0:0
80,192,69209,1,0,0:0:0
168,336,69367,1,0,0:0:0
168,336,69525,1,0,0:0:0
280,104,69682,1,0,0:0:0
280,104,69840,1,0,0:0:0
392,320,69998,1,0,0:0:0
392,320,70156,1,0,0:0:0
480,176,70314,5,0,0:0:0
480,176,70472,1,0,0:0:0
320,248,70630,1,0,0:0:0
320,248,70788,1,0,0:0:0
192,96,70946,1,4,0:0:0
192,96,71103,1,0,0:0:0
40,248,71261,1,0,0:0:0
40,248,71419,1,4,0:0:0
0,80,71577,5,0,0:0:0
136,176,71735,1,0,0:0:0
160,192,71814,1,0,0:0:0
192,200,71893,1,0,0:0:0
224,200,71972,1,0,0:0:0
248,184,72051,1,0,0:0:0
272,168,72130,1,0,0:0:0
304,160,72209,1,0,0:0:0
336,160,72288,1,0,0:0:0
360,176,72367,1,0,0:0:0
112,216,74419,6,0,B|144:160,3,55
176,256,74735,2,0,B|144:320,3,55
248,296,75051,2,0,B|320:280|368:224|352:152|312:96,1,220,4|0,0:0|0:0,0:0:0
168,48,75525,2,0,B|96:64|48:120|64:192|104:248,1,220,4|0,0:0|0:0,0:0:0
400,232,75998,1,4,0:0:0
256,192,76156,12,0,76946,0:0:0
120,196,77577,6,0,B|164:160|164:160|184:84,1,110,4|0,0:0|0:0,0:0:0
432,104,77893,2,0,B|376:96|376:96|320:128,1,110,8|0,0:0|0:0,0:0:0
240,264,78209,1,0,0:0:0
384,232,78367,2,0,B|424:280|424:280|432:344,1,110,0|8,0:0|0:0,0:0:0
136,308,78682,1,0,0:0:0
48,144,78840,5,0,0:0:0
64,112,78998,1,0,0:0:0
200,128,79156,1,0,0:0:0
216,96,79314,1,0,0:0:0
344,112,79472,1,0,0:0:0
360,80,79630,1,0,0:0:0
488,104,79788,1,0,0:0:0
504,72,79946,1,0,0:0:0
424,248,80103,6,0,B|376:280|376:280|296:264,1,110
104,200,80419,1,8,0:0:0
244,56,80577,2,0,B|284:96|284:96|292:160,1,110
228,316,80893,1,0,0:0:0
464,332,81051,2,0,B|416:300|416:300|392:236,1,110,8|0,0:0|0:0,0:0:0
196,216,81367,5,0,0:0:0
196,216,81525,1,0,0:0:0
404,144,81682,1,0,0:0:0
404,144,81840,1,0,0:0:0
152,324,81998,1,0,0:0:0
120,128,82156,1,0,0:0:0
136,104,82235,1,0,0:0:0
168,88,82314,1,0,0:0:0
200,80,82393,1,0,0:0:0
232,88,82472,1,0,0:0:0
256,112,82551,1,0,0:0:0
272,144,82630,6,0,B|240:200|144:208,1,110,4|0,0:0|0:0,0:0:0
24,160,82946,1,8,0:0:0
172,56,83103,2,0,B|212:16|284:8,1,110
448,80,83419,1,0,0:0:0
400,280,83577,2,0,B|360:320|280:312,1,110,8|0,0:0|0:0,0:0:0
128,264,83893,5,0,0:0:0
128,264,84051,1,0,0:0:0
400,136,84209,1,0,0:0:0
400,136,84367,1,0,0:0:0
88,88,84525,1,0,0:0:0
200,260,84682,1,0,0:0:0
316,148,84840,1,0,0:0:0
484,232,84998,1,0,0:0:0
472,268,85077,1,0,0:0:0
456,296,85156,6,0,B|400:320|400:320|312:304,1,110
136,256,85472,1,8,0:0:0
316,132,85630,1,0,0:0:0
128,40,85788,2,0,B|136:96|136:96|88:160,1,110,0|8,0:0|0:0,0:0:0
424,192,86103,2,0,B|408:136|408:136|440:72,1,110,8|0,0:0|0:0,0:0:0
256,64,86419,5,8,0:0:0
256,64,86577,1,0,0:0:0
208,248,86735,1,8,0:0:0
208,248,86893,1,0,0:0:0
32,136,87051,1,8,0:0:0
56,112,87130,1,0,0:0:0
88,96,87209,1,0,0:0:0
120,88,87288,1,0,0:0:0
152,96,87367,1,8,0:0:0
184,104,87446,1,0,0:0:0
216,112,87525,1,0,0:0:0
248,104,87603,1,0,0:0:0
264,80,87682,5,4,0:0:0
256,192,92735,12,0,94314,0:0:0
144,280,94630,6,0,B|152:208,3,55
224,248,94946,2,0,B|232:184,3,55
296,272,95261,5,0,0:0:0
448,152,95419,1,0,0:3:0
264,160,95577,1,0,0:0:0
416,264,95735,1,0,0:3:0
352,84,95893,1,0,0:0:0
64,192,96209,1,0,0:0:0
64,192,96367,5,4,0:0:0
448,152,96682,1,4,0:0:0
48,96,96998,1,4,0:0:0
488,280,97314,1,4,0:0:0
72,320,97630,6,0,B|128:344|192:328|224:264|200:208,1,220,4|0,0:0|0:0,0:0:0
80,152,98103,2,0,B|88:88|144:56|208:48|264:104,2,220,0|8|0,0:0|0:0|0:0,0:0:0
200,208,98893,2,0,B|240:256|304:264|360:224|360:152,1,220,0|8,0:0|0:0,0:0:0
504,264,99367,2,0,B|440:24,1,220,0|8,0:0|0:0,0:0:0
56,80,99998,5,0,0:0:0
56,80,100156,2,0,B|120:320,1,220
192,376,100630,2,0,B|256:336|208:240,1,110
184,96,100946,2,0,B|176:160|216:208|280:208|320:184|336:152,1,220,8|0,0:0|0:0,0:0:0
488,320,101419,2,0,B|488:256|432:224|360:224|328:280,1,220,0|8,0:0|0:0,0:0:0
224,248,101893,2,0,B|224:312|176:352|112:352|64:288,2,220,0|8|0,0:0|0:0|0:0,0:0:0
184,152,102682,1,0,0:0:0
80,160,102840,5,4,0:0:0
256,192,105367,12,0,106630,0:0:0
384,272,106788,5,0,0:0:0
384,272,106867,1,0,0:0:0
384,272,106946,1,0,0:0:0
384,272,107025,1,0,0:0:0
384,272,107103,1,0,0:0:0
384,272,107182,1,0,0:0:0
384,272,107261,1,0,0:0:0
384,272,107340,1,0,0:0:0
384,272,107419,1,0,0:0:0
384,272,107498,1,0,0:0:0
384,272,107577,1,0,0:0:0
384,272,107656,1,0,0:0:0
384,272,107735,6,0,B|416:224|416:224|384:112|384:112|424:48,1,220,4|0,0:0|0:0,0:0:0
248,24,108209,1,8,0:0:0
80,160,108367,2,0,B|128:168|128:168|248:128|248:128|304:136,2,220,0|8|0,0:0|0:0|0:0,0:0:0
464,264,109314,1,0,0:0:0
464,264,109472,2,0,B|408:240|408:240|248:280,1,220,8|0,0:0|0:0,0:0:0
72,232,109946,2,0,B|192:200,1,110,0|8,0:0|0:0,0:0:0
280,96,110261,6,0,B|216:80|216:80|48:120,1,220
32,312,110735,1,8,0:0:0
32,312,110893,2,0,B|72:320|72:320|208:280|208:280|264:296,1,220
376,336,111367,1,8,0:0:0
472,152,111525,2,0,B|384:208|384:208|256:192,1,220
96,104,111998,2,0,B|192:56|192:56|320:72,1,220,8|0,0:0|0:0,0:0:0
192,248,112472,2,0,B|256:264|256:264|312:224|312:224|416:192,1,220,8|0,0:0|0:0,0:0:0
496,56,112946,6,0,B|496:112|496:112|464:176,1,110
344,88,113261,2,0,B|216:72|216:72|184:96|184:96|128:88,1,220,8|0,0:0|0:0,0:0:0
16,192,113735,1,0,0:0:0
200,200,113893,2,0,B|160:272|160:272|224:296|224:296|256:376,1,220,8|0,0:0|0:0,0:0:0
400,360,114367,1,0,0:0:0
464,240,114525,1,8,0:0:0
328,176,114682,2,0,B|424:128|424:128|408:80|408:80|456:16,1,220
296,32,115156,1,0,0:0:0
224,136,115314,6,0,B|-16:96,1,220,4|0,0:0|0:0,0:0:0
64,248,115788,2,0,B|304:288,1,220,8|8,0:0|0:0,0:0:0
352,112,116261,2,0,B|376:232,1,110,0|8,0:0|0:0,0:0:0
472,128,116577,2,0,B|496:248,1,110,0|8,0:0|0:0,0:0:0
272,288,116893,2,0,B|248:168,1,110,0|8,0:0|0:0,0:0:0
32,136,117209,1,0,0:0:0
32,136,117288,1,0,0:0:0
32,136,117367,2,0,B|160:104,2,110,8|8|0,0:0|0:0|0:0,0:0:0
48,256,117840,6,0,B|88:224|88:224|144:248|144:248|240:224,1,187.000003566742,4|0,0:0|0:0,0:0:0
168,360,118314,2,0,B|384:304,1,220,8|0,0:0|0:0,0:0:0
480,152,118788,1,0,0:0:0
480,152,118946,2,0,B|240:216,1,220,8|0,0:0|0:0,0:0:0
56,144,119419,2,0,B|112:176|176:168|224:136|224:64,1,220,8|0,0:0|0:0,0:0:0
320,8,119893,2,0,B|352:128,1,110,8|0,0:0|0:0,0:0:0
296,232,120209,1,8,0:0:0
296,232,120367,2,0,B|312:296|368:328|432:312|464:256,1,220
392,160,120840,2,0,B|376:96|328:64|256:72|224:136,1,220,8|0,0:0|0:0,0:0:0
120,216,121314,1,0,0:0:0
144,244,121393,1,0,0:0:0
152,284,121472,1,0,0:0:0
136,324,121551,1,0,0:0:0
104,340,121630,5,0,0:0:0
440,264,121946,1,0,0:0:0
48,200,122261,1,0,0:0:0
424,96,122577,1,0,0:0:0
112,40,122893,1,0,0:0:0
360,336,123209,1,0,0:0:0
440,264,123367,5,0,0:0:0
440,264,123525,1,0,0:0:0
320,192,123682,1,0,0:0:0
320,192,123840,1,0,0:0:0
184,256,123998,1,0,0:0:0
184,256,124156,1,0,0:0:0
88,152,124314,1,0,0:0:0
88,152,124472,1,0,0:0:0
8,288,124630,1,0,0:0:0
8,288,124788,1,0,0:0:0
168,120,124946,1,0,0:0:0
168,120,125103,1,0,0:0:0
288,320,125261,1,0,0:0:0
288,320,125419,1,0,0:0:0
424,120,125577,6,0,B|336:224|192:144,1,220,12|0,0:0|0:0,0:0:0
16,296,126051,2,0,B|104:192|248:272,1,220,12|0,0:0|0:0,0:0:0
464,288,126525,2,0,B|336:232|256:360,1,220,12|0,0:0|0:0,0:0:0
136,352,126998,1,8,0:0:0
64,216,127156,1,0,0:0:0
96,232,127235,1,0,0:0:0
128,237,127314,1,0,0:0:0
160,224,127393,1,0,0:0:0
184,200,127472,1,0,0:0:0
200,168,127551,1,0,0:0:0
224,144,127630,1,0,0:0:0
256,136,127709,1,0,0:0:0
288,144,127788,1,0,0:0:0
104,144,129998,6,0,B|184:128,3,55
208,192,130314,2,0,B|152:208,3,55
248,128,130630,2,0,B|472:80,1,220,4|0,0:0|0:0,0:0:0
240,272,131103,2,0,B|16:320,1,220,4|0,0:0|0:0,0:0:0
408,232,131577,1,4,0:0:0
256,192,131735,12,0,132525,0:0:0
64,104,132998,6,0,B|96:152|160:160|224:136|232:64,1,220,4|0,0:0|0:0,0:0:0
488,200,133472,2,0,B|480:136|424:112|352:112|312:168,1,220,8|0,0:0|0:0,0:0:0
224,256,133946,1,0,0:0:0
224,256,134103,1,8,0:0:0
224,256,134261,2,0,B|176:32,1,220
72,112,134735,2,0,B|120:336,1,220,8|0,0:0|0:0,0:0:0
224,368,135209,1,0,0:0:0
328,328,135367,1,8,0:0:0
328,328,135525,6,0,B|307:268|322:212|369:166|454:179,1,220
432,296,135998,2,0,B|240:144,1,220,8|0,0:0|0:0,0:0:0
72,224,136472,2,0,B|136:200|152:120,1,110,0|8,0:0|0:0,0:0:0
160,16,136788,2,0,B|224:144|384:48,1,220
512,192,137261,2,0,B|408:88|296:216,1,220,8|0,0:0|0:0,0:0:0
256,280,137735,1,0,0:0:0
144,312,137893,1,8,0:0:0
32,280,138051,6,0,B|16:168|16:168|64:48,1,220
176,8,138524,2,0,B|192:120|192:120|144:240,1,220,8|0,0:0|0:0,0:0:0
104,352,138998,1,0,0:0:0
240,304,139156,2,0,B|360:280,1,110,8|0,0:0|0:0,0:0:0
456,64,139630,1,0,0:0:0
456,64,139788,2,0,B|376:168|224:96,1,220,8|0,0:0|0:0,0:0:0
144,56,140261,1,0,0:0:0
144,56,140340,1,0,0:0:0
144,56,140419,6,0,B|168:184,1,110,8|0,0:0|0:0,0:0:0
464,328,140893,1,0,0:0:0
464,328,141051,2,0,B|400:208|248:280,1,220,8|8,0:0|0:0,0:0:0
176,328,141524,1,0,0:0:0
176,328,141682,2,0,B|144:88,1,220,8|8,0:0|0:0,0:0:0
48,48,142156,1,0,0:0:0
48,48,142235,1,0,0:0:0
48,48,142314,1,8,0:0:0
256,160,142472,1,0,0:0:0
256,160,142551,1,0,0:0:0
256,160,142630,1,8,0:0:0
80,288,142788,1,8,0:0:0
280,352,142946,1,8,0:0:0
176,328,143103,6,0,B|216:264|216:208|192:160|128:104,1,220,4|0,0:0|0:0,0:0:0
16,192,143577,2,0,B|120:272|240:160,1,220,8|0,0:0|0:0,0:0:0
304,96,144051,1,0,0:0:0
416,112,144209,1,8,0:0:0
464,208,144367,2,0,B|240:192,1,220
56,304,144840,2,0,B|280:320,1,220,8|0,0:0|0:0,0:0:0
448,320,145314,2,0,B|416:256|320:240,1,110,0|8,0:0|0:0,0:0:0
448,152,145630,6,0,B|360:72|192:120,1,220
88,72,146103,2,0,B|160:280,1,220,8|0,0:0|0:0,0:0:0
56,344,146577,2,0,B|8:208,1,110,0|8,0:0|0:0,0:0:0
122,171,146893,2,0,B|170:203|242:211|298:171|306:107,1,220
408,40,147367,2,0,B|432:152,1,110,8|0,0:0|0:0,0:0:0
376,312,147682,2,0,B|312:216,1,110
96,216,147998,2,0,B|192:272,1,110,8|0,0:0|0:0,0:0:0
220,48,148472,5,0,0:0:0
252,56,148551,1,0,0:0:0
276,80,148630,1,8,0:0:0
276,112,148709,1,0,0:0:0
252,136,148788,1,0,0:0:0
220,152,148867,1,0,0:0:0
188,152,148946,2,0,B|132:160|76:208,1,110
368,336,149261,5,8,0:0:0
400,320,149340,1,0,0:0:0
424,288,149419,1,0,0:0:0
432,248,149498,1,0,0:0:0
416,208,149577,1,0,0:0:0
384,184,149656,1,0,0:0:0
344,176,149735,1,0,0:0:0
304,184,149814,1,0,0:0:0
272,208,149893,1,8,0:0:0
248,240,149972,1,0,0:0:0
216,256,150051,1,0,0:0:0
176,248,150130,1,0,0:0:0
152,224,150209,1,8,0:0:0
136,184,150288,1,0,0:0:0
144,144,150367,1,0,0:0:0
176,120,150446,1,0,0:0:0
216,112,150524,1,8,0:0:0
248,136,150603,1,0,0:0:0
272,168,150682,1,0,0:0:0
272,208,150761,1,0,0:0:0
248,240,150840,6,0,B|192:256|192:256|96:224|96:224|16:240,1,220,8|0,0:0|0:0,0:0:0
80,352,151314,1,0,0:0:0
112,344,151393,1,0,0:0:0
144,336,151472,1,0,0:0:0
328,336,151630,1,0,0:0:0
144,208,151788,1,0,0:0:0
352,144,151946,1,0,0:0:0
256,192,152261,12,0,153051,0:0:0
32,80,153209,6,0,B|152:168|256:56,1,247.500009441376,4|0,0:0|0:0,0:0:0
344,192,153840,1,0,0:0:0
344,192,153998,2,0,B|200:128|112:240,1,247.500009441376,8|0,0:0|0:0,0:0:0
456,272,154788,2,0,B|408:88,2,165.000006294251
376,336,155577,1,0,0:0:0
272,296,155735,6,0,B|224:112,1,165.000006294251,4|0,0:0|0:0,0:0:0
120,88,156209,1,0,0:0:0
40,176,156367,2,0,B|80:336,1,165.000006294251
472,208,156998,2,0,B|432:48,1,165.000006294251,4|0,0:0|0:0,0:0:0
40,176,157630,2,0,B|80:336,1,165.000006294251
192,352,158103,1,0,0:0:0
272,280,158261,1,0,0:0:0
112,120,160788,6,0,B|192:152|192:152|216:120|216:120|352:64,1,220,4|0,0:0|0:0,0:0:0
480,152,161261,2,0,B|368:192,1,110,8|0,0:0|0:0,0:0:0
160,336,161577,2,0,B|272:296,1,110,8|0,0:0|0:0,0:0:0
424,328,161893,1,8,0:0:0
224,176,162051,1,0,0:0:0
264,184,162130,1,0,0:0:0
304,176,162209,1,8,0:0:0
336,152,162288,1,0,0:0:0
352,120,162367,1,0,0:0:0
344,80,162446,1,0,0:0:0
320,56,162524,1,8,0:0:0
280,48,162603,1,0,0:0:0
248,64,162682,1,0,0:0:0
216,88,162761,1,0,0:0:0
176,96,162840,1,0,0:0:0
48,200,162998,6,0,B|144:240|232:168,1,187.000003566742,0|4,0:0|0:0,0:0:0
456,72,163630,1,0,0:0:0
456,72,163788,2,0,B|432:128|432:128|456:232|456:232|424:288,1,220,8|0,0:0|0:0,0:0:0
320,368,164261,1,0,0:0:0
272,240,164419,2,0,B|176:152|48:200,1,220,8|0,0:0|0:0,0:0:0
136,304,164893,1,0,0:0:0
136,304,165051,2,0,B|200:192|344:232,1,220,8|0,0:0|0:0,0:0:0
456,208,165524,2,0,B|432:144|360:120,1,110,0|8,0:0|0:0,0:0:0
256,48,165840,6,0,B|284:104|284:104|264:208|264:208|296:272,1,220
100,312,166314,1,8,0:0:0
124,284,166393,1,0,0:0:0
132,248,166472,1,0,0:0:0
120,212,166551,1,0,0:0:0
96,184,166630,1,0,0:0:0
80,148,166709,1,0,0:0:0
76,112,166788,1,0,0:0:0
92,76,166867,1,0,0:0:0
128,60,166946,1,8,0:0:0
168,56,167024,1,0,0:0:0
204,72,167103,5,0,0:0:0
28,248,167419,1,0,0:0:0
416,272,167735,1,0,0:0:0
128,316,168051,1,0,0:0:0
448,168,168367,1,0,0:0:0
120,160,168682,1,0,0:0:0
248,48,168840,5,0,0:0:0
248,48,168998,1,0,0:0:0
360,112,169156,1,0,0:0:0
360,112,169314,1,0,0:0:0
192,176,169472,1,0,0:0:0
192,176,169630,1,0,0:0:0
400,240,169788,1,0,0:0:0
400,240,169946,1,0,0:0:0
136,296,170103,1,0,0:0:0
136,296,170261,1,0,0:0:0
276,372,170419,1,0,0:0:0
448,344,170577,1,0,0:0:0
464,320,170656,1,0,0:0:0
480,288,170735,2,0,B|496:224|464:176,1,110
328,72,171051,5,8,0:0:0
192,160,171209,1,4,0:0:0
192,160,171288,1,0,0:0:0
192,160,171367,1,0,0:0:0
368,192,171524,1,12,0:0:0
152,280,171682,1,0,0:0:0
152,280,171761,1,0,0:0:0
152,280,171840,1,0,0:0:0
152,280,171919,1,0,0:0:0
152,280,171998,1,12,0:0:0
400,312,172156,1,0,0:0:0
240,352,172314,5,0,0:0:0
256,320,172393,1,0,0:0:0
256,288,172472,1,12,0:0:0
240,256,172551,1,0,0:0:0
208,240,172630,1,0,0:0:0
168,240,172709,1,0,0:0:0
136,256,172788,1,0,0:0:0
104,272,172867,1,0,0:0:0
72,264,172946,1,12,0:0:0
48,240,173024,1,0,0:0:0
48,208,173103,1,0,0:0:0
64,184,173182,1,0,0:0:0
96,176,173261,1,8,0:0:0
432,112,175472,6,0,B|456:168,3,55
360,128,175788,2,0,B|328:48,3,55
280,144,176103,2,0,B|368:360,1,220,4|0,0:0|0:0,0:0:0
240,72,176577,2,0,B|24:160,1,220,4|0,0:0|0:0,0:0:0
152,304,177051,1,4,0:0:0
256,192,177209,12,4,178630,0:0:0
