osu file format v14

[General]
AudioFilename: nevereverland.mp3
AudioLeadIn: 0
PreviewTime: 111047
Countdown: 0
SampleSet: None
StackLeniency: 0.4
Mode: 0
LetterboxInBreaks: 0
WidescreenStoryboard: 0

[Editor]
Bookmarks: 130416,160271,185609,258571
DistanceSpacing: 1.2
BeatDivisor: 4
GridSize: 32
TimelineZoom: 1.6

[Metadata]
Title:Nevereverland
TitleUnicode:Nevereverland
Artist:nano
ArtistUnicode:ナノ
Creator:zhu
Version:Victor's Hard
Source:
Tags:naoki itou n neko アークix nifty cordi victorfernando -tochi starset hb24 short version
BeatmapID:1387197
BeatmapSetID:621438

[Difficulty]
HPDrainRate:4.5
CircleSize:4
OverallDifficulty:6
ApproachRate:8
SliderMultiplier:1.1
SliderTickRate:1

[Events]
//Background and Video events
0,0,"bg.jpg",0,0
//Break Periods
2,41054,44632
2,91587,100103
//Storyboard Layer 0 (Background)
//Storyboard Layer 1 (Fail)
//Storyboard Layer 2 (Pass)
//Storyboard Layer 3 (Foreground)
//Storyboard Sound Samples

[TimingPoints]
934,400,4,2,1,20,1,0
2134,-100,4,2,1,20,0,0
13734,-133.333333333333,4,2,1,20,0,0
39734,-200,4,2,1,20,0,0
40854,291.26213592233,4,1,0,75,1,0
45514,-100,4,3,0,75,0,0
49009,-83.3333333333333,4,3,0,75,0,0
50174,-100,4,1,0,75,0,0
58329,-100,4,3,0,75,0,0
58620,-100,4,3,0,55,0,0
59494,-100,4,3,0,75,0,0
64154,-100,4,3,0,85,0,0
65174,-100,4,3,0,85,0,0
82795,-100,4,3,0,65,0,0
91533,291.26213592233,4,2,1,100,1,0
100853,-133.333333333333,4,3,0,35,0,0
107843,291.26213592233,3,1,0,50,1,0
110319,-100,3,2,1,50,0,0
111339,291.26213592233,4,1,0,60,1,1
111339,-90.9090909090909,4,1,0,60,0,1
134639,-100,4,1,0,55,0,0

[Colours]
Combo1 : 0,123,159
Combo2 : 192,192,192
SliderBorder : 255,255,255
SliderTrackOverride : 0,0,0

[HitObjects]
88,112,934,6,0,P|136:128|200:104,1,110,2|0,0:0|0:0,0:0:0:0:
272,40,1734,1,0,0:0:0:0:
360,104,2134,2,0,B|304:200|408:200|352:328,1,220,2|0,0:0|0:0,0:0:0:0:
256,264,3334,2,0,L|184:272,2,55,2|0|2,0:0|0:0|0:0,0:0:0:0:
160,344,4134,2,0,P|120:264|168:192,1,165,4|0,0:0|0:0,0:0:0:0:
176,184,4834,2,0,L|176:136,1,27.5,0|2,0:0|0:0,0:0:0:0:
120,48,5334,5,2,0:0:0:0:
344,144,6134,1,2,0:0:0:0:
272,240,6534,2,0,P|256:296|280:360,2,110,2|2|2,0:0|0:0|0:0,0:0:0:0:
344,144,7734,1,2,0:0:0:0:
288,24,8134,1,2,0:0:0:0:
344,144,8534,6,0,B|265:151|265:151|201:127|201:127|129:135,1,220,2|0,0:0|0:0,0:0:0:0:
56,56,9734,1,2,0:0:0:0:
16,184,10134,1,0,0:0:0:0:
127,242,10534,2,0,P|135:154|127:130,1,110,2|0,0:0|0:0,0:0:0:0:
127,87,11134,2,0,L|245:86,1,110,2|0,0:0|0:0,0:0:0:0:
320,80,11734,1,2,0:0:0:0:
384,296,12334,6,0,L|312:288,2,55,2|2|2,0:0|0:0|0:0,0:0:0:0:
400,208,12934,2,0,L|336:200,1,55,2|0,0:0|0:0,0:0:0:0:
280,152,13334,2,0,P|266:99|290:51,1,110,2|4,0:0|0:1,0:0:0:0:
175,192,14334,6,0,B|207:152|207:152|287:152,1,123.750004720688,2|2,0:0|0:0,0:0:0:0:
368,152,15134,1,0,0:0:0:0:
312,264,15534,5,2,0:0:0:0:
448,136,16134,1,2,0:0:0:0:
400,72,16334,2,0,L|352:64,1,41.2500015735627
280,32,16734,1,0,0:0:0:0:
280,32,16934,2,0,L|224:40,1,41.2500015735627,2|0,0:0|0:0,0:0:0:0:
184,104,17334,5,2,0:0:0:0:
184,104,17534,2,0,P|176:144|192:192,1,82.5000031471254,2|2,0:0|0:0,0:0:0:0:
248,248,18134,1,2,0:0:0:0:
248,248,18334,2,0,L|384:240,1,123.750004720688,2|2,0:0|0:0,0:0:0:0:
472,168,19334,5,2,0:0:0:0:
371,240,19734,2,0,L|371:296,1,41.2500015735627,2|0,0:0|0:0,0:0:0:0:
328,176,20134,2,0,P|270:157|216:184,2,123.750004720688,4|2|2,0:1|0:0|0:0,0:0:0:0:
278,240,21534,1,0,0:0:0:0:
159,341,21934,6,0,L|165:301,2,41.2500015735627,2|0|2,0:0|0:0|0:0,0:0:0:0:
84,316,22534,2,0,L|89:276,1,41.2500015735627,2|2,0:0|0:0,0:0:0:0:
138,208,22934,1,2,0:0:0:0:
138,208,23134,1,0,0:0:0:0:
216,183,23334,6,0,P|240:127|216:63,2,123.750004720688,2|2|2,0:0|0:0|0:0,0:0:0:0:
162,123,24734,2,0,L|66:115,1,82.5000031471254,2|2,0:0|0:0,0:0:0:0:
26,54,25334,1,2,0:0:0:0:
153,32,25734,2,0,L|205:36,1,41.2500015735627,2|0,0:0|0:0,0:0:0:0:
252,94,26134,2,0,B|339:89,1,82.5000031471254,2|4,0:0|0:1,0:0:0:0:
432,176,26934,6,0,L|440:128,2,41.2500015735627,2|0|2,0:0|0:0|0:0,0:0:0:0:
448,256,27534,1,0,0:0:0:0:
320,336,27934,2,0,B|288:344|256:328|256:328|224:344|192:336,1,123.750004720688,2|2,0:0|0:0,0:0:0:0:
136,288,28734,1,0,0:0:0:0:
188,222,28934,2,0,P|227:148|196:73,1,165.000006294251,2|2,0:0|0:0,0:0:0:0:
314,30,30134,6,0,L|272:30,2,41.2500015735627,2|0|2,0:0|0:0|0:0,0:0:0:0:
378,76,30734,2,0,P|386:116|386:124,1,41.2500015735627,0|2,0:0|0:0,0:0:0:0:
350,182,31134,2,0,P|342:222|358:278,1,82.5000031471254,2|2,0:0|0:0,0:0:0:0:
339,341,31734,2,0,L|283:333,1,41.2500015735627,2|0,0:0|0:0,0:0:0:0:
229,294,32134,2,0,L|133:302,1,82.5000031471254,2|2,0:0|0:0,0:0:0:0:
200,184,32934,6,0,B|64:192,2,123.750004720688,2|2|2,0:0|0:0|0:0,0:0:0:0:
285,183,34334,1,0,0:0:0:0:
224,304,34734,1,2,0:0:0:0:
152,336,34934,1,2,0:0:0:0:
78,302,35134,2,0,P|53:246|75:190,1,123.750004720688,2|0,0:0|0:0,0:0:0:0:
201,102,36134,6,0,B|193:142|193:142|201:190,1,82.5000031471254,2|0,0:0|0:0,0:0:0:0:
288,184,36734,2,0,B|296:152|296:152|288:104,1,82.5000031471254,2|0,0:0|0:0,0:0:0:0:
411,184,37534,2,0,L|275:184,1,123.750004720688,2|2,0:0|0:0,0:0:0:0:
208,240,38534,2,0,P|200:288|208:322,1,82.5000031471254,2|2,0:0|0:0,0:0:0:0:
287,184,39334,1,6,0:0:0:0:
256,192,39734,12,0,40854,0:0:0:0:
147,92,45514,6,0,P|123:164|139:196,1,110,8|2,0:0|0:0,0:0:0:0:
208,152,45951,1,0,0:0:0:0:
208,152,46096,2,0,L|272:144,1,55,2|0,0:0|0:0,0:0:0:0:
320,208,46387,2,0,B|304:256|304:256|320:328,1,110,8|2,0:0|0:0,0:0:0:0:
384,360,46824,6,0,L|456:360,1,55,0|2,0:0|0:0,0:0:0:0:
480,280,47116,2,0,L|416:280,1,55,0|8,0:0|0:0,0:0:0:0:
400,200,47407,1,0,0:0:0:0:
400,200,47553,2,0,P|408:160|400:128,1,55,2|0,0:0|0:0,0:0:0:0:
368,72,47844,6,0,B|328:80|328:80|248:56,1,110,8|2,0:0|0:0,0:0:0:0:
176,32,48281,1,0,0:0:0:0:
176,32,48426,2,0,L|176:144,1,110,2|8,0:0|0:0,0:0:0:0:
176,232,48863,1,0,0:0:0:0:
176,232,49009,6,0,L|240:240,3,32.99999899292
240,264,49300,2,0,L|288:256,3,32.99999899292
312,272,49591,2,0,L|360:280,3,32.99999899292
384,256,49883,1,0,0:0:0:0:
394,57,50174,6,0,L|339:50,1,55,0|0,0:0|0:0,0:0:0:0:
264,88,50465,2,0,L|200:80,1,55,8|0,0:0|0:0,0:0:0:0:
144,144,50756,2,0,B|112:160|80:144|80:144|85:115|120:96,1,110
209,81,51193,2,0,P|233:137|217:201,1,110,0|0,0:0|0:0,0:0:0:0:
168,248,51630,6,0,P|160:296|168:320,1,55,8|0,0:0|0:0,0:0:0:0:
272,304,51921,2,0,P|280:264|272:240,1,55
225,184,52213,1,4,0:0:0:0:
272,304,52504,6,0,L|392:304,1,110,0|8,0:0|0:0,0:0:0:0:
456,264,52941,1,0,0:0:0:0:
456,264,53087,2,0,P|440:224|456:152,1,110,0|8,0:0|0:0,0:0:0:0:
416,88,53523,2,0,B|368:104|368:104|304:80,1,110
232,88,53960,6,0,L|224:160,1,55,8|0,0:0|0:0,0:0:0:0:
320,216,54252,2,0,L|312:144,1,55,0|0,0:0|0:0,0:0:0:0:
240,248,54543,2,0,L|232:296,3,27.5,8|0|0|0,0:0|0:0|0:0|0:0,0:0:0:0:
208,304,54834,6,0,P|160:312|104:272,1,110,4|8,0:0|0:0,0:0:0:0:
72,208,55271,1,0,0:0:0:0:
112,136,55417,2,0,L|128:24,1,110,0|8,0:0|0:0,0:0:0:0:
200,80,55853,2,0,L|184:192,1,110,0|0,0:0|0:0,0:0:0:0:
232,256,56290,6,0,P|264:264|304:264,1,55,8|0,0:0|0:0,0:0:0:0:
343,207,56582,2,0,P|375:199|415:207,1,55,0|0,0:0|0:0,0:0:0:0:
458,265,56873,1,8,0:0:0:0:
458,265,57019,1,0,0:0:0:0:
490,178,57164,6,0,L|485:65,1,110,4|8,0:0|0:0,0:0:0:0:
412,25,57601,1,0,0:0:0:0:
412,25,57747,2,0,P|352:8|288:32,1,110,0|8,0:0|0:0,0:0:0:0:
244,81,58184,2,0,P|184:96|128:72,1,110,0|0,0:0|0:0,0:0:0:0:
56,104,58620,6,0,P|66:142|64:168,1,55,8|0,0:0|0:0,0:0:0:0:
40,232,58912,2,0,P|34:258|40:287,1,55
96,344,59203,1,8,0:0:0:0:
168,296,59349,1,0,0:0:0:0:
240,336,59494,6,0,B|296:352|344:328|344:328|312:296|328:264,1,165,4|0,0:2|0:0,0:0:0:0:
352,200,60077,1,8,0:2:0:0:
384,64,60368,2,0,L|208:48,1,165,4|0,0:2|0:0,0:0:0:0:
136,40,60951,1,8,0:2:0:0:
208,176,61242,6,0,P|224:232|208:288,1,110,0|8,0:0|0:2,0:0:0:0:
136,304,61679,2,0,L|144:384,1,55,8|0,0:2|0:0,0:0:0:0:
56,272,61970,6,0,L|48:336,2,55,0|8|0,0:0|0:2|0:0,0:0:0:0:
80,192,62407,1,0,0:0:0:0:
48,112,62553,1,0,0:0:0:0:
112,56,62698,2,0,P|144:60|184:56,1,55,8|0,0:2|0:0,0:0:0:0:
248,24,62989,6,0,P|280:16|320:24,1,55,0|0,0:0|0:0,0:0:0:0:
360,88,63281,2,0,L|352:160,1,55,8|0,0:2|0:0,0:0:0:0:
288,200,63572,2,0,L|312:328,1,110
384,352,64009,1,0,0:0:0:0:
384,352,64154,6,0,P|412:351|448:336,1,55,4|0,0:1|0:0,0:0:0:0:
488,280,64446,2,0,L|480:168,1,110,8|0,0:2|0:0,0:0:0:0:
432,96,64883,1,0,0:0:0:0:
352,128,65028,1,8,0:2:0:0:
352,128,65174,2,0,B|232:120,1,110
168,160,65611,6,0,P|165:191|174:214,1,55,8|0,0:2|0:0,0:0:0:0:
216,288,65902,1,0,0:0:0:0:
216,288,66048,2,0,P|224:320|224:352,2,55,0|8|0,0:0|0:2|0:0,0:0:0:0:
173,213,66485,6,0,P|225:200|274:223,1,110,0|8,0:0|0:2,0:0:0:0:
336,280,66921,2,0,P|384:296|456:272,1,110
496,216,67358,1,8,0:2:0:0:
496,216,67504,2,0,B|496:96,1,110
456,32,67941,6,0,P|400:16|336:40,1,110,8|0,0:2|0:0,0:0:0:0:
296,88,68378,1,0,0:0:0:0:
256,160,68523,2,0,L|264:224,1,55,8|0,0:2|0:0,0:0:0:0:
296,296,68815,6,0,B|328:320|328:320|416:312,1,110,4|8,0:1|0:2,0:0:0:0:
464,256,69252,1,0,0:0:0:0:
464,256,69397,2,0,P|488:200|472:144,1,110,0|8,0:0|0:2,0:0:0:0:
400,104,69834,2,0,B|344:80|344:128|272:88,1,110
216,136,70271,6,0,B|208:256,1,110,8|0,0:2|0:0,0:0:0:0:
144,304,70708,1,0,0:0:0:0:
144,304,70853,2,0,L|152:368,1,55,8|0,0:2|0:0,0:0:0:0:
56,344,71145,6,0,L|64:224,1,110,4|8,0:1|0:2,0:0:0:0:
120,168,71582,2,0,L|112:56,1,110
184,8,72019,1,8,0:2:0:0:
248,56,72164,2,0,P|270:61|312:48,1,55
384,16,72455,5,0,0:0:0:0:
384,16,72601,2,0,P|400:64|376:128,1,110,8|0,0:2|0:0,0:0:0:0:
320,172,73038,1,0,0:0:0:0:
256,224,73184,2,0,P|248:264|256:296,1,55,8|0,0:2|0:0,0:0:0:0:
296,344,73475,6,0,P|240:360|192:336,1,110,4|8,0:1|0:2,0:0:0:0:
152,268,73912,1,0,0:0:0:0:
76,308,74057,2,0,B|69:363,1,55
4,276,74349,1,8,0:2:0:0:
4,276,74494,2,0,B|20:152,1,110
32,80,74931,6,0,P|56:88|92:84,1,55,8|0,0:2|0:0,0:0:0:0:
148,32,75222,1,0,0:0:0:0:
148,32,75368,1,0,0:0:0:0:
228,4,75514,2,0,P|260:-4|292:4,1,55,8|0,0:2|0:2,0:0:0:0:
272,80,75805,6,0,B|264:192,1,110,4|8,0:1|0:2,0:0:0:0:
196,236,76242,2,0,B|204:300,1,55
112,304,76533,2,0,L|104:248,1,55,0|8,0:0|0:2,0:0:0:0:
40,200,76824,2,0,P|88:168|142:179,1,110
196,236,77261,5,8,0:2:0:0:
264,189,77407,2,0,L|384:184,1,110
444,124,77844,2,0,L|440:59,1,55,8|0,0:2|0:0,0:0:0:0:
373,184,78135,6,0,P|356:244|380:292,1,110,4|8,0:1|0:2,0:0:0:0:
440,232,78572,2,0,L|504:240,2,55
373,184,79009,1,8,0:2:0:0:
312,120,79154,2,0,L|184:128,1,110
120,104,79591,6,0,P|114:130|120:159,1,55,8|0,0:2|0:0,0:0:0:0:
202,126,79883,2,0,P|206:87|200:64,1,55
128,12,80174,1,8,0:2:0:0:
48,52,80320,1,0,0:0:0:0:
48,52,80465,6,0,P|36:112|44:172,1,110,4|8,0:1|0:2,0:0:0:0:
56,244,80902,2,0,B|88:268|88:268|160:268,1,110
228,224,81339,2,0,L|236:160,1,55,8|0,0:2|0:0,0:0:0:0:
316,160,81630,2,0,L|308:224,1,55
328,296,81921,1,8,0:2:0:0:
400,252,82067,1,0,0:0:0:0:
480,280,82213,2,0,B|496:336|496:336|472:392,1,110,0|8,0:0|0:2,0:0:0:0:
328,296,82795,6,0,L|208:280,1,110,4|8,0:1|0:2,0:0:0:0:
144,320,83232,1,0,0:0:0:0:
80,272,83378,2,0,B|104:208|64:208|88:144,1,110,8|0,0:2|0:0,0:0:0:0:
120,88,83815,2,0,P|168:72|232:104,1,110,8|0,0:2|0:0,0:0:0:0:
264,168,84252,2,0,P|296:144|304:120,2,55,8|0|8,0:2|0:0|0:2,0:0:0:0:
184,272,84834,5,4,0:1:0:0:
184,272,84980,2,0,L|176:336,1,55,0|8,0:0|0:2,0:0:0:0:
96,320,85271,1,0,0:0:0:0:
96,320,85417,2,0,L|88:200,1,110,8|0,0:2|0:0,0:0:0:0:
32,152,85853,2,0,L|40:24,1,110,8|0,0:2|0:0,0:0:0:0:
112,16,86290,6,0,L|192:24,1,55,8|0,0:2|0:0,0:0:0:0:
216,88,86582,2,0,L|288:80,1,55,8|0,0:2|0:0,0:0:0:0:
352,88,86873,1,8,0:2:0:0:
352,88,87019,1,0,0:0:0:0:
368,168,87164,2,0,P|376:208|376:248,1,55,4|0,0:1|0:0,0:0:0:0:
320,280,87455,5,8,0:2:0:0:
320,280,87601,1,0,0:0:0:0:
248,328,87747,2,0,B|192:344|192:344|128:320,1,110,8|0,0:2|0:0,0:0:0:0:
96,264,88184,2,0,B|120:208|80:208|104:144,1,110,8|0,0:2|0:0,0:0:0:0:
160,96,88620,6,0,L|224:104,1,55,8|0,0:2|0:0,0:0:0:0:
272,192,88912,2,0,L|200:184,1,55,8|0,0:2|0:0,0:0:0:0:
312,112,89203,2,0,P|308:91|320:48,1,55,4|0,0:1|0:0,0:0:0:0:
384,16,89494,1,8,0:2:0:0:
456,64,89640,1,0,0:0:0:0:
456,64,89786,6,0,B|472:112|472:112|448:192,1,110,8|0,0:2|0:0,0:0:0:0:
392,224,90222,2,0,B|368:280|408:280|384:336,1,110,8|0,0:2|0:0,0:0:0:0:
312,368,90659,2,0,P|264:360|248:352,1,55,8|0,0:2|0:0,0:0:0:0:
200,288,90951,2,0,P|152:280|128:288,1,55,8|8,0:2|0:0,0:0:0:0:
64,320,91242,1,8,0:0:0:0:
64,320,91387,1,8,0:0:0:0:
88,48,100853,6,0,P|104:112|96:136,1,82.5000031471254
56,200,101290,1,0,0:0:0:0:
56,200,101435,2,0,P|48:248|64:280,1,82.5000031471254,8|0,0:2|0:0,0:0:0:0:
120,336,101872,1,2,0:0:0:0:
192,288,102018,6,0,B|216:288|288:288,1,82.5000031471254,2|0,0:0|0:0,0:0:0:0:
360,288,102455,1,2,0:0:0:0:
440,256,102600,2,0,P|448:216|440:168,1,82.5000031471254,10|0,0:2|0:0,0:0:0:0:
400,96,103037,1,8,0:2:0:0:
400,96,103110,1,8,0:2:0:0:
400,96,103183,6,0,L|304:96,1,82.5000031471254,8|0,0:2|0:0,0:0:0:0:
232,96,103620,1,2,0:0:0:0:
160,52,103766,2,0,L|108:62,1,41.2500015735627,10|2,0:2|0:0,0:0:0:0:
107,140,104057,2,0,L|155:132,1,41.2500015735627,2|2,0:0|0:0,0:0:0:0:
208,192,104348,6,0,P|216:232|200:280,1,82.5000031471254
144,328,104785,1,2,0:0:0:0:
144,328,104931,2,0,L|48:320,1,82.5000031471254
24,240,105367,1,8,0:2:0:0:
24,240,105440,1,8,0:2:0:0:
24,240,105513,6,0,P|32:192|24:152,1,82.5000031471254,8|0,0:2|0:0,0:0:0:0:
64,80,105950,1,2,0:0:0:0:
136,128,106096,2,0,P|192:144|224:136,1,82.5000031471254,8|0,0:2|0:0,0:0:0:0:
288,96,106533,1,2,0:0:0:0:
336,168,106678,2,0,L|328:256,1,82.5000031471254,2|0,0:0|0:0,0:0:0:0:
464,344,107261,2,0,L|472:248,1,82.5000031471254,10|0,0:2|0:0,0:0:0:0:
336,168,107844,6,0,P|299:171|264:160,2,55,2|0|2,0:0|0:0|0:0,0:0:0:0:
408,120,108280,1,0,0:0:0:0:
417,265,108717,6,0,P|445:258|481:265,2,55,2|0|2,0:0|0:0|0:0,0:0:0:0:
352,320,109154,1,0,0:0:0:0:
192,296,109591,6,0,P|196:329|184:368,2,55,2|0|2,0:0|0:0|0:0,0:0:0:0:
144,224,110028,1,0,0:0:0:0:
248,80,110319,5,2,0:0:0:0:
304,144,110465,1,2,0:0:0:0:
224,160,110610,1,2,0:0:0:0:
144,224,111047,6,0,L|74:235,1,55
24,160,111339,6,0,P|51:151|84:150,1,60.5000018463135,4|0,0:0|0:0,0:0:0:0:
144,96,111630,1,8,0:0:0:0:
144,96,111775,2,0,P|192:104|216:96,1,60.5000018463135
280,64,112067,1,0,0:0:0:0:
304,152,112212,2,0,P|300:190|312:232,1,60.5000018463135,8|0,0:0|0:0,0:0:0:0:
400,216,112504,6,0,P|408:184|400:136,1,60.5000018463135,0|0,0:0|0:0,0:0:0:0:
360,88,112795,1,8,0:0:0:0:
280,64,112940,2,0,P|232:80|152:48,1,121.000003692627,0|0,0:2|0:0,0:0:0:0:
96,16,113377,1,8,0:0:0:0:
48,88,113523,1,0,0:0:0:0:
112,152,113669,6,0,P|120:200|112:224,1,60.5000018463135,4|0,0:0|0:0,0:0:0:0:
64,280,113960,1,8,0:0:0:0:
144,328,114105,2,0,P|201:315|280:344,1,121.000003692627,0|0,0:2|0:0,0:0:0:0:
336,288,114542,2,0,P|332:253|344:216,1,60.5000018463135,8|0,0:0|0:0,0:0:0:0:
400,160,114834,5,0,0:0:0:0:
352,80,114979,2,0,L|272:80,1,60.5000018463135,0|8,0:0|0:0,0:0:0:0:
216,32,115271,2,0,P|240:104|223:155,1,121.000003692627,0|0,0:2|0:0,0:0:0:0:
176,208,115707,2,0,L|96:208,1,60.5000018463135,8|0,0:0|0:0,0:0:0:0:
80,128,115999,6,0,L|160:128,1,60.5000018463135,4|0,0:0|0:0,0:0:0:0:
128,48,116290,2,0,L|48:48,1,60.5000018463135,8|0,0:0|0:0,0:0:0:0:
4,92,116581,2,0,P|0:148|44:200,1,121.000003692627,0|8,0:0|0:0,0:0:0:0:
115,208,117018,2,0,L|120:288,1,60.5000018463135
160,344,117309,5,0,0:0:0:0:
160,344,117455,2,0,B|200:368|200:368|273:344,1,121.000003692627,8|0,0:0|0:0,0:0:0:0:
344,304,117892,1,0,0:0:0:0:
296,232,118038,2,0,P|288:200|296:152,1,60.5000018463135,8|0,0:0|0:0,0:0:0:0:
344,104,118329,6,0,P|352:64|344:32,2,60.5000018463135,4|0|8,0:0|0:0|0:0,0:0:0:0:
289,172,118766,2,0,P|232:152|175:175,1,121.000003692627,0|0,0:0|0:0,0:0:0:0:
104,224,119203,1,8,0:0:0:0:
56,152,119348,2,0,L|56:72,1,60.5000018463135,0|0,0:0|0:0,0:0:0:0:
120,24,119639,5,0,0:0:0:0:
120,24,119785,2,0,B|240:40,1,121.000003692627,8|0,0:0|0:0,0:0:0:0:
328,56,120222,1,0,0:0:0:0:
376,128,120368,2,0,L|368:168,3,30.2500009231568,8|0|0|0,0:0|0:0|0:0|0:0,0:0:0:0:
352,192,120659,6,0,L|272:184,1,60.5000018463135,4|0,0:0|0:0,0:0:0:0:
208,176,120950,1,8,0:0:0:0:
120,184,121096,2,0,L|112:304,1,121.000003692627,0|0,0:0|0:0,0:0:0:0:
200,352,121533,2,0,L|200:280,1,60.5000018463135,8|0,0:0|0:0,0:0:0:0:
288,256,121824,6,0,L|288:316,1,60.5000018463135
368,368,122115,1,8,0:0:0:0:
368,368,122261,2,0,B|504:360,1,121.000003692627,0|0,0:0|0:0,0:0:0:0:
512,280,122698,1,8,0:0:0:0:
464,216,122843,1,0,0:0:0:0:
464,216,122989,6,0,P|437:148|471:99,1,121.000003692627,4|8,0:0|0:0,0:0:0:0:
408,32,123426,1,0,0:0:0:0:
320,56,123572,2,0,L|192:40,1,121.000003692627,0|8,0:0|0:0,0:0:0:0:
120,80,124008,2,0,B|144:128|144:128|128:208,1,121.000003692627,0|0,0:1|0:0,0:0:0:0:
104,272,124445,5,8,0:0:0:0:
104,272,124591,2,0,L|184:280,1,60.5000018463135
248,264,124882,2,0,L|376:256,1,121.000003692627,0|0,0:0|0:0,0:0:0:0:
448,280,125319,6,0,L|440:360,1,60.5000018463135,4|0,0:0|0:0,0:0:0:0:
368,256,125610,2,0,L|375:181,1,60.5000018463135,8|0,0:0|0:0,0:0:0:0:
456,144,125902,2,0,B|448:216,1,60.5000018463135,0|0,0:0|0:0,0:0:0:0:
384,120,126193,2,0,L|390:59,1,60.5000018463135,8|0,0:0|0:0,0:0:0:0:
312,24,126484,6,0,P|276:15|240:16,1,60.5000018463135,0|0,0:0|0:0,0:0:0:0:
192,80,126775,2,0,P|212:135|187:189,1,121.000003692627,8|0,0:0|0:0,0:0:0:0:
120,248,127212,1,0,0:0:0:0:
184,304,127358,2,0,L|256:304,1,60.5000018463135,8|0,0:0|0:0,0:0:0:0:
320,264,127649,6,0,B|304:208|304:208|328:136,1,121.000003692627,4|8,0:0|0:0,0:0:0:0:
376,80,128086,2,0,L|436:86,1,60.5000018463135
472,176,128377,2,0,L|408:168,1,60.5000018463135,0|8,0:0|0:0,0:0:0:0:
323,148,128669,2,0,P|272:128|203:148,1,121.000003692627
136,192,129105,5,8,0:0:0:0:
136,192,129251,2,0,B|152:256|152:256|128:320,1,121.000003692627
192,368,129688,2,0,L|280:368,1,60.5000018463135,8|0,0:0|0:0,0:0:0:0:
288,288,129979,2,0,L|208:288,1,60.5000018463135,4|0,0:0|0:0,0:0:0:0:
132,307,130271,2,0,B|84:331|84:331|12:315,1,121.000003692627,8|0,0:0|0:0,0:0:0:0:
40,232,130707,1,0,0:0:0:0:
40,232,130853,2,0,L|48:96,1,121.000003692627,8|0,0:0|0:0,0:0:0:0:
104,48,131290,5,0,0:0:0:0:
104,48,131436,2,0,P|136:56|176:48,1,60.5000018463135,8|0,0:0|0:0,0:0:0:0:
240,8,131727,2,0,P|271:2|311:10,1,60.5000018463135
352,72,132018,2,0,P|380:77|434:71,1,60.5000018463135,8|0,0:0|0:0,0:0:0:0:
470,17,132309,6,0,P|495:70|480:128,1,121.000003692627,4|8,0:0|0:0,0:0:0:0:
416,184,132746,2,0,B|376:192|376:192|288:176,1,121.000003692627,0|0,0:0|0:0,0:0:0:0:
216,208,133183,2,0,L|203:273,1,60.5000018463135,8|0,0:0|0:0,0:0:0:0:
120,280,133474,6,0,P|176:346|260:326,2,181.500005538941,12|0|0,0:0|0:0|0:0,0:0:0:0:
216,208,134639,1,4,0:1:0:0:
