osu file format v14

[General]
AudioFilename: nevereverland.mp3
AudioLeadIn: 0
PreviewTime: 111047
Countdown: 0
SampleSet: Normal
StackLeniency: 0.7
Mode: 1
LetterboxInBreaks: 0
WidescreenStoryboard: 0

[Editor]
DistanceSpacing: 2.5
BeatDivisor: 4
GridSize: 8
TimelineZoom: 1.6

[Metadata]
Title:Nevereverland
TitleUnicode:Nevereverland
Artist:nano
ArtistUnicode:ナノ
Creator:zhu
Version:Nifty's Oni
Source:
Tags:naoki itou n neko アークix nifty cordi victorfernando -tochi starset hb24 short version
BeatmapID:1503444
BeatmapSetID:621438

[Difficulty]
HPDrainRate:5
CircleSize:2
OverallDifficulty:5
ApproachRate:10
SliderMultiplier:1.4
SliderTickRate:1

[Events]
//Background and Video events
0,0,"bg.jpg",0,0
//Break Periods
//Storyboard Layer 0 (Background)
//Storyboard Layer 1 (Fail)
//Storyboard Layer 2 (Pass)
//Storyboard Layer 3 (Foreground)
//Storyboard Sound Samples

[TimingPoints]
934,400,4,1,0,40,1,0
934,-125,4,1,0,40,0,0
26534,-125,4,1,0,50,0,0
39434,-100,4,1,0,5,0,0
40734,-100,4,1,0,75,0,0
40854,291.26213592233,4,1,0,75,1,0
40854,-142.857142857143,4,1,0,75,0,0
44931,-138.888888888889,4,1,0,75,0,0
45077,-135.135135135135,4,1,0,75,0,0
45222,-131.578947368421,4,1,0,75,0,0
45368,-128.205128205128,4,1,0,75,0,0
45514,-125,4,1,0,75,0,0
45805,-117.647058823529,4,1,0,75,0,0
46242,-111.111111111111,4,1,0,75,0,0
46679,-105.263157894737,4,1,0,75,0,0
47116,-100,4,1,0,75,0,0
47261,-98.0392156862745,4,1,0,75,0,0
47407,-96.1538461538461,4,1,0,75,0,0
47553,-94.3396226415094,4,1,0,75,0,0
47698,-92.5925925925926,4,1,0,75,0,0
47844,-90.9090909090909,4,1,0,75,0,0
48135,-111.111111111111,4,1,0,75,0,0
48281,-108.695652173913,4,1,0,75,0,0
48426,-106.382978723404,4,1,0,75,0,0
48572,-104.166666666667,4,1,0,75,0,0
48718,-102.040816326531,4,1,0,75,0,0
48863,-100,4,1,0,75,0,0
49009,-98.0392156862745,4,1,0,75,0,0
49082,-97.0873786407767,4,1,0,75,0,0
49154,-96.1538461538461,4,1,0,75,0,0
49227,-95.2380952380952,4,1,0,75,0,0
49300,-94.3396226415094,4,1,0,75,0,0
49373,-93.4579439252336,4,1,0,75,0,0
49446,-92.5925925925926,4,1,0,75,0,0
49519,-91.743119266055,4,1,0,75,0,0
49591,-90.9090909090909,4,1,0,75,0,0
49883,-95.2380952380952,4,1,0,75,0,0
50174,-100,4,1,0,75,0,1
62844,-102.040816326531,4,1,0,75,0,1
62989,-104.166666666667,4,1,0,75,0,1
63062,-105.263157894737,4,1,0,75,0,1
63135,-106.382978723404,4,1,0,75,0,1
63281,-108.695652173913,4,1,0,75,0,1
63426,-111.111111111111,4,1,0,75,0,1
63572,-113.636363636364,4,1,0,75,0,1
63863,-119.047619047619,4,1,0,75,0,1
64009,-121.951219512195,4,1,0,75,0,1
64154,-125,4,1,0,75,0,0
91533,291.26213592233,4,1,0,50,1,8
91533,-166.666666666667,4,1,0,50,0,0
105950,-163.934426229508,4,1,0,50,0,0
106096,-161.290322580645,4,1,0,50,0,0
106241,-158.730158730159,4,1,0,50,0,0
106533,-153.846153846154,4,1,0,50,0,0
106678,-151.515151515152,4,1,0,50,0,0
106969,-147.058823529412,4,1,0,50,0,0
107115,-142.857142857143,4,1,0,50,0,0
107261,-138.888888888889,4,1,0,50,0,0
107552,-131.578947368421,4,1,0,50,0,0
107843,291.26213592233,3,1,0,75,1,0
110173,-125,3,1,0,50,0,0
110901,-100,3,1,0,75,0,0
111339,291.26213592233,4,1,0,80,1,1
134639,-100,4,1,0,80,0,0

[Colours]
Combo1 : 170,87,87
Combo2 : 168,6,63
Combo3 : 64,128,128
Combo4 : 198,145,196
SliderBorder : 240,240,255
SliderTrackOverride : 40,50,70

[HitObjects]
288,160,934,5,8,0:0:0:0:
288,160,1334,1,8,0:0:0:0:
288,160,1734,1,0,0:0:0:0:
288,160,2134,1,8,0:0:0:0:
288,144,2934,1,0,0:0:0:0:
288,160,3334,1,0,0:0:0:0:
288,160,3534,1,8,0:0:0:0:
288,160,3734,1,0,0:0:0:0:
288,152,4134,1,8,0:0:0:0:
288,144,4734,1,8,0:0:0:0:
288,144,4934,1,0,0:0:0:0:
288,160,5334,1,8,0:0:0:0:
296,160,6134,1,0,0:0:0:0:
296,160,6534,1,8,0:0:0:0:
296,160,6934,1,0,0:0:0:0:
296,160,7334,1,8,0:0:0:0:
296,160,7734,1,8,0:0:0:0:
304,160,8134,1,0,0:0:0:0:
304,160,8534,1,8,0:0:0:0:
304,160,9334,1,0,0:0:0:0:
304,160,9734,1,8,0:0:0:0:
304,160,10134,1,8,0:0:0:0:
304,160,10534,1,0,0:0:0:0:
312,160,10934,1,0,0:0:0:0:
312,160,11134,1,8,0:0:0:0:
312,160,11534,1,8,0:0:0:0:
312,160,11734,1,0,0:0:0:0:
320,160,12334,1,8,0:0:0:0:
344,168,12534,1,8,0:0:0:0:
336,176,12734,1,0,0:0:0:0:
336,176,12934,1,8,0:0:0:0:
352,168,13134,1,0,0:0:0:0:
352,168,13334,1,0,0:0:0:0:
336,176,13734,1,8,0:0:0:0:
344,176,14334,1,0,0:0:0:0:
344,176,14934,1,8,0:0:0:0:
344,176,15134,1,0,0:0:0:0:
344,176,15534,1,0,0:0:0:0:
360,184,16334,1,0,0:0:0:0:
360,192,16534,1,0,0:0:0:0:
360,184,16734,1,0,0:0:0:0:
352,192,16934,1,8,0:0:0:0:
352,176,17334,1,0,0:0:0:0:
352,176,17534,1,8,0:0:0:0:
352,176,17934,1,8,0:0:0:0:
360,176,18334,1,8,0:0:0:0:
360,176,18734,1,0,0:0:0:0:
360,176,18934,1,0,0:0:0:0:
360,176,19334,1,8,0:0:0:0:
368,168,19534,1,0,0:0:0:0:
368,168,19734,1,8,0:0:0:0:
368,168,20134,1,0,0:0:0:0:
360,176,20734,1,8,0:0:0:0:
376,160,21334,1,8,0:0:0:0:
368,160,21534,1,0,0:0:0:0:
368,168,21934,1,8,0:0:0:0:
368,168,22134,1,0,0:0:0:0:
376,160,22534,1,8,0:0:0:0:
376,160,22734,1,0,0:0:0:0:
376,160,22934,1,0,0:0:0:0:
376,160,23134,1,0,0:0:0:0:
376,160,23334,1,8,0:0:0:0:
376,160,23734,1,0,0:0:0:0:
376,160,23934,1,8,0:0:0:0:
384,152,24334,1,0,0:0:0:0:
368,160,24534,1,8,0:0:0:0:
384,144,24734,1,0,0:0:0:0:
384,152,25134,1,8,0:0:0:0:
392,144,25334,1,8,0:0:0:0:
392,144,25534,1,0,0:0:0:0:
392,144,25734,1,8,0:0:0:0:
392,152,25934,1,0,0:0:0:0:
392,152,26134,1,8,0:0:0:0:
384,144,26334,1,0,0:0:0:0:
384,144,26434,1,0,0:0:0:0:
384,144,26534,1,8,0:0:0:0:
400,144,26934,1,0,0:0:0:0:
400,144,27134,1,8,0:0:0:0:
400,144,27334,1,0,0:0:0:0:
384,128,27534,1,0,0:0:0:0:
384,144,27734,1,8,0:0:0:0:
392,136,27934,1,8,0:0:0:0:
384,144,28334,1,0,0:0:0:0:
384,144,28534,1,8,0:0:0:0:
384,144,28734,1,8,0:0:0:0:
392,136,28934,1,0,0:0:0:0:
384,144,29134,1,0,0:0:0:0:
384,144,29334,1,8,0:0:0:0:
392,136,29534,1,0,0:0:0:0:
392,136,29734,1,8,0:0:0:0:
400,144,30134,1,0,0:0:0:0:
384,136,30334,1,8,0:0:0:0:
392,136,30534,1,0,0:0:0:0:
392,136,30734,1,0,0:0:0:0:
392,144,30934,1,8,0:0:0:0:
400,144,31134,1,0,0:0:0:0:
392,136,31534,1,8,0:0:0:0:
392,136,31734,1,0,0:0:0:0:
400,136,32134,1,8,0:0:0:0:
392,136,32334,1,0,0:0:0:0:
392,136,32534,1,8,0:0:0:0:
400,136,32934,1,0,0:0:0:0:
392,136,33534,1,0,0:0:0:0:
384,144,34134,1,0,0:0:0:0:
384,144,34334,1,0,0:0:0:0:
392,136,34734,1,0,0:0:0:0:
392,136,34934,1,8,0:0:0:0:
392,136,35134,1,8,0:0:0:0:
384,128,35534,1,0,0:0:0:0:
384,128,35734,1,0,0:0:0:0:
384,128,35934,1,0,0:0:0:0:
384,128,36134,1,8,0:0:0:0:
384,128,36534,1,8,0:0:0:0:
384,128,36734,1,0,0:0:0:0:
384,128,37134,1,0,0:0:0:0:
376,128,37334,1,8,0:0:0:0:
376,128,37534,1,0,0:0:0:0:
376,120,37934,1,0,0:0:0:0:
376,128,38334,1,0,0:0:0:0:
376,128,38534,1,8,0:0:0:0:
384,128,38734,1,0,0:0:0:0:
376,120,38934,1,8,0:0:0:0:
384,120,39034,1,8,0:0:0:0:
384,120,39134,1,0,0:0:0:0:
384,120,39234,1,8,0:0:0:0:
384,120,39334,1,0,0:0:0:0:
256,192,39534,12,0,40734,0:0:0:0:
272,160,40854,5,4,0:0:0:0:
272,160,41145,1,0,0:0:0:0:
272,160,41436,1,0,0:0:0:0:
272,160,41727,1,0,0:0:0:0:
272,160,42019,1,0,0:0:0:0:
272,160,42310,1,0,0:0:0:0:
272,160,42601,1,0,0:0:0:0:
272,160,42892,1,0,0:0:0:0:
272,160,43038,1,8,0:0:0:0:
272,160,43184,1,0,0:0:0:0:
272,160,43329,1,8,0:0:0:0:
272,160,43475,1,0,0:0:0:0:
272,160,43766,1,0,0:0:0:0:
272,160,44057,1,0,0:0:0:0:
272,160,44349,1,0,0:0:0:0:
264,152,44640,1,0,0:0:0:0:
264,152,44931,1,0,0:0:0:0:
272,160,45077,1,8,0:0:0:0:
264,152,45222,1,0,0:0:0:0:
280,136,45368,1,0,0:0:0:0:
280,144,45514,1,12,0:0:0:0:
264,152,45805,1,0,0:0:0:0:
264,152,45951,1,12,0:0:0:0:
272,152,46242,1,0,0:0:0:0:
272,152,46387,1,12,0:0:0:0:
288,144,46679,1,0,0:0:0:0:
288,144,46824,1,12,0:0:0:0:
288,144,47116,1,0,0:0:0:0:
288,144,47261,1,12,0:0:0:0:
288,144,47407,1,8,0:0:0:0:
288,144,47553,1,0,0:0:0:0:
288,144,47698,1,0,0:0:0:0:
288,144,47844,1,12,0:0:0:0:
288,144,48135,1,0,0:0:0:0:
288,144,48281,1,0,0:0:0:0:
288,144,48426,1,0,0:0:0:0:
288,144,48572,1,0,0:0:0:0:
288,144,48718,1,0,0:0:0:0:
288,144,48863,1,0,0:0:0:0:
296,152,49009,1,8,0:0:0:0:
288,144,49154,1,0,0:0:0:0:
296,152,49300,1,8,0:0:0:0:
296,152,49373,1,8,0:0:0:0:
296,152,49446,1,0,0:0:0:0:
296,152,49519,1,0,0:0:0:0:
296,152,49591,1,8,0:0:0:0:
288,160,49883,1,0,0:0:0:0:
304,152,50174,1,4,0:0:0:0:
288,144,50320,1,0,0:0:0:0:
288,144,50465,1,8,0:0:0:0:
288,136,50611,1,0,0:0:0:0:
288,152,50756,1,8,0:0:0:0:
288,152,51048,1,0,0:0:0:0:
288,152,51193,1,8,0:0:0:0:
296,144,51339,1,8,0:0:0:0:
288,144,51485,1,0,0:0:0:0:
296,144,51630,1,8,0:0:0:0:
296,144,51776,1,0,0:0:0:0:
304,152,51921,1,8,0:0:0:0:
304,168,52067,1,0,0:0:0:0:
304,152,52213,1,8,0:0:0:0:
296,144,52504,1,4,0:0:0:0:
304,144,52650,1,0,0:0:0:0:
304,136,52795,1,8,0:0:0:0:
312,144,52941,1,0,0:0:0:0:
312,144,53087,1,8,0:0:0:0:
312,136,53378,1,0,0:0:0:0:
304,136,53523,1,8,0:0:0:0:
304,128,53669,1,0,0:0:0:0:
320,128,53815,1,0,0:0:0:0:
320,128,53960,1,8,0:0:0:0:
320,136,54106,1,0,0:0:0:0:
320,136,54252,1,8,0:0:0:0:
320,136,54397,1,0,0:0:0:0:
312,128,54470,1,0,0:0:0:0:
312,128,54543,1,8,0:0:0:0:
336,128,54688,1,8,0:0:0:0:
336,128,54834,1,4,0:0:0:0:
304,144,54980,1,0,0:0:0:0:
312,136,55125,1,8,0:0:0:0:
320,136,55271,1,0,0:0:0:0:
320,136,55417,1,8,0:0:0:0:
320,136,55708,1,0,0:0:0:0:
320,128,55853,1,8,0:0:0:0:
320,128,55999,1,8,0:0:0:0:
320,128,56145,1,0,0:0:0:0:
320,136,56290,1,8,0:0:0:0:
328,120,56436,1,0,0:0:0:0:
336,128,56582,1,8,0:0:0:0:
336,128,56727,1,0,0:0:0:0:
336,128,56873,1,8,0:0:0:0:
336,128,57019,1,8,0:0:0:0:
336,128,57164,1,4,0:0:0:0:
336,128,57310,1,0,0:0:0:0:
328,120,57455,1,8,0:0:0:0:
328,128,57601,1,0,0:0:0:0:
328,128,57747,1,8,0:0:0:0:
344,120,58038,1,0,0:0:0:0:
352,120,58184,1,8,0:0:0:0:
352,128,58329,1,8,0:0:0:0:
352,128,58475,1,0,0:0:0:0:
352,128,58548,1,0,0:0:0:0:
352,128,58620,1,8,0:0:0:0:
344,120,58766,1,0,0:0:0:0:
344,120,58912,1,12,0:0:0:0:
344,120,59057,1,0,0:0:0:0:
352,120,59203,1,12,0:0:0:0:
344,120,59349,1,8,0:0:0:0:
344,120,59494,1,4,0:0:0:0:
344,120,59640,1,0,0:0:0:0:
344,120,59786,1,8,0:0:0:0:
344,120,59931,1,0,0:0:0:0:
344,120,60077,1,8,0:0:0:0:
336,104,60368,1,12,0:0:0:0:
336,104,60514,1,12,0:0:0:0:
344,112,60659,1,0,0:0:0:0:
344,112,60805,1,0,0:0:0:0:
344,112,60951,1,8,0:0:0:0:
344,112,61096,1,0,0:0:0:0:
344,112,61242,1,8,0:0:0:0:
344,112,61315,1,8,0:0:0:0:
336,112,61387,1,0,0:0:0:0:
336,112,61533,1,8,0:0:0:0:
344,96,61679,1,8,0:0:0:0:
344,96,61824,1,4,0:0:0:0:
344,104,61970,1,8,0:0:0:0:
344,104,62116,1,8,0:0:0:0:
344,104,62261,1,0,0:0:0:0:
344,104,62407,1,8,0:0:0:0:
344,104,62698,1,8,0:0:0:0:
344,104,62844,1,0,0:0:0:0:
344,104,62989,1,8,0:0:0:0:
344,104,63135,1,8,0:0:0:0:
344,96,63281,1,0,0:0:0:0:
344,96,63426,1,8,0:0:0:0:
344,96,63572,1,0,0:0:0:0:
344,96,63863,1,0,0:0:0:0:
344,104,64009,1,0,0:0:0:0:
344,104,64154,1,12,0:0:0:0:
344,104,64300,1,0,0:0:0:0:
344,104,64446,1,8,0:0:0:0:
352,96,64737,1,0,0:0:0:0:
352,96,64883,1,0,0:0:0:0:
352,96,65028,1,8,0:0:0:0:
352,96,65174,1,0,0:0:0:0:
352,96,65465,1,0,0:0:0:0:
352,96,65611,1,8,0:0:0:0:
320,136,65902,1,0,0:0:0:0:
344,88,66048,1,0,0:0:0:0:
312,152,66193,1,8,0:0:0:0:
352,80,66339,1,8,0:0:0:0:
336,112,66485,1,0,0:0:0:0:
344,96,66776,1,8,0:0:0:0:
352,104,66921,1,0,0:0:0:0:
352,80,67213,1,0,0:0:0:0:
352,96,67358,1,8,0:0:0:0:
360,80,67504,1,0,0:0:0:0:
352,80,67795,1,0,0:0:0:0:
360,80,67941,1,8,0:0:0:0:
360,80,68232,1,0,0:0:0:0:
360,80,68378,1,0,0:0:0:0:
360,80,68523,1,8,0:0:0:0:
352,80,68815,1,0,0:0:0:0:
352,72,69106,1,8,0:0:0:0:
368,64,69397,1,0,0:0:0:0:
352,72,69543,1,0,0:0:0:0:
368,64,69688,1,8,0:0:0:0:
368,64,69834,1,0,0:0:0:0:
352,72,70125,1,0,0:0:0:0:
352,64,70271,1,8,0:0:0:0:
368,72,70562,1,0,0:0:0:0:
352,72,70708,1,0,0:0:0:0:
352,64,70853,1,8,0:0:0:0:
352,64,70999,1,0,0:0:0:0:
368,64,71145,1,8,0:0:0:0:
352,64,71436,1,8,0:0:0:0:
360,72,71582,1,0,0:0:0:0:
360,72,71873,1,0,0:0:0:0:
360,72,72019,1,8,0:0:0:0:
352,56,72164,1,0,0:0:0:0:
352,64,72455,1,0,0:0:0:0:
352,56,72601,1,8,0:0:0:0:
352,56,72892,1,0,0:0:0:0:
352,56,73038,1,8,0:0:0:0:
352,56,73184,1,8,0:0:0:0:
352,56,73329,1,8,0:0:0:0:
352,56,73475,1,4,0:0:0:0:
344,48,73766,1,8,0:0:0:0:
344,40,73912,1,0,0:0:0:0:
344,48,74057,1,8,0:0:0:0:
336,56,74203,1,8,0:0:0:0:
328,48,74349,1,0,0:0:0:0:
328,48,74494,1,8,0:0:0:0:
344,48,74786,1,0,0:0:0:0:
344,40,74931,1,8,0:0:0:0:
328,48,75077,1,8,0:0:0:0:
328,48,75222,1,0,0:0:0:0:
344,40,75368,1,0,0:0:0:0:
344,40,75514,1,8,0:0:0:0:
352,40,75805,1,0,0:0:0:0:
336,32,76096,1,8,0:0:0:0:
336,40,76242,1,0,0:0:0:0:
336,32,76387,1,8,0:0:0:0:
296,96,76533,1,0,0:0:0:0:
336,24,76679,1,8,0:0:0:0:
336,32,76824,1,8,0:0:0:0:
336,32,77116,1,0,0:0:0:0:
336,24,77261,1,8,0:0:0:0:
336,24,77407,1,8,0:0:0:0:
320,24,77553,1,0,0:0:0:0:
336,24,77698,1,0,0:0:0:0:
336,32,77844,1,8,0:0:0:0:
344,32,77989,1,8,0:0:0:0:
344,32,78135,1,0,0:0:0:0:
344,32,78426,1,8,0:0:0:0:
336,32,78572,1,0,0:0:0:0:
344,32,78718,1,0,0:0:0:0:
336,32,78863,1,0,0:0:0:0:
352,40,79009,1,8,0:0:0:0:
352,40,79154,1,0,0:0:0:0:
352,40,79446,1,0,0:0:0:0:
352,32,79591,1,8,0:0:0:0:
352,40,79883,1,0,0:0:0:0:
344,32,80028,1,0,0:0:0:0:
344,32,80174,1,8,0:0:0:0:
344,32,80320,1,0,0:0:0:0:
216,104,80465,1,12,0:0:0:0:
280,88,80756,1,8,0:0:0:0:
280,104,80902,1,0,0:0:0:0:
280,104,81193,1,0,0:0:0:0:
280,88,81339,1,8,0:0:0:0:
280,88,81485,1,0,0:0:0:0:
288,96,81630,1,0,0:0:0:0:
280,88,81776,1,0,0:0:0:0:
272,88,81921,1,8,0:0:0:0:
280,80,82067,1,0,0:0:0:0:
280,80,82213,1,8,0:0:0:0:
280,80,82358,1,0,0:0:0:0:
280,64,82504,1,8,0:0:0:0:
288,72,82650,1,0,0:0:0:0:
288,72,82795,1,4,0:0:0:0:
288,64,82941,1,0,0:0:0:0:
288,64,83087,1,8,0:0:0:0:
280,80,83232,1,0,0:0:0:0:
288,64,83378,1,8,0:0:0:0:
288,72,83669,1,0,0:0:0:0:
288,72,83815,1,8,0:0:0:0:
272,80,84106,1,0,0:0:0:0:
272,80,84252,1,8,0:0:0:0:
272,80,84397,1,0,0:0:0:0:
272,80,84543,1,8,0:0:0:0:
272,80,84688,1,0,0:0:0:0:
272,72,84834,1,4,0:0:0:0:
272,72,84980,1,0,0:0:0:0:
272,72,85125,1,8,0:0:0:0:
272,72,85271,1,0,0:0:0:0:
272,72,85417,1,8,0:0:0:0:
272,72,85708,1,0,0:0:0:0:
272,72,85853,1,8,0:0:0:0:
272,72,86145,1,0,0:0:0:0:
272,72,86290,1,8,0:0:0:0:
272,72,86436,1,0,0:0:0:0:
272,72,86582,1,8,0:0:0:0:
272,72,86727,1,8,0:0:0:0:
272,72,86873,1,0,0:0:0:0:
272,72,87019,1,8,0:0:0:0:
272,72,87164,1,4,0:0:0:0:
272,72,87310,1,0,0:0:0:0:
272,72,87455,1,8,0:0:0:0:
280,64,87601,1,0,0:0:0:0:
280,64,87747,1,8,0:0:0:0:
280,88,88038,1,0,0:0:0:0:
280,112,88184,1,8,0:0:0:0:
280,80,88475,1,0,0:0:0:0:
288,112,88620,1,8,0:0:0:0:
288,112,88766,1,0,0:0:0:0:
280,80,88912,1,8,0:0:0:0:
280,80,89057,1,0,0:0:0:0:
280,80,89203,1,4,0:0:0:0:
280,96,89349,1,0,0:0:0:0:
280,88,89494,1,8,0:0:0:0:
280,88,89640,1,0,0:0:0:0:
288,88,89786,1,8,0:0:0:0:
280,80,90077,1,0,0:0:0:0:
280,80,90222,1,8,0:0:0:0:
280,88,90514,1,0,0:0:0:0:
280,88,90659,1,12,0:0:0:0:
280,80,90805,1,0,0:0:0:0:
280,80,90951,1,8,0:0:0:0:
280,80,91096,1,8,0:0:0:0:
280,80,91242,1,0,0:0:0:0:
280,88,91387,1,8,0:0:0:0:
296,88,92115,1,0,0:0:0:0:
296,88,92406,1,0,0:0:0:0:
296,72,92552,1,0,0:0:0:0:
296,80,92698,1,8,0:0:0:0:
296,88,92843,1,0,0:0:0:0:
296,80,93134,1,8,0:0:0:0:
304,88,93426,1,0,0:0:0:0:
304,88,93571,1,8,0:0:0:0:
296,64,93863,1,0,0:0:0:0:
288,96,94154,1,8,0:0:0:0:
304,88,94299,1,8,0:0:0:0:
320,64,94445,1,0,0:0:0:0:
312,64,94736,1,8,0:0:0:0:
312,64,94882,1,0,0:0:0:0:
304,56,95028,1,8,0:0:0:0:
312,72,95173,1,0,0:0:0:0:
304,56,95465,1,8,0:0:0:0:
304,56,95756,1,8,0:0:0:0:
304,56,95901,1,8,0:0:0:0:
304,56,96047,1,0,0:0:0:0:
304,56,96120,1,0,0:0:0:0:
304,56,96193,1,8,0:0:0:0:
312,64,96484,1,0,0:0:0:0:
312,64,96630,1,8,0:0:0:0:
312,64,97066,1,8,0:0:0:0:
312,64,97503,1,8,0:0:0:0:
312,64,97649,1,0,0:0:0:0:
304,72,97940,1,8,0:0:0:0:
304,72,98232,1,0,0:0:0:0:
312,64,98377,1,0,0:0:0:0:
312,64,98523,1,8,0:0:0:0:
312,64,98814,1,0,0:0:0:0:
304,64,98960,1,8,0:0:0:0:
312,64,99397,1,8,0:0:0:0:
304,56,99833,1,8,0:0:0:0:
304,64,99979,1,0,0:0:0:0:
304,64,100270,1,8,0:0:0:0:
304,56,100562,1,0,0:0:0:0:
304,56,100853,1,0,0:0:0:0:
304,88,101144,1,0,0:0:0:0:
304,88,101435,1,8,0:0:0:0:
304,88,101727,1,0,0:0:0:0:
304,88,101872,1,0,0:0:0:0:
304,88,102018,1,8,0:0:0:0:
304,88,102164,1,8,0:0:0:0:
304,88,102309,1,0,0:0:0:0:
304,88,102455,1,8,0:0:0:0:
320,112,102600,1,8,0:0:0:0:
320,96,102892,1,8,0:0:0:0:
320,96,103037,1,0,0:0:0:0:
320,96,103110,1,0,0:0:0:0:
320,96,103183,1,8,0:0:0:0:
312,96,103620,1,0,0:0:0:0:
320,104,103766,1,8,0:0:0:0:
320,104,103911,1,8,0:0:0:0:
320,104,104057,1,0,0:0:0:0:
320,104,104202,1,8,0:0:0:0:
320,104,104494,1,8,0:0:0:0:
312,96,104639,1,0,0:0:0:0:
320,96,104785,1,0,0:0:0:0:
320,96,104931,1,8,0:0:0:0:
320,96,105222,1,0,0:0:0:0:
320,96,105367,1,8,0:0:0:0:
320,96,105440,1,8,0:0:0:0:
320,96,105513,1,0,0:0:0:0:
320,104,105950,1,8,0:0:0:0:
328,96,106096,1,0,0:0:0:0:
320,96,106241,1,8,0:0:0:0:
328,88,106533,1,0,0:0:0:0:
328,88,106678,1,8,0:0:0:0:
328,96,106969,1,0,0:0:0:0:
328,96,107115,1,0,0:0:0:0:
328,96,107261,1,8,0:0:0:0:
328,80,107552,1,8,0:0:0:0:
336,80,107843,1,12,0:0:0:0:
328,72,107989,1,12,0:0:0:0:
328,72,108134,1,4,0:0:0:0:
344,80,108280,1,12,0:0:0:0:
328,80,108717,1,4,0:0:0:0:
344,72,108863,1,12,0:0:0:0:
328,72,109008,1,12,0:0:0:0:
328,72,109154,1,4,0:0:0:0:
344,72,109591,1,12,0:0:0:0:
344,72,109736,1,4,0:0:0:0:
344,72,109882,1,12,0:0:0:0:
344,72,110028,1,4,0:0:0:0:
312,80,110319,1,8,0:0:0:0:
320,88,110465,1,0,0:0:0:0:
328,64,110610,1,8,0:0:0:0:
320,104,111047,1,0,0:0:0:0:
320,104,111193,1,0,0:0:0:0:
320,104,111338,1,12,0:0:0:0:
336,120,111630,1,8,0:0:0:0:
336,120,111775,1,0,0:0:0:0:
328,112,112067,1,0,0:0:0:0:
336,112,112212,1,8,0:0:0:0:
320,104,112358,1,0,0:0:0:0:
336,128,112504,1,8,0:0:0:0:
336,96,112576,1,8,0:0:0:0:
352,96,112649,1,0,0:0:0:0:
336,96,112795,1,8,0:0:0:0:
336,96,112940,1,0,0:0:0:0:
336,112,113232,1,0,0:0:0:0:
336,112,113377,1,8,0:0:0:0:
336,96,113523,1,0,0:0:0:0:
344,104,113669,1,8,0:0:0:0:
344,104,113741,1,8,0:0:0:0:
328,112,113814,1,0,0:0:0:0:
328,112,113960,1,8,0:0:0:0:
336,112,114105,1,0,0:0:0:0:
336,120,114397,1,8,0:0:0:0:
336,120,114542,1,0,0:0:0:0:
336,112,114688,1,8,0:0:0:0:
336,112,114834,1,8,0:0:0:0:
336,112,114906,1,8,0:0:0:0:
336,112,114979,1,0,0:0:0:0:
336,112,115125,1,8,0:0:0:0:
360,128,115271,1,0,0:0:0:0:
352,112,115562,1,8,0:0:0:0:
352,112,115707,1,0,0:0:0:0:
336,112,115853,1,8,0:0:0:0:
336,112,115999,1,4,0:0:0:0:
352,120,116144,1,0,0:0:0:0:
344,112,116290,1,8,0:0:0:0:
352,104,116436,1,0,0:0:0:0:
352,112,116581,1,8,0:0:0:0:
360,96,116872,1,0,0:0:0:0:
360,112,117018,1,8,0:0:0:0:
352,104,117164,1,0,0:0:0:0:
336,88,117309,1,0,0:0:0:0:
352,112,117455,1,8,0:0:0:0:
352,112,117746,1,0,0:0:0:0:
352,112,117892,1,0,0:0:0:0:
360,120,118038,1,8,0:0:0:0:
368,128,118183,1,0,0:0:0:0:
360,120,118329,1,12,0:0:0:0:
360,120,118620,1,0,0:0:0:0:
352,120,118766,1,8,0:0:0:0:
360,128,119057,1,8,0:0:0:0:
352,120,119203,1,0,0:0:0:0:
360,120,119348,1,8,0:0:0:0:
352,120,119639,1,8,0:0:0:0:
352,136,119785,1,8,0:0:0:0:
352,136,119931,1,0,0:0:0:0:
352,136,120076,1,8,0:0:0:0:
360,136,120149,1,8,0:0:0:0:
360,136,120222,1,0,0:0:0:0:
360,136,120295,1,0,0:0:0:0:
360,136,120368,1,8,0:0:0:0:
352,136,120513,1,0,0:0:0:0:
352,136,120659,1,12,0:0:0:0:
360,136,120950,1,0,0:0:0:0:
328,144,121096,1,8,0:0:0:0:
360,136,121387,1,0,0:0:0:0:
352,136,121533,1,8,0:0:0:0:
352,136,121678,1,0,0:0:0:0:
352,128,121824,1,8,0:0:0:0:
344,120,121897,1,8,0:0:0:0:
344,120,121970,1,0,0:0:0:0:
360,136,122115,1,0,0:0:0:0:
352,128,122261,1,8,0:0:0:0:
344,128,122552,1,8,0:0:0:0:
352,120,122698,1,0,0:0:0:0:
352,128,122843,1,0,0:0:0:0:
344,120,122989,1,12,0:0:0:0:
352,120,123280,1,8,0:0:0:0:
352,136,123426,1,0,0:0:0:0:
360,136,123717,1,0,0:0:0:0:
360,136,123863,1,8,0:0:0:0:
352,128,124008,1,8,0:0:0:0:
352,128,124154,1,0,0:0:0:0:
352,120,124445,1,8,0:0:0:0:
360,128,124591,1,0,0:0:0:0:
352,120,124882,1,0,0:0:0:0:
352,112,125028,1,8,0:0:0:0:
352,112,125173,1,0,0:0:0:0:
352,120,125319,1,12,0:0:0:0:
352,112,125465,1,8,0:0:0:0:
336,96,125610,1,0,0:0:0:0:
344,112,125756,1,0,0:0:0:0:
344,112,125902,1,8,0:0:0:0:
352,112,126193,1,8,0:0:0:0:
352,104,126339,1,0,0:0:0:0:
344,80,126484,1,8,0:0:0:0:
352,96,126630,1,0,0:0:0:0:
352,104,126775,1,8,0:0:0:0:
344,88,127067,1,0,0:0:0:0:
344,88,127212,1,0,0:0:0:0:
360,96,127358,1,8,0:0:0:0:
360,96,127504,1,8,0:0:0:0:
360,96,127649,1,4,0:0:0:0:
360,88,127940,1,8,0:0:0:0:
360,88,128086,1,0,0:0:0:0:
368,88,128232,1,8,0:0:0:0:
344,88,128377,1,8,0:0:0:0:
352,80,128523,1,0,0:0:0:0:
352,80,128669,1,8,0:0:0:0:
344,104,128960,1,0,0:0:0:0:
352,96,129105,1,8,0:0:0:0:
360,64,129251,1,0,0:0:0:0:
352,72,129397,1,8,0:0:0:0:
360,88,129542,1,8,0:0:0:0:
360,88,129688,1,0,0:0:0:0:
360,72,129834,1,0,0:0:0:0:
360,72,129979,1,12,0:0:0:0:
336,96,130271,1,8,0:0:0:0:
360,80,130416,1,8,0:0:0:0:
336,80,130562,1,0,0:0:0:0:
336,80,130707,1,0,0:0:0:0:
336,72,130853,1,8,0:0:0:0:
344,72,130999,1,0,0:0:0:0:
336,64,131290,1,0,0:0:0:0:
360,64,131436,1,8,0:0:0:0:
360,64,131581,1,0,0:0:0:0:
352,72,131727,1,8,0:0:0:0:
352,72,131872,1,0,0:0:0:0:
352,72,132018,1,8,0:0:0:0:
352,80,132164,1,8,0:0:0:0:
352,80,132309,1,0,0:0:0:0:
352,80,132601,1,8,0:0:0:0:
352,72,132746,1,0,0:0:0:0:
352,72,132892,1,8,0:0:0:0:
352,72,132965,1,8,0:0:0:0:
352,72,133038,1,0,0:0:0:0:
352,80,133110,1,0,0:0:0:0:
352,80,133183,1,8,0:0:0:0:
352,80,133329,1,0,0:0:0:0:
352,80,133474,1,12,0:0:0:0:
256,192,133620,12,0,134494,0:0:0:0:
296,128,134639,5,4,0:0:0:0:
