osu file format v14

[General]
AudioFilename: nevereverland.mp3
AudioLeadIn: 0
PreviewTime: 111047
Countdown: 0
SampleSet: None
StackLeniency: 0.7
Mode: 0
LetterboxInBreaks: 0
WidescreenStoryboard: 0

[Editor]
Bookmarks: 113887
DistanceSpacing: 1.4
BeatDivisor: 4
GridSize: 32
TimelineZoom: 1.6

[Metadata]
Title:Nevereverland
TitleUnicode:Nevereverland
Artist:nano
ArtistUnicode:ナノ
Creator:zhu
Version:Light Insane
Source:
Tags:naoki itou n neko アークix nifty cordi victorfernando -tochi starset hb24 short version
BeatmapID:1518022
BeatmapSetID:621438

[Difficulty]
HPDrainRate:5
CircleSize:3.5
OverallDifficulty:7
ApproachRate:9
SliderMultiplier:1.2
SliderTickRate:1

[Events]
//Background and Video events
0,0,"bg.jpg",0,0
//Break Periods
2,41054,44914
2,91587,100253
//Storyboard Layer 0 (Background)
//Storyboard Layer 1 (Fail)
//Storyboard Layer 2 (Pass)
//Storyboard Layer 3 (Foreground)
//Storyboard Sound Samples

[TimingPoints]
934,400,4,2,1,20,1,0
13734,-133.333333333333,4,2,1,20,0,0
40854,291.26213592233,4,1,0,75,1,0
45514,-100,4,3,0,75,0,0
50174,-100,4,1,0,70,0,1
58329,-100,4,3,0,70,0,1
58620,-100,4,3,0,70,0,1
59494,-100,4,3,0,70,0,1
64154,-100,4,3,0,65,0,0
82795,-100,4,3,0,65,0,0
91533,291.26213592233,4,2,1,100,1,0
100853,-133.333333333333,4,3,0,35,0,0
107843,291.26213592233,3,1,0,50,1,0
110319,-100,3,2,1,50,0,0
111339,291.26213592233,4,1,0,70,1,1
111339,-90.9090909090909,4,1,0,70,0,1
134639,-100,4,1,0,55,0,0

[Colours]
Combo1 : 0,123,159
Combo2 : 192,192,192
SliderBorder : 255,255,255
SliderTrackOverride : 0,0,0

[HitObjects]
400,272,13734,6,0,P|336:332|320:336,1,90.0000034332277,4|0,0:1|0:0,0:0:0:0:
256,336,14334,1,2,0:0:0:0:
176,192,14934,1,2,0:0:0:0:
176,192,15134,2,0,P|192:172|224:148,1,45.0000017166138,2|0,0:0|0:0,0:0:0:0:
278,56,15534,2,0,L|246:4,2,45.0000017166138,2|0|0,0:0|0:0|0:0,0:0:0:0:
323,133,16134,1,2,0:0:0:0:
371,223,16334,1,2,0:0:0:0:
371,223,16534,2,0,P|364:247|339:277,1,45.0000017166138
285,324,16934,6,0,P|237:340|189:324,1,90.0000034332277,2|2,0:0|0:0,0:0:0:0:
189,244,17534,2,0,P|221:228|285:244,2,90.0000034332277,2|2|2,0:0|0:0|0:0,0:0:0:0:
40,240,18734,1,0,0:0:0:0:
68,154,18934,2,0,L|88:98,1,45.0000017166138,2|0,0:0|0:0,0:0:0:0:
114,29,19334,1,2,0:0:0:0:
256,100,19734,1,2,0:0:0:0:
428,56,20134,6,0,P|440:120|436:196,1,135.000005149841,4|2,0:1|0:0,0:0:0:0:
266,288,21334,1,2,0:0:0:0:
266,288,21534,2,0,L|257:237,1,45.0000017166138,2|0,0:0|0:0,0:0:0:0:
296,160,21934,2,0,L|340:196,2,45.0000017166138,2|0|2,0:0|0:0|0:0,0:0:0:0:
233,102,22534,1,2,0:0:0:0:
149,97,22734,1,2,0:0:0:0:
75,131,22934,1,2,0:0:0:0:
41,205,23134,1,0,0:0:0:0:
48,288,23334,6,0,P|76:332|108:360,1,90.0000034332276,2|0,0:0|0:0,0:0:0:0:
196,344,23934,2,0,P|168:300|136:272,1,90.0000034332276,2|0,0:0|0:0,0:0:0:0:
96,208,24534,1,2,0:0:0:0:
96,208,24734,2,0,P|149:160|168:90,1,135.000005149841,2|2,0:0|0:0,0:0:0:0:
27,78,25734,1,2,0:0:0:0:
27,78,26134,1,2,0:0:0:0:
172,242,26534,5,4,0:1:0:0:
172,242,26934,2,0,L|160:298,2,45.0000017166138,2|0|2,0:0|0:0|0:0,0:0:0:0:
198,161,27534,2,0,P|222:129|238:113,1,45.0000017166138,0|0,0:0|0:0,0:0:0:0:
292,72,27934,2,0,P|352:88|404:136,1,135.000005149841,2|2,0:0|0:0,0:0:0:0:
448,216,28734,1,0,0:0:0:0:
408,296,28934,2,0,L|376:332,1,45.0000017166138,2|0,0:0|0:0,0:0:0:0:
320,264,29334,2,0,L|276:280,1,45.0000017166138,0|0,0:0|0:0,0:0:0:0:
280,192,29734,6,0,P|252:152|216:124,1,90.0000034332276,2|2,0:0|0:0,0:0:0:0:
136,144,30334,2,0,P|164:184|196:210,1,90.0000034332276,0|0,0:0|0:0,0:0:0:0:
274,246,30934,2,0,L|274:338,1,90.0000034332276,2|0,0:0|0:0,0:0:0:0:
281,163,31534,1,0,0:0:0:0:
281,163,31734,2,0,L|323:147,1,45.0000017166138,2|0,0:0|0:0,0:0:0:0:
248,88,32134,2,0,L|224:40,1,45.0000017166138,2|0,0:0|0:0,0:0:0:0:
168,112,32534,2,0,L|124:128,1,45.0000017166138,2|0,0:0|0:0,0:0:0:0:
176,192,32934,6,0,P|196:248|244:308,1,135.000005149841,2|2,0:0|0:0,0:0:0:0:
472,200,34134,1,2,0:0:0:0:
472,200,34334,2,0,L|472:152,1,45.0000017166138,0|0,0:0|0:0,0:0:0:0:
416,88,34734,1,2,0:0:0:0:
330,75,34934,1,2,0:0:0:0:
252,107,35134,1,2,0:0:0:0:
120,216,35534,2,0,L|104:160,2,45.0000017166138,0|0|0,0:0|0:0|0:0,0:0:0:0:
152,304,36134,6,0,P|196:356|220:368,1,90.0000034332276,2|0,0:0|0:0,0:0:0:0:
330,366,36734,2,0,P|348:356|392:304,1,90.0000034332276,2|0,0:0|0:0,0:0:0:0:
396,196,37334,1,0,0:0:0:0:
396,196,37534,2,0,P|336:172|310:101,1,135.000005149841,2|2,0:0|0:0,0:0:0:0:
379,15,38534,2,0,P|403:51|415:104,1,90.0000034332277,2|2,0:0|0:0,0:0:0:0:
396,196,39334,1,4,0:1:0:0:
256,192,39434,12,0,40854,0:0:0:0:
392,272,45514,6,0,P|416:248|440:212,1,60,8|0,0:0|0:0,0:0:0:0:
488,136,45805,1,2,0:0:0:0:
356,196,45951,2,0,P|365:164|368:121,1,60,8|2,0:0|0:0,0:0:0:0:
352,40,46242,1,0,0:0:0:0:
288,148,46387,2,0,P|280:116|261:77,1,60,8|0,0:0|0:0,0:0:0:0:
208,8,46679,1,2,0:0:0:0:
204,140,46824,2,0,P|180:116|144:92,1,60,8|2,0:0|0:0,0:0:0:0:
64,72,47116,1,0,0:0:0:0:
128,184,47261,6,0,P|128:216|116:256,1,60,8|0,0:0|0:0,0:0:0:0:
41,272,47553,2,0,P|41:240|53:200,1,60,10|0,0:0|0:0,0:0:0:0:
204,140,47844,6,0,P|268:120|320:132,1,120,8|2,0:0|0:0,0:0:0:0:
384,184,48281,1,0,0:0:0:0:
384,184,48426,2,0,P|360:204|320:216,1,60,2|0,0:0|0:0,0:0:0:0:
392,104,48718,2,0,P|384:72|364:32,1,60,8|0,0:0|0:0,0:0:0:0:
289,40,49009,2,0,L|257:22,3,30
221,31,49300,2,0,L|193:43,3,30
153,30,49591,1,0,0:0:0:0:
312,131,49883,1,0,0:0:0:0:
452,256,50174,6,0,P|424:280|396:296,1,60,4|0,0:0|0:0,0:0:0:0:
328,240,50465,2,0,P|356:216|376:205,1,60,8|0,0:0|0:0,0:0:0:0:
456,164,50756,2,0,P|408:120|352:116,1,120,0|0,0:0|0:0,0:0:0:0:
276,160,51193,2,0,P|236:208|188:248,1,120,0|0,0:0|0:0,0:0:0:0:
112,280,51630,2,0,P|96:244|88:212,1,60,8|0,0:0|0:0,0:0:0:0:
148,164,51921,2,0,P|140:136|127:109,1,60,0|0,0:0|0:0,0:0:0:0:
48,144,52213,1,8,0:0:0:0:
260,20,52504,6,0,P|276:56|284:92,1,60,4|0,0:0|0:0,0:0:0:0:
228,148,52795,2,0,P|212:112|204:76,1,60,8|0,0:0|0:0,0:0:0:0:
172,14,53087,2,0,P|102:42|64:68,1,120,0|8,0:0|0:0,0:0:0:0:
132,144,53523,2,0,P|120:208|120:272,1,120,0|0,0:0|0:0,0:0:0:0:
208,256,53960,2,0,P|216:292|224:316,1,60,8|0,0:0|0:0,0:0:0:0:
304,352,54252,1,0,0:0:0:0:
328,264,54397,1,0,0:0:0:0:
352,176,54543,2,0,P|384:160|412:148,1,60,8|0,0:0|0:0,0:0:0:0:
468,216,54834,6,0,P|436:232|408:244,1,60,4|0,0:0|0:0,0:0:0:0:
328,264,55125,2,0,P|300:256|268:244,1,60,8|0,0:0|0:0,0:0:0:0:
264,156,55417,2,0,P|264:84|252:24,1,120,0|8,0:0|0:0,0:0:0:0:
184,88,55853,2,0,P|144:40|100:0,1,120,0|0,0:0|0:0,0:0:0:0:
72,88,56290,2,0,P|36:72|8:64,1,60,8|0,0:0|0:0,0:0:0:0:
16,156,56582,1,0,0:0:0:0:
28,244,56727,1,0,0:0:0:0:
108,284,56873,2,0,P|140:284|176:280,1,60,8|0,0:0|0:0,0:0:0:0:
208,200,57164,6,0,P|240:228|256:260,1,60,4|0,0:0|0:0,0:0:0:0:
340,240,57455,2,0,P|332:280|312:312,1,60,8|0,0:0|0:0,0:0:0:0:
240,328,57747,2,0,P|192:304|148:256,1,120,0|8,0:0|0:0,0:0:0:0:
104,184,58184,1,0,0:0:0:0:
168,128,58329,6,0,P|184:120|224:64,1,60
292,44,58620,1,8,0:0:0:0:
356,108,58766,1,0,0:0:0:0:
356,200,58912,2,0,P|356:236|352:264,1,60,0|0,0:0|0:0,0:0:0:0:
272,235,59203,2,0,P|272:271|268:299,1,60,8|0,0:0|0:0,0:0:0:0:
190,264,59494,5,4,0:0:0:0:
190,264,59640,2,0,P|147:226|125:161,1,120
147,86,60077,1,8,0:2:0:0:
304,24,60368,1,0,0:0:0:0:
304,24,60514,2,0,P|368:24|440:64,1,120
440,144,60951,1,8,0:2:0:0:
440,144,61241,2,0,L|381:166,1,60,0|0,0:0|0:0,0:0:0:0:
448,264,61533,2,0,L|384:288,1,60,8|8,0:2|0:2,0:0:0:0:
300,304,61824,6,0,L|328:368,2,60,0|0|8,0:0|0:0|0:2,0:0:0:0:
228,240,62261,2,0,L|200:168,2,60,0|0|0,0:0|0:0|0:0,0:0:0:0:
168,331,62697,1,8,0:2:0:0:
168,331,62843,1,0,0:0:0:0:
61,310,62988,1,0,0:0:0:0:
61,310,63134,1,0,0:0:0:0:
56,192,63280,2,0,P|76:160|96:140,1,60,8|0,0:2|0:0,0:0:0:0:
180,136,63571,2,0,P|236:156|296:168,1,120,0|0,0:0|0:0,0:0:0:0:
464,120,64154,6,0,P|448:204|432:256,1,120,4|8,0:1|0:2,0:0:0:0:
392,316,64591,1,0,0:0:0:0:
304,304,64737,2,0,P|268:320|236:340,2,60,0|0|8,0:0|0:0|0:2,0:0:0:0:
288,120,65320,2,0,P|256:72|184:20,1,120,0|8,0:0|0:2,0:0:0:0:
112,40,65756,2,0,P|152:96|216:140,1,120
224,216,66193,1,8,0:2:0:0:
184,296,66339,1,0,0:0:0:0:
276,292,66485,6,0,P|308:260|308:180,2,120,0|8|0,0:0|0:2|0:0,0:0:0:0:
184,296,67213,2,0,P|148:292|108:284,1,60,0|8,0:0|0:2,0:0:0:0:
52,236,67503,2,0,P|44:156|48:92,1,120,0|0,0:0|0:0,0:0:0:0:
113,66,67941,2,0,P|144:91|169:116,1,60,8|0,0:2|0:0,0:0:0:0:
242,105,68232,2,0,P|270:76|307:51,1,60
364,34,68522,1,8,0:2:0:0:
411,236,68814,6,0,P|366:273|307:280,2,120,4|8|0,0:1|0:2|0:0,0:0:0:0:
464,160,69542,1,0,0:0:0:0:
428,76,69687,1,8,0:2:0:0:
260,140,69979,2,0,L|344:148,2,60,0|0|8,0:0|0:0|0:2,0:0:0:0:
172,132,70416,2,0,P|112:176|68:220,1,120,0|0,0:0|0:0,0:0:0:0:
120,288,70853,2,0,P|148:268|172:244,1,60,8|0,0:2|0:0,0:0:0:0:
288,272,71144,6,0,L|416:288,2,120,4|8|0,0:1|0:2|0:0,0:0:0:0:
300,184,71873,2,0,P|304:152|296:120,1,60,0|8,0:0|0:2,0:0:0:0:
280,40,72163,2,0,P|216:40|152:48,1,120,0|0,0:0|0:0,0:0:0:0:
112,144,72601,2,0,P|144:144|176:136,1,60,8|0,0:2|0:0,0:0:0:0:
224,216,72891,1,0,0:0:0:0:
176,292,73037,1,0,0:0:0:0:
240,356,73183,1,8,0:2:0:0:
448,264,73475,5,4,0:1:0:0:
420,88,73765,2,0,P|460:64|480:56,2,60,8|0|0,0:2|0:0|0:0,0:0:0:0:
336,120,74202,1,0,0:0:0:0:
248,104,74349,1,8,0:2:0:0:
164,132,74494,2,0,P|176:208|208:248,2,120
184,48,75222,2,0,P|144:40|112:40,1,60,0|0,0:0|0:0,0:0:0:0:
72,104,75513,2,0,P|52:132|40:164,1,60,8|0,0:2|0:0,0:0:0:0:
88,232,75804,5,4,0:1:0:0:
268,216,76095,2,0,L|352:208,2,60,8|0|0,0:2|0:0|0:0,0:0:0:0:
228,136,76532,1,0,0:0:0:0:
255,56,76678,1,8,0:2:0:0:
338,63,76824,2,0,P|402:95|442:135,1,120
484,197,77261,2,0,P|492:237|512:273,1,60,8|0,0:2|0:0,0:0:0:0:
507,338,77552,1,0,0:0:0:0:
424,324,77697,1,0,0:0:0:0:
343,347,77843,1,8,0:2:0:0:
264,144,78135,6,0,P|320:132|360:80,2,120,4|8|0,0:1|0:2|0:0,0:0:0:0:
176,124,78862,1,0,0:0:0:0:
88,148,79008,2,0,P|96:188|112:224,1,60,8|0,0:2|0:0,0:0:0:0:
164,272,79299,2,0,P|224:260|292:256,1,120,0|8,0:0|0:2,0:0:0:0:
352,336,79736,2,0,P|292:348|224:352,1,120,0|0,0:0|0:0,0:0:0:0:
148,360,80173,1,8,0:2:0:0:
72,308,80319,1,0,0:0:0:0:
88,220,80464,6,0,P|88:156|92:88,1,120,4|8,0:1|0:2,0:0:0:0:
176,56,80902,2,0,P|236:36|296:8,2,120,0|0|0,0:0|0:0|0:0,0:0:0:0:
176,148,81630,2,0,P|204:184|224:216,1,60
248,280,81920,1,8,0:2:0:0:
424,320,82212,2,0,P|420:284|408:248,1,60
464,188,82504,2,0,P|436:172|404:164,1,60,8|0,0:2|0:0,0:0:0:0:
357,97,82795,6,0,P|380:77|395:47,2,60,4|0|8,0:1|0:0|0:2,0:0:0:0:
304,24,83232,1,0,0:0:0:0:
212,40,83378,2,0,P|236:80|268:152,1,120,8|0,0:2|0:0,0:0:0:0:
344,192,83815,2,0,P|312:240|268:288,1,120,8|0,0:2|0:0,0:0:0:0:
196,336,84252,2,0,P|176:296|168:264,1,60,8|0,0:2|0:0,0:0:0:0:
152,192,84543,1,8,0:2:0:0:
344,192,84834,6,0,P|380:192|412:196,1,60,4|0,0:1|0:0,0:0:0:0:
368,276,85125,2,0,P|332:276|296:272,1,60,8|0,0:2|0:0,0:0:0:0:
256,200,85417,2,0,P|272:144|332:100,1,120,8|0,0:2|0:0,0:0:0:0:
408,116,85853,2,0,P|388:56|344:16,1,120,8|0,0:2|0:0,0:0:0:0:
260,32,86290,2,0,P|232:52|192:68,1,60,8|0,0:2|0:0,0:0:0:0:
156,136,86582,1,8,0:2:0:0:
168,224,86727,1,0,0:0:0:0:
232,288,86873,2,0,P|272:300|292:308,1,60,8|0,0:2|0:0,0:0:0:0:
376,328,87163,6,0,P|416:316|452:300,2,60,4|0|8,0:1|0:0|0:2,0:0:0:0:
357,241,87601,1,0,0:0:0:0:
376,152,87747,2,0,P|312:164|264:220,1,120,8|0,0:2|0:0,0:0:0:0:
276,292,88184,2,0,P|216:268|184:204,1,120,8|0,0:2|0:0,0:0:0:0:
212,136,88620,2,0,P|176:136|136:148,1,60,8|0,0:2|0:0,0:0:0:0:
100,216,88912,1,8,0:2:0:0:
276,292,89203,6,0,P|312:288|340:276,1,60,4|0,0:1|0:0,0:0:0:0:
344,188,89494,2,0,P|308:192|280:204,1,60,8|0,0:2|0:0,0:0:0:0:
200,232,89786,2,0,P|156:176|128:112,1,120,8|0,0:2|0:0,0:0:0:0:
196,68,90222,2,0,P|256:60|316:68,1,120,8|0,0:2|0:0,0:0:0:0:
396,104,90659,2,0,P|436:88|456:72,1,60,8|0,0:2|0:0,0:0:0:0:
492,156,90951,6,0,P|504:192|508:216,1,60,8|8,0:2|0:0,0:0:0:0:
488,300,91242,1,8,0:0:0:0:
424,236,91387,1,8,0:0:0:0:
317,319,100853,6,0,P|377:319|413:307,1,90.0000034332277,0|0,0:0|0:0,0:0:0:0:
406,311,101290,1,0,0:0:0:0:
445,221,101435,2,0,P|453:177|445:129,1,90.0000034332277,8|0,0:2|0:0,0:0:0:0:
446,132,101871,1,2,0:0:0:0:
319,96,102163,1,0,0:0:0:0:
180,97,102455,2,0,P|184:177|164:237,1,135.000005149841,2|0,0:0|0:0,0:0:0:0:
262,350,103183,6,0,P|258:270|278:210,1,135.000005149841,8|0,0:2|0:0,0:0:0:0:
274,219,103765,1,10,0:2:0:0:
362,267,104056,1,2,0:0:0:0:
362,267,104202,2,0,P|394:299|434:327,2,90.0000034332277,2|0|2,0:0|0:0|0:0,0:0:0:0:
371,175,104930,2,0,P|383:151|391:119,1,45.0000017166138,10|0,0:2|0:0,0:0:0:0:
404,49,105221,1,2,0:0:0:0:
288,72,105512,6,0,P|272:157|193:193,2,180.000006866455,8|8|2,0:2|0:2|0:0,0:0:0:0:
272,264,107260,1,10,0:2:0:0:
404,316,107552,2,0,P|404:280|400:256,1,45.0000017166138,0|0,0:0|0:0,0:0:0:0:
406,158,107843,6,0,L|406:126|406:86,2,60,2|0|2,0:0|0:0|0:0,0:0:0:0:
338,218,108280,1,0,0:0:0:0:
84,92,108717,6,0,P|56:84|8:56,2,60,2|0|2,0:0|0:0|0:0,0:0:0:0:
172,116,109153,1,0,0:0:0:0:
352,320,109591,6,0,P|388:308|424:304,2,60,2|0|2,0:0|0:0|0:0,0:0:0:0:
264,344,110027,1,0,0:0:0:0:
128,228,110319,5,2,0:0:0:0:
128,228,110465,1,2,0:0:0:0:
128,228,110610,1,2,0:0:0:0:
335,167,111047,2,0,P|368:200|375:227,1,60,0|0,0:0|0:0,0:0:0:0:
296,248,111339,6,0,P|208:232|184:200,1,132.00000402832,4|8,0:0|0:0,0:0:0:0:
272,160,111776,2,0,P|320:160|352:184,1,66.0000020141602,0|0,0:0|0:0,0:0:0:0:
447,242,112067,1,0,0:0:0:0:
401,116,112212,1,8,0:0:0:0:
363,244,112358,1,0,0:0:0:0:
469,162,112504,6,0,P|481:117|469:82,2,66.0000020141602,0|0|8,0:0|0:0|0:0,0:0:0:0:
401,116,112941,2,0,P|361:92|320:80,1,66.0000020141602,0|0,0:2|0:0,0:0:0:0:
215,44,113232,1,0,0:0:0:0:
294,152,113377,1,8,0:0:0:0:
294,18,113523,1,0,0:0:0:0:
208,128,113670,6,0,P|175:111|136:97,2,66.0000020141602,4|0|8,0:0|0:0|0:0,0:0:0:0:
222,213,114105,2,0,P|216:248|225:279,1,66.0000020141602,0|0,0:0|0:0,0:0:0:0:
373,216,114397,1,0,0:0:0:0:
306,265,114542,1,8,0:0:0:0:
356,129,114688,1,0,0:0:0:0:
250,47,114833,5,0,0:0:0:0:
288,176,114979,1,0,0:0:0:0:
333,50,115125,1,8,0:0:0:0:
222,124,115271,2,0,P|198:168|184:208,1,66.0000020141602,0|0,0:2|0:0,0:0:0:0:
141,328,115562,2,0,P|109:318|80:304,2,66.0000020141602,0|8|0,0:0|0:0|0:0,0:0:0:0:
313,297,115999,5,4,0:0:0:0:
171,256,116145,1,0,0:0:0:0:
273,221,116291,1,8,0:0:0:0:
224,328,116437,1,0,0:0:0:0:
289,193,116582,2,0,P|309:149|313:101,1,66.0000020141602
272,55,116872,5,8,0:0:0:0:
420,29,117017,1,0,0:0:0:0:
418,112,117163,1,0,0:0:0:0:
340,0,117309,1,0,0:0:0:0:
426,130,117455,2,0,P|432:172|426:210,1,66.0000020141602,8|0,0:0|0:0,0:0:0:0:
368,272,117746,2,0,P|412:292|460:296,2,66.0000020141602,0|0|8,0:0|0:0|0:0,0:0:0:0:
297,211,118184,1,0,0:0:0:0:
204,95,118329,6,0,P|143:74|82:94,1,132.00000402832,4|8,0:0|0:0,0:0:0:0:
143,184,118767,2,0,L|127:280,2,66.0000020141602,0|0|0,0:0|0:0|0:0,0:0:0:0:
221,260,119204,2,0,P|265:260|305:248,1,66.0000020141602,8|0,0:0|0:0,0:0:0:0:
373,232,119494,1,0,0:0:0:0:
332,98,119639,1,0,0:0:0:0:
288,176,119785,1,8,0:0:0:0:
417,152,119931,1,0,0:0:0:0:
466,246,120076,2,0,L|497:267,2,33.0000010070801
433,333,120368,2,0,L|464:354,2,33.0000010070801,8|0|0,0:0|0:0|0:0,0:0:0:0:
330,344,120659,6,0,P|272:338|240:322,1,66.0000020141602,4|0,0:0|0:0,0:0:0:0:
198,240,120950,2,0,P|256:246|286:260,1,66.0000020141602,8|0,0:0|0:0,0:0:0:0:
345,227,121241,1,0,0:0:0:0:
403,161,121387,2,0,P|413:124|406:72,2,66.0000020141602,0|8|0,0:0|0:0|0:0,0:0:0:0:
325,119,121824,1,0,0:0:0:0:
232,70,121970,1,0,0:0:0:0:
320,26,122115,1,8,0:0:0:0:
235,170,122261,2,0,P|307:226|371:218,1,132.00000402832,0|0,0:0|0:0,0:0:0:0:
403,161,122698,2,0,P|429:195|425:245,1,66.0000020141602,8|0,0:0|0:0,0:0:0:0:
393,306,122989,6,0,P|309:342|245:350,1,132.00000402832,4|8,0:0|0:0,0:0:0:0:
176,264,123426,2,0,P|144:296|120:328,2,66.0000020141602,0|0|0,0:0|0:0|0:0,0:0:0:0:
266,263,123863,1,8,0:0:0:0:
186,168,124008,1,4,0:2:0:0:
277,177,124154,2,0,P|363:161|405:139,1,132.00000402832,0|8,0:0|0:0,0:0:0:0:
394,48,124591,2,0,P|308:64|266:86,1,132.00000402832,0|0,0:0|0:0,0:0:0:0:
277,177,125029,2,0,P|246:194|189:213,1,66.0000020141602,8|0,0:0|0:0,0:0:0:0:
90,317,125320,5,4,0:0:0:0:
149,185,125466,1,0,0:0:0:0:
175,278,125611,1,8,0:0:0:0:
59,222,125757,1,0,0:0:0:0:
202,290,125903,2,0,P|241:307|282:314,1,66.0000020141602,0|0,0:0|0:0,0:0:0:0:
368,257,126194,5,8,0:0:0:0:
280,143,126339,1,0,0:0:0:0:
272,240,126485,1,0,0:0:0:0:
385,164,126631,1,0,0:0:0:0:
256,252,126775,2,0,P|216:280|184:304,1,66.0000020141602,8|0,0:0|0:0,0:0:0:0:
90,317,127068,1,0,0:0:0:0:
59,222,127213,1,0,0:0:0:0:
103,140,127358,1,8,0:0:0:0:
295,216,127648,6,0,P|243:228|203:304,1,132.00000402832,4|8,0:0|0:0,0:0:0:0:
299,304,128085,2,0,P|343:316|371:320,2,66.0000020141602,0|0|0,0:0|0:0|0:0,0:0:0:0:
208,282,128523,1,8,0:0:0:0:
118,249,128669,2,0,P|84:237|56:219,1,66.0000020141602
6,145,128960,2,0,P|7:110|25:67,1,66.0000020141602,0|8,0:0|0:0,0:0:0:0:
89,22,129251,1,0,0:0:0:0:
89,22,129397,1,0,0:0:0:0:
179,8,129541,1,0,0:0:0:0:
179,8,129688,2,0,P|216:6|255:18,1,66.0000020141602,8|0,0:0|0:0,0:0:0:0:
423,28,129979,6,0,P|371:44|291:80,1,132.00000402832,4|8,0:0|0:0,0:0:0:0:
251,160,130415,2,0,P|243:188|235:248,2,66.0000020141602,0|0|0,0:0|0:0|0:0,0:0:0:0:
196,85,130852,1,8,0:0:0:0:
105,105,130998,1,0,0:0:0:0:
67,189,131144,2,0,P|63:249|79:321,1,132.00000402832,0|8,0:0|0:0,0:0:0:0:
170,320,131580,1,0,0:0:0:0:
261,301,131727,2,0,P|265:265|265:229,1,66.0000020141602,0|0,0:0|0:0,0:0:0:0:
325,165,132018,2,0,P|353:157|401:153,1,66.0000020141602,8|0,0:0|0:0,0:0:0:0:
480,135,132309,6,0,P|472:191|480:271,1,132.00000402832,4|8,0:0|0:0,0:0:0:0:
480,358,132746,2,0,P|426:340|336:340,1,132.00000402832,0|0,0:0|0:0,0:0:0:0:
261,301,133182,1,0,0:0:0:0:
261,301,133328,1,0,0:0:0:0:
170,320,133474,2,0,P|107:307|72:253,1,132.00000402832,12|0,0:0|0:0,0:0:0:0:
64,160,133911,2,0,P|126:172|161:226,2,132.00000402832,0|0|0,0:0|0:0|0:0,0:0:0:0:
46,359,134639,5,4,0:0:0:0:
