osu file format v14

[General]
AudioFilename: nevereverland.mp3
AudioLeadIn: 0
PreviewTime: 111047
Countdown: 0
SampleSet: None
StackLeniency: 0.7
Mode: 0
LetterboxInBreaks: 0
WidescreenStoryboard: 0

[Editor]
DistanceSpacing: 0.5
BeatDivisor: 4
GridSize: 32
TimelineZoom: 1.3

[Metadata]
Title:Nevereverland
TitleUnicode:Nevereverland
Artist:nano
ArtistUnicode:ナノ
Creator:zhu
Version:Insane
Source:
Tags:naoki itou n neko アークix nifty cordi victorfernando -tochi starset hb24 short version
BeatmapID:1386281
BeatmapSetID:621438

[Difficulty]
HPDrainRate:5
CircleSize:3.7
OverallDifficulty:8
ApproachRate:9
SliderMultiplier:1.8
SliderTickRate:1

[Events]
//Background and Video events
0,0,"bg.jpg",0,0
//Break Periods
2,41054,44914
2,91605,100253
//Storyboard Layer 0 (Background)
//Storyboard Layer 1 (Fail)
//Storyboard Layer 2 (Pass)
//Storyboard Layer 3 (Foreground)
//Storyboard Sound Samples

[TimingPoints]
934,400,4,2,1,20,1,0
934,-200,4,2,1,20,0,0
25334,-133.333333333333,4,2,1,20,0,0
32934,-200,4,2,1,20,0,0
34134,-133.333333333333,4,2,1,20,0,0
37534,-200,4,2,1,20,0,0
40434,-133.333333333333,4,2,1,20,0,0
40734,-133.333333333333,4,2,1,20,0,0
40854,291.26213592233,4,1,0,75,1,0
45514,-100,4,3,0,75,0,0
50174,-100,4,1,0,70,0,1
58329,-100,4,3,0,70,0,1
58620,-100,4,3,0,70,0,1
59494,-100,4,3,0,70,0,1
62989,-100,4,3,0,70,0,1
64154,-100,4,3,0,65,0,0
82795,-100,4,3,0,65,0,0
91533,291.26213592233,4,2,1,100,1,0
100853,-125,4,3,0,35,0,0
107843,291.26213592233,3,1,0,70,1,0
110174,-200,3,1,0,50,0,0
110319,-200,3,2,1,50,0,0
111047,-200,3,2,1,50,0,0
111339,291.26213592233,4,1,0,70,1,1
111339,-100,4,1,0,70,0,1
134639,-100,4,1,0,55,0,0

[Colours]
Combo1 : 0,123,159
Combo2 : 192,192,192
SliderBorder : 255,255,255
SliderTrackOverride : 0,0,0

[HitObjects]
77,54,934,6,0,P|51:91|42:135,2,90,2|0|0,0:0|0:0|0:0,0:0:0:0:
150,134,2134,1,2,0:0:0:0:
368,40,2934,5,0,0:0:0:0:
368,40,3334,2,0,P|360:72|346:93,1,45,2|0,0:0|0:0,0:0:0:0:
256,128,3734,1,2,0:0:0:0:
256,128,4134,2,0,P|208:160|192:204,1,90,4|0,0:0|0:0,0:0:0:0:
346,149,4734,2,0,L|331:114,1,22.5,0|0,0:0|0:0,0:0:0:0:
308,56,4934,1,2,0:0:0:0:
281,215,5334,6,0,P|319:238|364:239,1,90,2|0,0:0|0:0,0:0:0:0:
220,127,6134,2,0,L|176:134,1,45,2|0,0:0|0:0,0:0:0:0:
308,56,6534,2,0,L|397:70,1,90,2|2,0:0|0:0,0:0:0:0:
148,219,7334,6,0,P|129:262|112:301,2,90,2|2|2,0:0|0:0|0:0,0:0:0:0:
208,82,8534,1,2,0:0:0:0:
382,184,9334,5,0,0:0:0:0:
275,338,9734,1,2,0:0:0:0:
284,66,10134,1,0,0:0:0:0:
482,322,10534,5,2,0:0:0:0:
482,322,10934,1,0,0:0:0:0:
436,161,11134,1,2,0:0:0:0:
436,161,11534,1,0,0:0:0:0:
398,260,11734,2,0,P|343:236|298:229,1,90,2|0,0:0|0:0,0:0:0:0:
191,230,12334,5,2,0:0:0:0:
151,158,12534,1,2,0:0:0:0:
231,158,12734,1,2,0:0:0:0:
112,232,12934,1,2,0:0:0:0:
192,88,13134,1,0,0:0:0:0:
271,230,13334,1,2,0:0:0:0:
378,55,13734,6,0,P|404:107|398:184,1,135,4|2,0:1|0:0,0:0:0:0:
320,112,14934,1,2,0:0:0:0:
320,112,15134,2,0,P|328:131|324:163,1,45,0|0,0:0|0:0,0:0:0:0:
208,152,15534,2,0,L|266:143,2,45,2|0|0,0:0|0:0|0:0,0:0:0:0:
176,223,16134,5,2,0:0:0:0:
176,223,16334,2,0,P|152:207|136:185,2,45,0|0|0,0:0|0:0|0:0,0:0:0:0:
139,116,16934,6,0,P|91:132|67:170,1,90,2|2,0:0|0:0,0:0:0:0:
208,153,17534,2,0,L|235:53,1,90,2|2,0:0|0:0,0:0:0:0:
69,162,18334,1,2,0:0:0:0:
427,284,18934,6,0,P|382:272|331:296,1,90,2|2,0:0|0:0,0:0:0:0:
304,352,19534,1,0,0:0:0:0:
304,352,19734,2,0,P|344:363|361:358,1,45,2|0,0:0|0:0,0:0:0:0:
427,284,20134,6,0,L|433:190,1,90,4|0,0:1|0:0,0:0:0:0:
432,194,20734,1,2,0:0:0:0:
439,39,21334,5,2,0:0:0:0:
439,38,21534,2,0,P|431:61|416:78,1,45,0|0,0:0|0:0,0:0:0:0:
314,23,21934,2,0,P|335:18|357:24,2,45,2|0|2,0:0|0:0|0:0,0:0:0:0:
324,146,22534,1,2,0:0:0:0:
324,146,22734,2,0,L|330:86,2,45,2|2|0,0:0|0:0|0:0,0:0:0:0:
377,228,23334,6,0,P|326:246|274:230,1,90,2|0,0:0|0:0,0:0:0:0:
135,156,23934,2,0,P|186:138|238:154,1,90,2|0,0:0|0:0,0:0:0:0:
331,317,24534,1,2,0:0:0:0:
327,151,24734,6,0,L|322:48,1,90,2|2,0:0|0:0,0:0:0:0:
136,80,25334,2,0,P|147:122|170:162,1,67.5000025749208,2|0,0:0|0:0,0:0:0:0:
393,164,25734,2,0,P|350:153|304:153,1,67.5000025749208,2|0,0:0|0:0,0:0:0:0:
195,319,26134,2,0,P|225:288|249:248,1,67.5000025749208,2|0,0:0|0:0,0:0:0:0:
238,267,26434,1,0,0:0:0:0:
238,267,26534,5,4,0:1:0:0:
193,183,26934,2,0,L|115:167,2,67.5000025749208,2|0|2,0:0|0:0|0:0,0:0:0:0:
242,77,27534,2,0,L|153:58,1,67.5000025749208,0|0,0:0|0:0,0:0:0:0:
326,159,27934,2,0,P|361:88|336:16,1,135.000005149842,2|0,0:0|0:0,0:0:0:0:
242,77,28534,1,2,0:0:0:0:
273,226,28734,1,0,0:0:0:0:
424,168,28934,2,0,P|436:136|440:102,2,67.5000025749208,2|0|0,0:0|0:0|0:0,0:0:0:0:
242,77,29534,1,0,0:0:0:0:
242,77,29634,1,0,0:0:0:0:
242,77,29734,6,0,L|109:103,1,135.000005149842,4|2,0:1|0:0,0:0:0:0:
234,198,30334,2,0,P|262:143|219:57,1,135.000005149842,2|0,0:0|0:0,0:0:0:0:
109,102,30934,2,0,P|81:157|124:243,1,135.000005149842,2|0,0:0|0:0,0:0:0:0:
261,88,31534,2,0,P|292:103|313:129,2,67.5000025749208,2|2|0,0:0|0:0|0:0,0:0:0:0:
264,200,32134,2,0,P|298:214|336:210,1,67.5000025749208,2|0,0:0|0:0,0:0:0:0:
183,176,32534,2,0,P|181:212|195:248,1,67.5000025749208,2|0,0:0|0:0,0:0:0:0:
395,261,32934,6,0,P|408:192|356:136,1,135,4|2,0:1|0:0,0:0:0:0:
232,88,34134,1,2,0:0:0:0:
335,201,34334,2,0,L|371:144,1,67.5000025749208
295,39,34734,2,0,P|269:14|233:6,2,67.5000025749208,2|2|2,0:0|0:0|0:0,0:0:0:0:
220,151,35534,6,0,P|218:115|236:82,2,67.5000025749208
186,265,36134,2,0,P|260:259|317:212,1,135.000005149842,4|0,0:1|0:0,0:0:0:0:
348,115,36734,2,0,L|494:149,1,135.000005149842,2|0,0:0|0:0,0:0:0:0:
307,224,37334,1,0,0:0:0:0:
307,224,37534,6,0,L|164:275,1,135,2|2,0:0|0:0,0:0:0:0:
369,306,38334,1,0,0:0:0:0:
369,305,38534,2,0,P|408:274|420:233,1,90,2|2,0:0|0:0,0:0:0:0:
421,207,39034,1,0,0:0:0:0:
412,182,39134,1,0,0:0:0:0:
397,160,39234,1,0,0:0:0:0:
375,146,39334,1,4,0:1:0:0:
256,192,39434,12,0,40854,0:0:0:0:
300,204,45514,5,8,0:0:0:0:
300,335,45659,1,0,0:0:0:0:
413,270,45805,1,2,0:0:0:0:
300,204,45951,5,8,0:0:0:0:
344,328,46096,1,2,0:0:0:0:
428,228,46242,1,0,0:0:0:0:
300,204,46387,5,8,0:0:0:0:
384,305,46533,1,0,0:0:0:0:
428,182,46679,1,2,0:0:0:0:
300,204,46824,5,8,0:0:0:0:
413,271,46970,1,2,0:0:0:0:
412,140,47116,1,0,0:0:0:0:
192,192,47261,6,0,P|148:188|100:176,1,90,8|0,0:0|0:0,0:0:0:0:
190,41,47553,2,0,P|234:45|282:57,1,90,2|0,0:0|0:0,0:0:0:0:
300,204,47844,6,0,P|252:280|168:296,1,180,8|2,0:0|0:0,0:0:0:0:
72,112,48281,1,0,0:0:0:0:
68,256,48426,1,2,0:0:0:0:
72,112,48572,1,0,0:0:0:0:
192,192,48718,1,8,0:0:0:0:
72,112,48863,1,0,0:0:0:0:
256,272,49009,5,0,0:0:0:0:
279,274,49082,1,0,0:0:0:0:
301,274,49154,1,0,0:0:0:0:
324,273,49227,1,0,0:0:0:0:
346,270,49300,1,0,0:0:0:0:
368,265,49373,1,0,0:0:0:0:
390,259,49446,1,0,0:0:0:0:
411,251,49519,1,0,0:0:0:0:
427,243,49591,2,0,P|482:239|419:287,1,180,0|0,0:0|0:0,0:0:0:0:
492,116,50174,6,0,P|448:112|396:112,1,90,4|0,0:0|0:0,0:0:0:0:
349,303,50465,2,0,P|393:307|445:307,1,90,8|0,0:0|0:0,0:0:0:0:
392,212,50756,2,0,P|300:208|212:208,1,180,0|8,0:0|0:0,0:0:0:0:
104,208,51193,1,0,0:0:0:0:
200,120,51339,5,0,0:0:0:0:
112,296,51485,1,0,0:0:0:0:
112,120,51630,2,0,L|52:52,1,90,8|0,0:0|0:0,0:0:0:0:
14,208,51921,2,0,L|104:208,1,90,0|0,0:0|0:0,0:0:0:0:
112,296,52213,2,0,L|52:364,1,90,8|0,0:0|0:0,0:0:0:0:
200,294,52504,6,0,P|243:303|287:293,2,90,4|0|8,0:0|0:0|0:0,0:0:0:0:
141,160,52941,1,0,0:0:0:0:
218,85,53087,2,0,P|134:53|57:93,1,180,0|8,0:0|0:0,0:0:0:0:
244,196,53523,6,0,P|324:228|408:188,1,180
420,88,53960,2,0,P|396:48|356:24,1,90,8|0,0:0|0:0,0:0:0:0:
321,121,54252,1,0,0:0:0:0:
163,18,54397,1,0,0:0:0:0:
268,22,54543,1,8,0:0:0:0:
203,121,54688,1,0,0:0:0:0:
102,93,54834,6,0,P|50:89|-2:89,2,90,4|0|8,0:0|0:0|0:0,0:0:0:0:
24,172,55271,1,0,0:0:0:0:
108,232,55417,2,0,P|200:240|232:316,1,180,0|8,0:0|0:0,0:0:0:0:
336,344,55853,6,0,P|424:324|508:272,1,180,0|0,0:0|0:0,0:0:0:0:
324,256,56290,2,0,P|372:244|412:224,1,90,8|0,0:0|0:0,0:0:0:0:
495,191,56582,1,0,0:0:0:0:
350,133,56727,1,0,0:0:0:0:
336,344,56873,1,8,0:0:0:0:
409,228,57019,1,0,0:0:0:0:
244,348,57164,6,0,P|206:362|158:370,2,90,4|0|8,0:0|0:0|0:0,0:0:0:0:
312,238,57601,1,0,0:0:0:0:
220,156,57747,2,0,P|212:204|216:252,1,90,0|0,0:0|0:0,0:0:0:0:
403,317,58038,2,0,P|411:269|407:221,1,90,8|0,0:0|0:0,0:0:0:0:
273,75,58329,5,0,0:0:0:0:
237,71,58402,1,0,0:0:0:0:
201,75,58475,1,0,0:0:0:0:
169,91,58548,1,0,0:0:0:0:
141,115,58620,1,8,0:2:0:0:
201,306,58766,1,0,0:0:0:0:
60,264,58912,2,0,P|80:308|100:344,1,90
316,324,59203,2,0,P|296:280|276:244,1,90,8|0,0:2|0:0,0:0:0:0:
344,148,59494,5,4,0:2:0:0:
344,148,59640,2,0,P|252:128|180:172,1,180
201,306,60077,2,0,P|156:304|118:281,2,90,8|0|4,0:2|0:0|0:2,0:0:0:0:
272,244,60514,2,0,P|292:283|292:328,2,90
184,213,60951,6,0,P|207:175|246:153,1,90,8|0,0:2|0:0,0:0:0:0:
452,112,61242,1,0,0:0:0:0:
305,86,61387,1,0,0:0:0:0:
356,225,61533,1,8,0:2:0:0:
452,112,61679,1,8,0:2:0:0:
344,340,61824,6,0,P|396:360|428:376,2,90,4|0|8,0:2|0:0|0:2,0:0:0:0:
256,293,62261,1,0,0:0:0:0:
176,348,62407,2,0,P|156:296|149:262,1,90,0|0,0:0|0:0,0:0:0:0:
232,148,62698,1,8,0:2:0:0:
164,80,62844,1,0,0:0:0:0:
136,172,62989,5,0,0:0:0:0:
256,56,63135,1,0,0:0:0:0:
204,240,63281,1,8,0:2:0:0:
68,104,63426,1,0,0:0:0:0:
232,148,63572,2,0,P|296:144|352:44,1,180
39,347,64154,6,0,B|92:172,1,180,4|8,0:1|0:2,0:0:0:0:
120,72,64591,1,0,0:0:0:0:
224,104,64737,2,0,B|265:124|320:112,1,90
277,35,65028,1,8,0:2:0:0:
173,170,65174,6,0,B|254:209|348:189,1,180
403,286,65611,2,0,P|439:248|458:204,1,90,8|0,0:2|0:0,0:0:0:0:
497,117,65902,1,0,0:0:0:0:
357,32,66048,1,0,0:0:0:0:
348,188,66193,1,8,0:2:0:0:
404,112,66339,1,0,0:0:0:0:
251,135,66485,6,0,P|205:135|163:121,1,90,0|0,0:0|0:0,0:0:0:0:
80,46,66776,2,0,P|53:95|48:138,1,90,8|0,0:2|0:0,0:0:0:0:
85,283,67067,1,0,0:0:0:0:
188,260,67213,1,0,0:0:0:0:
0,212,67358,1,8,0:2:0:0:
188,260,67504,6,0,P|292:268|364:212,1,180
136,68,67941,2,0,P|96:100|80:138,1,90,8|0,0:2|0:0,0:0:0:0:
255,158,68232,2,0,P|295:125|311:88,1,90,0|0,0:0|0:0,0:0:0:0:
171,151,68523,1,8,0:2:0:0:
188,260,68669,1,0,0:0:0:0:
357,290,68815,6,0,L|457:310,2,90,4|0|8,0:1|0:0|0:2,0:0:0:0:
188,260,69252,1,0,0:0:0:0:
255,158,69397,2,0,L|267:66,1,90
175,106,69688,1,8,0:2:0:0:
347,130,69834,1,0,0:0:0:0:
255,158,69980,6,0,L|243:250,1,90
332,218,70271,1,8,0:2:0:0:
175,106,70417,2,0,L|150:284,1,180
332,218,70853,1,8,0:2:0:0:
274,350,70999,1,0,0:0:0:0:
444,288,71145,6,0,P|506:231|504:135,1,180,4|8,0:1|0:2,0:0:0:0:
489,47,71582,2,0,P|420:100|413:139,2,90
343,27,72019,1,8,0:2:0:0:
256,96,72164,1,0,0:0:0:0:
332,218,72310,2,0,L|424:206,1,90
368,320,72601,6,0,L|276:308,1,90,8|0,0:2|0:0,0:0:0:0:
236,216,72892,1,0,0:0:0:0:
196,368,73038,1,0,0:0:0:0:
86,256,73184,1,8,0:2:0:0:
86,256,73475,6,0,B|96:164,1,90,4|0,0:1|0:0,0:0:0:0:
144,80,73766,1,8,0:2:0:0:
144,80,73912,1,0,0:0:0:0:
236,116,74057,1,0,0:0:0:0:
236,116,74203,1,0,0:0:0:0:
316,61,74349,1,8,0:2:0:0:
408,96,74494,6,0,P|472:164|432:264,1,180
319,318,74931,2,0,L|283:229,1,90,8|0,0:2|0:0,0:0:0:0:
200,288,75222,1,0,0:0:0:0:
376,224,75368,1,0,0:0:0:0:
208,184,75514,1,8,0:2:0:0:
304,152,75659,1,0,0:0:0:0:
224,92,75805,6,0,P|116:92|76:152,1,180,4|8,0:1|0:2,0:0:0:0:
84,268,76242,2,0,B|29:354,2,90,0|0|0,0:0|0:0|0:0,0:0:0:0:
172,224,76679,1,8,0:2:0:0:
256,276,76824,6,0,B|334:315|334:315|432:320,1,180
500,164,77261,2,0,B|404:161,1,90,8|0,0:2|0:0,0:0:0:0:
279,156,77553,1,0,0:0:0:0:
397,58,77698,1,0,0:0:0:0:
227,28,77844,2,0,P|208:68|161:102,1,90,8|0,0:2|0:0,0:0:0:0:
40,172,78135,6,0,B|92:252|92:252|120:332,1,180,4|8,0:1|0:2,0:0:0:0:
216,360,78572,1,0,0:0:0:0:
300,308,78718,2,0,L|392:280,2,90,0|0|8,0:0|0:0|0:2,0:0:0:0:
360,192,79154,1,0,0:0:0:0:
264,164,79300,6,0,P|239:124|235:71,1,90
288,260,79591,1,8,0:2:0:0:
336,92,79737,2,0,P|432:112|468:184,1,180,0|0,0:0|0:0,0:0:0:0:
476,288,80174,1,8,0:2:0:0:
392,356,80320,1,0,0:0:0:0:
300,308,80465,6,0,B|216:290|216:290|120:312,1,180,4|8,0:1|0:2,0:0:0:0:
31,229,80902,2,0,P|43:174|85:124,2,90,0|0|0,0:0|0:0|0:0,0:0:0:0:
8,340,81339,1,8,0:2:0:0:
148,225,81485,6,0,P|264:233|328:221,1,180
200,140,81921,1,8,0:2:0:0:
348,96,82067,1,0,0:0:0:0:
152,36,82213,1,0,0:0:0:0:
348,96,82358,1,0,0:0:0:0:
200,140,82504,1,8,0:2:0:0:
372,264,82650,1,0,0:0:0:0:
180,348,82795,6,0,B|136:341|136:341|96:304,1,90,4|0,0:1|0:0,0:0:0:0:
107,207,83087,2,0,B|151:214|151:214|191:251,1,90,8|0,0:2|0:0,0:0:0:0:
290,289,83378,2,0,P|352:347|434:320,1,180,8|0,0:2|0:0,0:0:0:0:
451,237,83815,6,0,P|388:178|306:205,1,180,8|0,0:2|0:0,0:0:0:0:
184,244,84252,1,8,0:2:0:0:
184,244,84397,1,0,0:0:0:0:
109,133,84543,2,0,L|211:144,1,90,2|0,0:0|0:0,0:0:0:0:
89,231,84834,6,0,L|0:221,1,90,4|0,0:1|0:0,0:0:0:0:
219,51,85125,2,0,L|321:62,1,90,8|0,0:2|0:0,0:0:0:0:
267,255,85417,2,0,B|237:275|185:242|185:242|180:298|137:314,1,180,8|0,0:2|0:0,0:0:0:0:
237,160,85853,6,0,B|267:179|319:146|319:146|324:202|366:219,1,180,8|0,0:2|0:0,0:0:0:0:
101,241,86290,2,0,P|116:198|148:167,1,90,8|0,0:2|0:0,0:0:0:0:
258,79,86582,1,8,0:2:0:0:
408,142,86727,1,8,0:0:0:0:
267,255,86873,1,8,0:0:0:0:
357,58,87019,1,0,0:0:0:0:
436,310,87164,6,0,P|401:339|352:354,1,90,4|0,0:1|0:0,0:0:0:0:
356,260,87455,2,0,P|391:231|440:216,1,90,8|0,0:2|0:0,0:0:0:0:
192,313,87747,2,0,P|121:336|155:276,1,180,8|2,0:2|0:0,0:0:0:0:
325,167,88184,6,0,P|346:99|282:130,1,180,8|0,0:2|0:0,0:0:0:0:
276,260,88620,2,0,P|284:303|316:334,1,90,8|0,0:2|0:0,0:0:0:0:
396,335,88912,2,0,P|387:291|355:260,1,90,8|0,0:2|0:0,0:0:0:0:
329,36,89203,6,0,P|290:57|247:50,1,90,4|0,0:1|0:0,0:0:0:0:
79,165,89494,2,0,P|117:143|160:150,1,90,8|0,0:2|0:0,0:0:0:0:
325,167,89786,2,0,B|357:113|357:113|308:145|244:133,1,180,8|0,0:2|0:0,0:0:0:0:
87,31,90222,6,0,B|54:84|54:84|103:52|167:64,1,180,8|0,0:2|0:0,0:0:0:0:
347,95,90659,2,0,P|379:114|401:166,1,90,8|0,0:2|0:0,0:0:0:0:
289,308,90951,1,8,0:2:0:0:
186,136,91096,1,8,0:0:0:0:
325,167,91242,1,8,0:0:0:0:
150,276,91387,1,8,0:0:0:0:
3,250,100853,6,0,L|232:311,1,216,2|0,0:0|0:0,0:0:0:0:
294,142,101435,2,0,P|387:163|426:223,1,144,2|0,0:0|0:0,0:0:0:0:
223,216,101872,2,0,P|195:125|227:60,1,144,2|0,0:0|0:0,0:0:0:0:
320,232,102455,1,0,0:0:0:0:
319,232,102600,2,0,P|285:293|220:319,1,144,2|0,0:0|0:0,0:0:0:0:
248,96,103183,6,0,P|320:77|391:102,1,144,2|0,0:0|0:0,0:0:0:0:
319,232,103620,1,2,0:0:0:0:
208,360,103766,2,0,P|165:298|164:222,1,144,2|0,0:0|0:0,0:0:0:0:
308,317,104202,2,0,P|377:293|402:222,2,144,2|0|2,0:0|0:0|0:0,0:0:0:0:
148,146,104931,2,0,P|174:121|218:96,1,72,2|0,0:0|0:0,0:0:0:0:
141,331,105222,2,0,P|91:334|40:323,1,72,2|0,0:0|0:0,0:0:0:0:
49,243,105513,6,0,B|157:279|230:183|230:183|188:241|233:285,3,288,2|2|2|0,3:2|3:2|3:2|0:0,0:0:0:0:
291,231,107552,2,0,P|308:187|294:137,1,72,2|0,0:0|0:0,0:0:0:0:
116,255,107843,5,2,0:0:0:0:
386,127,107989,1,2,0:0:0:0:
315,321,108134,1,2,0:0:0:0:
191,56,108280,1,2,0:0:0:0:
240,336,108717,5,2,0:0:0:0:
266,44,108863,1,2,0:0:0:0:
400,202,109008,1,2,0:0:0:0:
108,176,109153,1,2,0:0:0:0:
374,273,109591,5,2,0:0:0:0:
133,105,109736,1,2,0:0:0:0:
337,69,109881,1,2,0:0:0:0:
169,310,110028,1,2,0:0:0:0:
296,329,110319,5,2,0:0:0:0:
296,329,110465,1,2,0:0:0:0:
296,328,110610,2,0,P|207:332|168:309,1,135,2|0,0:0|0:0,0:0:0:0:
237,178,111339,6,0,B|270:145|270:145|402:122,1,180,4|8,0:0|0:0,0:0:0:0:
508,193,111775,2,0,P|501:256|466:294,1,90,0|0,0:0|0:0,0:0:0:0:
318,235,112067,1,0,0:0:0:0:
416,216,112212,1,8,0:0:0:0:
380,305,112358,1,0,0:0:0:0:
230,278,112504,6,0,B|138:286,1,90,0|0,0:0|0:0,0:0:0:0:
119,34,112795,2,0,B|211:26,1,90,8|0,0:0|0:2,0:0:0:0:
184,192,113086,1,0,0:0:0:0:
58,291,113232,1,0,0:0:0:0:
184,192,113377,1,8,0:0:0:0:
101,134,113523,1,0,0:0:0:0:
256,275,113669,6,0,P|280:235|291:195,1,90,4|0,0:0|0:0,0:0:0:0:
296,24,113960,1,8,0:0:0:0:
400,176,114105,1,0,0:2:0:0:
218,114,114251,1,0,0:0:0:0:
436,80,114397,1,0,0:0:0:0:
456,264,114542,2,0,P|412:279|364:276,1,90,8|0,0:0|0:0,0:0:0:0:
292,195,114834,5,0,0:0:0:0:
130,231,114979,1,0,0:0:0:0:
253,343,115125,1,8,0:0:0:0:
292,195,115271,2,0,B|333:19,1,180,0|0,0:2|0:0,0:0:0:0:
129,24,115707,2,0,B|189:90,1,90,8|0,0:0|0:0,0:0:0:0:
292,195,115999,5,4,0:0:0:0:
432,264,116144,1,0,0:0:0:0:
316,88,116290,1,8,0:0:0:0:
264,300,116436,1,0,0:0:0:0:
188,224,116581,2,0,B|211:133,1,90
292,195,116872,5,8,0:0:0:0:
100,164,117018,1,0,0:0:0:0:
264,300,117164,1,0,0:0:0:0:
92,276,117309,1,0,0:0:0:0:
292,195,117455,2,0,P|336:178|368:128,1,90,8|0,0:0|0:0,0:0:0:0:
240,16,117746,2,0,P|195:32|164:83,2,90,0|0|8,0:0|0:0|0:0,0:0:0:0:
348,28,118183,1,0,0:0:0:0:
440,88,118329,6,0,P|475:177|464:264,1,180,4|8,0:0|0:0,0:0:0:0:
384,336,118766,2,0,P|339:347|288:352,1,90,0|0,0:0|0:0,0:0:0:0:
168,200,119057,2,0,P|213:216|256:215,1,90,0|8,0:0|0:0,0:0:0:0:
374,202,119348,1,0,0:0:0:0:
334,96,119494,5,0,0:0:0:0:
220,88,119639,1,0,0:0:0:0:
75,170,119785,2,0,P|75:214|90:256,1,90,8|0,0:0|0:0,0:0:0:0:
238,311,120076,1,0,0:0:0:0:
272,302,120148,1,0,0:0:0:0:
308,298,120221,1,0,0:0:0:0:
344,302,120294,1,0,0:0:0:0:
379,310,120367,1,8,0:0:0:0:
415,316,120440,1,0,0:0:0:0:
450,316,120512,1,0,0:0:0:0:
486,312,120585,1,0,0:0:0:0:
511,298,120659,6,0,P|512:244|501:196,1,90,4|0,0:0|0:0,0:0:0:0:
335,193,120950,2,0,P|331:147|343:73,2,90,8|0|0,0:0|0:0|0:0,0:0:0:0:
264,320,121387,1,0,0:0:0:0:
188,232,121533,1,8,0:0:0:0:
224,120,121678,1,0,0:0:0:0:
336,104,121824,5,0,0:0:0:0:
188,232,121970,1,0,0:0:0:0:
268,24,122115,1,8,0:0:0:0:
300,208,122261,2,0,P|388:204|444:136,1,180,0|0,0:0|0:0,0:0:0:0:
268,24,122698,2,0,P|224:36|184:60,1,90,8|0,0:0|0:0,0:0:0:0:
212,286,122989,5,4,0:0:0:0:
130,205,123135,1,0,0:0:0:0:
300,208,123280,2,0,P|384:236|428:320,1,180,8|0,0:0|0:0,0:0:0:0:
312,323,123717,2,0,P|288:362|252:388,2,90,0|8|4,0:0|0:0|0:2,0:0:0:0:
300,208,124154,5,0,0:0:0:0:
400,168,124300,1,0,0:0:0:0:
316,104,124445,1,8,0:0:0:0:
384,268,124591,1,0,0:0:0:0:
412,64,124737,1,0,0:0:0:0:
224,144,124882,1,0,0:0:0:0:
224,144,125028,2,0,B|138:117,1,90,8|0,0:0|0:0,0:0:0:0:
36,88,125319,5,4,0:0:0:0:
128,28,125465,1,0,0:0:0:0:
92,208,125610,1,8,0:0:0:0:
36,88,125756,1,0,0:0:0:0:
224,144,125902,2,0,P|197:185|197:233,1,90,0|0,0:0|0:0,0:0:0:0:
309,97,126193,5,8,0:0:0:0:
286,213,126339,1,0,0:0:0:0:
229,54,126484,1,0,0:0:0:0:
380,171,126630,1,0,0:0:0:0:
143,97,126775,2,0,B|39:99,1,90,8|0,0:0|0:0,0:0:0:0:
229,54,127067,1,0,0:0:0:0:
380,171,127212,1,0,0:0:0:0:
199,226,127358,2,0,P|201:181|224:143,1,90,8|0,0:0|0:0,0:0:0:0:
380,171,127649,6,0,B|412:139|417:91|417:91|467:66|471:14,1,180,4|8,0:0|0:0,0:0:0:0:
350,1,128086,1,0,0:0:0:0:
350,1,128232,1,0,0:0:0:0:
254,50,128377,1,0,0:0:0:0:
254,50,128523,1,8,0:0:0:0:
152,7,128669,6,0,P|96:83|120:171,1,180
228,232,129105,1,8,0:0:0:0:
320,128,129251,1,0,0:0:0:0:
228,232,129397,2,0,L|136:244,1,90
320,128,129688,2,0,L|412:116,1,90,8|0,0:0|0:0,0:0:0:0:
476,271,129979,6,0,P|392:303|303:298,1,180,4|8,0:0|0:0,0:0:0:0:
188,288,130416,1,0,0:0:0:0:
248,196,130562,1,0,0:0:0:0:
140,192,130707,1,0,0:0:0:0:
303,298,130853,1,8,0:0:0:0:
360,191,130999,6,0,P|352:147|326:111,1,90,0|0,0:0|0:0,0:0:0:0:
229,58,131290,1,0,0:0:0:0:
193,239,131436,1,8,0:0:0:0:
276,180,131581,1,0,0:0:0:0:
106,98,131727,1,0,0:0:0:0:
276,180,131872,1,0,0:0:0:0:
124,304,132018,2,0,B|22:294,1,90,8|0,0:0|0:0,0:0:0:0:
217,371,132309,6,0,B|410:348,1,180,4|8,0:0|0:0,0:0:0:0:
481,252,132746,1,0,0:0:0:0:
425,125,132892,1,0,0:0:0:0:
421,116,132965,1,0,0:0:0:0:
417,107,133038,1,0,0:0:0:0:
413,98,133110,1,0,0:0:0:0:
409,89,133183,2,0,B|369:117|369:117|321:141,1,90,8|0,0:0|0:0,0:0:0:0:
221,168,133474,6,0,B|195:255|195:255|177:352,1,180,12|0,0:0|0:0,0:0:0:0:
381,384,133911,2,0,B|408:299|408:299|425:200,1,180,0|0,0:0|0:0,0:0:0:0:
333,136,134348,2,0,L|309:228,1,90,0|0,0:0|0:0,0:0:0:0:
269,372,134639,1,4,0:0:0:0:
