osu file format v14

[General]
AudioFilename: nevereverland.mp3
AudioLeadIn: 0
PreviewTime: 111047
Countdown: 0
SampleSet: None
StackLeniency: 0.7
Mode: 0
LetterboxInBreaks: 0
WidescreenStoryboard: 0

[Editor]
Bookmarks: 13734
DistanceSpacing: 1.4
BeatDivisor: 4
GridSize: 32
TimelineZoom: 1.7

[Metadata]
Title:Nevereverland
TitleUnicode:Nevereverland
Artist:nano
ArtistUnicode:ナノ
Creator:zhu
Version:Advanced
Source:
Tags:naoki itou n neko アークix nifty cordi victorfernando -tochi starset hb24 short version
BeatmapID:1581953
BeatmapSetID:621438

[Difficulty]
HPDrainRate:4
CircleSize:3
OverallDifficulty:5
ApproachRate:7
SliderMultiplier:1.1
SliderTickRate:1

[Events]
//Background and Video events
0,0,"bg.jpg",0,0
//Break Periods
2,41054,44614
2,91587,99953
//Storyboard Layer 0 (Background)
//Storyboard Layer 1 (Fail)
//Storyboard Layer 2 (Pass)
//Storyboard Layer 3 (Foreground)
//Storyboard Sound Samples

[TimingPoints]
934,400,4,2,1,20,1,0
1034,-133.333333333333,4,2,1,20,0,0
40854,291.26213592233,4,1,0,75,1,0
45514,-100,4,3,0,75,0,0
50174,-90.9090909090909,4,1,0,70,0,1
58329,-90.9090909090909,4,3,0,70,0,1
58620,-90.9090909090909,4,3,0,70,0,1
59494,-90.9090909090909,4,3,0,70,0,1
63281,-90.9090909090909,4,3,0,70,0,1
64154,-100,4,3,0,65,0,0
82795,-100,4,3,0,65,0,0
83087,-100,4,3,0,65,0,0
91533,291.26213592233,4,2,1,100,1,0
100853,-133.333333333333,4,3,0,35,0,0
107843,291.26213592233,3,1,0,50,1,0
110319,-100,3,2,1,50,0,0
111339,291.26213592233,4,1,0,70,1,1
111339,-90.9090909090909,4,1,0,70,0,1
129397,-100,4,1,0,70,0,1
134639,-100,4,1,0,55,0,0

[Colours]
Combo1 : 0,123,159
Combo2 : 192,192,192
SliderBorder : 255,255,255
SliderTrackOverride : 0,0,0

[HitObjects]
64,92,13734,6,0,P|56:141|62:188,1,82.5000031471254,4|0,0:1|0:0,0:0:0:0:
97,246,14334,1,2,0:0:0:0:
323,346,14934,1,2,0:0:0:0:
398,313,15134,2,0,P|391:267|374:224,1,82.5000031471254,0|2,0:0|0:0,0:0:0:0:
375,150,15734,6,0,L|334:144,1,41.2500015735627
304,67,16134,2,0,L|263:72,1,41.2500015735627,2|0,0:0|0:0,0:0:0:0:
182,91,16534,2,0,L|183:132,1,41.2500015735627,0|0,0:0|0:0,0:0:0:0:
121,187,16934,6,0,L|148:269,1,82.5000031471254,2|2,0:0|0:0,0:0:0:0:
214,315,17534,2,0,P|251:331|291:326,1,82.5000031471254,2|2,0:0|0:0,0:0:0:0:
370,299,18134,1,2,0:0:0:0:
407,225,18334,2,0,L|398:142,1,82.5000031471254,2|0,0:0|0:0,0:0:0:0:
349,75,18934,5,2,0:0:0:0:
187,42,19334,2,0,L|146:37,1,41.2500015735627,2|0,0:0|0:0,0:0:0:0:
112,112,19734,2,0,L|152:116,1,41.2500015735627,2|0,0:0|0:0,0:0:0:0:
235,109,20134,6,0,P|243:149|263:184,1,82.5000031471254,4|0,0:1|0:0,0:0:0:0:
325,240,20734,1,2,0:0:0:0:
96,334,21334,2,0,L|84:252,1,82.5000031471254,2|0,0:0|0:0,0:0:0:0:
129,183,21934,6,0,L|169:177,2,41.2500015735627,2|0|2,0:0|0:0|0:0,0:0:0:0:
60,136,22534,2,0,L|51:95,1,41.2500015735627,2|2,0:0|0:0,0:0:0:0:
100,31,22934,2,0,L|152:47,1,41.2500015735627,2|0,0:0|0:0,0:0:0:0:
212,82,23334,6,0,P|222:121|249:152,1,82.5000031471254,2|0,0:0|0:0,0:0:0:0:
332,153,23934,2,0,P|321:113|294:82,1,82.5000031471254,2|0,0:0|0:0,0:0:0:0:
348,20,24534,1,2,0:0:0:0:
414,69,24734,2,0,P|430:102|438:148,1,82.5000031471254,2|2,0:0|0:0,0:0:0:0:
416,226,25334,1,2,0:0:0:0:
270,303,25734,2,0,L|187:291,1,82.5000031471254,2|2,0:0|0:0,0:0:0:0:
127,137,26534,5,4,0:1:0:0:
268,50,26934,2,0,L|271:91,1,41.2500015735627,2|0,0:0|0:0,0:0:0:0:
345,129,27334,2,0,L|356:89,1,41.2500015735627,2|0,0:0|0:0,0:0:0:0:
438,79,27734,1,0,0:0:0:0:
426,159,27934,2,0,P|423:201|431:241,1,82.5000031471254,2|0,0:0|0:0,0:0:0:0:
388,312,28534,6,0,L|347:306,1,41.2500015735627,2|0,0:0|0:0,0:0:0:0:
303,236,28934,2,0,L|343:226,1,41.2500015735627,2|0,0:0|0:0,0:0:0:0:
343,144,29334,2,0,L|304:130,1,41.2500015735627,0|0,0:0|0:0,0:0:0:0:
241,75,29734,6,0,L|159:63,1,82.5000031471254,2|2,0:0|0:0,0:0:0:0:
138,143,30334,2,0,L|219:154,1,82.5000031471254,0|0,0:0|0:0,0:0:0:0:
198,234,30934,2,0,L|116:222,1,82.5000031471254,2|0,0:0|0:0,0:0:0:0:
64,285,31534,1,2,0:0:0:0:
135,321,31734,6,0,P|155:324|175:323,1,41.2500015735627,2|0,0:0|0:0,0:0:0:0:
254,302,32134,2,0,P|275:297|295:298,1,41.2500015735627,2|0,0:0|0:0,0:0:0:0:
378,303,32534,2,0,L|384:262,1,41.2500015735627,2|0,0:0|0:0,0:0:0:0:
437,198,32934,6,0,P|405:181|355:185,1,82.5000031471254,4|0,0:1|0:0,0:0:0:0:
277,195,33534,1,2,0:0:0:0:
64,235,34134,2,0,L|64:260,1,41.2500015735627,2|0,0:0|0:0,0:0:0:0:
237,271,34734,5,2,0:0:0:0:
277,195,34934,1,2,0:0:0:0:
190,199,35134,1,2,0:0:0:0:
319,83,35534,6,0,L|353:41,2,41.2500015735627
243,124,36134,2,0,P|213:98|189:65,1,82.5000031471254,2|0,0:0|0:0,0:0:0:0:
106,33,36734,2,0,L|23:33,1,82.5000031471254,2|0,0:0|0:0,0:0:0:0:
41,118,37334,1,0,0:0:0:0:
64,201,37534,6,0,L|110:201,1,82.5000031471254,2|0,0:0|0:0,0:0:0:0:
232,214,38134,2,0,L|265:258,1,41.2500015735627,2|0,0:0|0:0,0:0:0:0:
274,332,38534,2,0,P|312:315|336:282,1,82.5000031471254,2|2,0:0|0:0,0:0:0:0:
319,109,39334,1,4,0:1:0:0:
256,192,39434,12,4,40854,0:0:0:0:
294,88,45514,6,0,P|352:147|370:226,1,165,8|0,0:0|0:0,0:0:0:0:
363,317,46096,1,2,0:0:0:0:
201,354,46387,2,0,P|141:301|122:222,1,165,8|0,0:0|0:0,0:0:0:0:
123,132,46970,1,2,0:0:0:0:
233,53,47261,2,0,L|178:48,1,55,8|0,0:0|0:0,0:0:0:0:
89,42,47553,1,2,0:0:0:0:
3,177,47844,6,0,L|35:241,1,55,8|0,0:0|0:0,0:0:0:0:
64,310,48135,2,0,L|118:315,1,55,2|0,0:0|0:0,0:0:0:0:
206,325,48426,2,0,L|302:271,1,110,2|8,0:0|0:0,0:0:0:0:
458,189,49009,2,0,B|413:135|430:50|430:50|410:91|378:98,1,220,0|0,0:0|0:0,0:0:0:0:
219,57,49883,1,0,0:0:0:0:
64,17,50174,6,0,P|35:48|31:90,1,60.5000018463135,4|0,0:0|0:0,0:0:0:0:
83,145,50465,1,8,0:0:0:0:
44,317,50756,2,0,P|103:296|162:321,1,121.000003692627,0|0,0:0|0:0,0:0:0:0:
245,327,51193,2,0,P|304:348|363:323,1,121.000003692627
426,265,51630,1,8,0:0:0:0:
383,76,51921,2,0,P|325:72|266:48,1,121.000003692627,0|10,0:0|0:0,0:0:0:0:
112,165,52504,6,0,L|171:156,1,60.5000018463135,4|0,0:0|0:0,0:0:0:0:
178,246,52795,1,8,0:0:0:0:
367,196,53087,2,0,L|382:76,1,121.000003692627,2|8,0:0|0:0,0:0:0:0:
478,84,53523,2,0,L|463:205,1,121.000003692627,0|0,0:0|0:0,0:0:0:0:
407,283,53960,1,10,0:0:0:0:
239,344,54252,2,0,P|212:356|182:359,2,60.5000018463135,0|2|8,0:0|0:0|0:0,0:0:0:0:
313,283,54688,1,0,0:0:0:0:
344,191,54834,6,0,B|305:190|305:190|287:173,1,60.5000018463135,4|0,0:0|0:0,0:0:0:0:
236,93,55125,1,8,0:0:0:0:
60,175,55417,2,0,B|89:165|89:165|174:167,1,121.000003692627,0|8,0:0|0:0,0:0:0:0:
226,251,55853,2,0,B|197:261|197:261|112:259,1,121.000003692627
9,261,56290,1,8,0:0:0:0:
59,73,56582,2,0,B|179:74,1,121.000003692627,0|10,0:0|0:0,0:0:0:0:
270,76,57019,1,0,0:0:0:0:
342,135,57164,6,0,P|371:155|388:191,1,60.5000018463135,4|0,0:0|0:0,0:0:0:0:
376,266,57455,1,8,0:0:0:0:
196,238,57747,2,0,P|255:243|308:215,1,121.000003692627,0|8,0:0|0:0,0:0:0:0:
238,157,58184,2,0,P|178:151|125:179,1,121.000003692627
52,125,58620,1,8,0:2:0:0:
101,299,58912,2,0,L|157:320,1,60.5000018463135
245,345,59203,1,8,0:2:0:0:
320,180,59494,6,0,P|408:172|490:216,2,181.500005538941,4|0|4,0:2|0:0|0:2,0:0:0:0:
148,268,60951,2,0,P|45:207|159:172,1,302.500009231568,8|8,0:2|0:2,0:0:0:0:
324,248,61970,6,0,L|385:242,2,60.5000018463135,0|8|0,0:0|0:2|0:0,0:0:0:0:
357,157,62407,2,0,L|418:151,2,60.5000018463135,0|0|8,0:0|0:0|0:2,0:0:0:0:
388,65,62844,1,0,0:0:0:0:
292,79,62990,2,0,L|231:85,1,60.5000018463135,0|0,0:0|0:0,0:0:0:0:
135,96,63281,2,0,B|147:160|200:177|200:177|139:216|162:298,1,242.000007385254,8|0,0:2|0:0,0:0:0:0:
339,281,64154,6,0,P|391:290|447:273,1,110,4|8,0:1|0:2,0:0:0:0:
452,98,64737,2,0,P|399:88|344:106,1,110,0|8,0:0|0:2,0:0:0:0:
295,176,65174,2,0,L|178:179,1,110
96,180,65611,1,8,0:2:0:0:
64,353,65902,1,0,0:0:0:0:
230,295,66193,1,8,0:2:0:0:
405,314,66485,6,0,P|445:272|454:203,1,110,0|8,0:0|0:2,0:0:0:0:
421,142,66921,2,0,L|297:124,1,110
258,57,67358,1,8,0:2:0:0:
200,123,67504,2,0,L|92:138,1,110
0,152,67941,1,8,0:2:0:0:
87,304,68232,2,0,L|154:294,1,55
223,279,68523,1,8,0:2:0:0:
200,123,68815,6,0,P|145:125|94:104,1,110,4|8,0:1|0:2,0:0:0:0:
258,57,69397,2,0,P|286:104|278:161,1,110,0|8,3:0|0:2,0:0:0:0:
211,211,69834,2,0,P|205:264|233:311,1,110,0|0,3:0|0:0,0:0:0:0:
307,355,70271,1,8,0:2:0:0:
322,141,70562,2,0,L|385:104,1,55
448,58,70853,2,0,L|466:116,1,55,8|0,0:2|0:0,0:0:0:0:
483,197,71145,6,0,P|441:232|408:276,1,110,0|8,0:0|0:2,0:0:0:0:
321,281,71582,2,0,P|282:230|243:199,1,110
159,201,72019,1,8,0:2:0:0:
125,281,72164,2,0,P|158:325|201:360,1,110,0|0,0:0|0:0,0:0:0:0:
288,365,72601,1,8,0:2:0:0:
339,200,72892,1,0,0:0:0:0:
453,334,73184,1,8,0:2:0:0:
453,170,73475,5,4,0:1:0:0:
389,31,73766,2,0,P|361:37|328:58,1,55,8|0,0:2|0:0,0:0:0:0:
271,108,74057,2,0,P|242:100|209:85,1,55,0|0,0:0|0:0,0:0:0:0:
169,17,74349,1,8,0:2:0:0:
136,98,74494,2,0,P|142:155|128:224,1,110
92,284,74931,1,8,0:2:0:0:
180,282,75077,2,0,P|246:255|301:248,1,110,0|0,0:0|0:0,0:0:0:0:
366,277,75514,1,8,0:2:0:0:
431,113,75805,5,0,0:0:0:0:
258,143,76096,2,0,L|190:52,2,110,8|0|8,0:2|0:0|0:2,0:0:0:0:
325,201,76824,2,0,P|281:228|221:223,1,110
163,166,77261,1,8,0:2:0:0:
113,93,77407,2,0,P|82:136|81:190,1,110,0|0,0:0|0:0,0:0:0:0:
146,250,77844,1,8,0:2:0:0:
303,328,78135,6,0,B|359:303|359:303|407:307,1,110,4|8,0:1|0:2,0:0:0:0:
478,150,78718,2,0,P|465:107|413:69,1,110,0|8,0:0|0:2,0:0:0:0:
392,156,79154,2,0,L|292:199,1,110
211,237,79591,1,8,0:2:0:0:
147,70,79883,2,0,L|206:44,1,55,0|0,0:0|0:0,0:0:0:0:
280,15,80174,1,8,0:2:0:0:
392,156,80465,6,0,L|382:268,1,110,4|8,2:1|0:2,0:0:0:0:
437,335,80902,2,0,P|388:353|325:334,1,110,0|0,0:0|0:0,0:0:0:0:
298,259,81339,1,8,0:2:0:0:
245,330,81485,2,0,B|204:293|166:305|166:305|129:313|91:291,1,165,0|8,0:0|0:2,0:0:0:0:
137,120,82213,1,0,0:0:0:0:
300,56,82504,1,8,0:2:0:0:
442,157,82795,6,0,L|369:165,1,55,4|0,0:1|0:0,0:0:0:0:
299,172,83087,1,8,0:2:0:0:
137,120,83378,2,0,P|123:173|136:226,1,110,8|0,0:2|0:0,0:0:0:0:
169,307,83815,2,0,L|279:297,1,110,8|0,0:2|0:0,0:0:0:0:
367,289,84252,1,8,0:2:0:0:
442,129,84543,1,8,0:2:0:0:
302,22,84834,6,0,L|238:29,1,55,4|0,0:1|0:0,0:0:0:0:
161,44,85125,1,8,0:2:0:0:
263,188,85417,2,0,P|273:240|258:305,1,110,8|0,0:2|0:0,0:0:0:0:
175,293,85853,2,0,P|166:240|180:176,1,110,8|0,0:2|0:0,0:0:0:0:
218,107,86290,1,8,0:2:0:0:
394,98,86582,2,0,L|503:93,1,110,8|8,0:2|0:2,0:0:0:0:
462,263,87164,6,0,L|414:265,1,55,4|0,0:1|0:0,0:0:0:0:
318,269,87455,1,8,0:2:0:0:
165,179,87747,2,0,P|108:160|56:180,1,110,8|0,0:2|0:0,0:0:0:0:
113,246,88184,2,0,L|114:123,1,110,8|0,0:2|0:0,0:0:0:0:
115,48,88620,1,8,0:2:0:0:
290,27,88912,1,8,0:2:0:0:
425,138,89203,6,0,L|441:203,1,55,4|0,0:1|0:0,0:0:0:0:
461,276,89494,1,8,0:2:0:0:
299,346,89786,2,0,P|252:321|198:326,1,110,8|0,0:2|0:0,0:0:0:0:
111,347,90222,2,0,P|116:284|103:232,1,110,8|0,0:2|0:0,0:0:0:0:
82,153,90659,1,8,0:2:0:0:
228,54,90951,6,0,L|283:53,1,55,8|8,0:2|0:0,0:0:0:0:
307,137,91242,2,0,L|252:138,1,55,8|8,0:0|0:0,0:0:0:0:
405,235,100853,6,0,P|367:218|326:222,1,82.5000031471254,0|0,0:0|0:0,0:0:0:0:
271,342,101435,2,0,P|223:350|191:334,1,82.5000031471254,8|0,0:2|0:0,0:0:0:0:
89,254,102018,2,0,B|89:230|89:158,1,82.5000031471254,2|0,0:0|0:0,0:0:0:0:
112,109,102455,1,2,0:0:0:0:
112,109,102600,2,0,P|152:101|200:109,1,82.5000031471254,10|0,0:2|0:0,0:0:0:0:
320,71,103183,6,0,L|320:167,1,82.5000031471254,8|0,0:2|0:0,0:0:0:0:
416,218,103766,2,0,L|366:297,1,82.5000031471254,10|2,0:2|0:0,0:0:0:0:
266,240,104348,2,0,P|226:232|178:248,1,82.5000031471254
127,273,104785,1,2,0:0:0:0:
127,273,104931,2,0,L|135:369,1,82.5000031471254,10|0,0:2|0:0,0:0:0:0:
247,337,105513,6,0,P|286:347|326:339,1,82.5000031471254,8|0,0:2|0:0,0:0:0:0:
398,227,106096,2,0,P|382:171|390:139,1,82.5000031471254,8|0,0:2|0:0,0:0:0:0:
407,85,106533,1,2,0:0:0:0:
407,85,106678,2,0,L|319:93,1,82.5000031471254,2|0,0:0|0:0,0:0:0:0:
246,7,107261,2,0,L|163:13,1,82.5000031471254,10|0,0:2|0:0,0:0:0:0:
189,123,107843,6,0,P|170:143|163:169,1,55,2|0,0:0|0:0,0:0:0:0:
147,254,108134,1,2,0:0:0:0:
147,254,108279,1,0,0:0:0:0:
348,168,108716,6,0,P|340:142|321:123,1,55,2|0,0:0|0:0,0:0:0:0:
258,66,109008,1,2,0:0:0:0:
258,66,109153,1,0,0:0:0:0:
229,284,109590,6,0,P|256:289|282:283,1,55,2|0,0:0|0:0,0:0:0:0:
363,254,109881,1,2,0:0:0:0:
363,254,110027,1,0,0:0:0:0:
39,339,111046,6,0,P|15:307|-1:279,1,55,0|0,0:0|0:0,0:0:0:0:
19,206,111339,6,0,P|45:158|108:141,1,121.000003692627,4|8,0:0|0:0,0:0:0:0:
192,161,111775,2,0,P|166:209|103:226,1,121.000003692627,0|0,0:0|0:0,0:0:0:0:
105,140,112212,2,0,L|76:68,1,60.5000018463135,8|0,0:0|0:0,0:0:0:0:
65,0,112504,2,0,P|37:9|15:29,2,60.5000018463135,0|0|8,0:0|0:0|0:0,0:0:0:0:
147,32,112940,2,0,P|196:55|266:57,1,121.000003692627,0|0,0:2|0:0,0:0:0:0:
313,121,113377,2,0,P|319:150|313:182,1,60.5000018463135,8|0,0:0|0:0,0:0:0:0:
239,228,113669,6,0,L|216:295,2,60.5000018463135,4|0|8,0:0|0:0|0:0,0:0:0:0:
233,148,114105,2,0,P|173:137|117:112,1,121.000003692627,0|0,0:2|0:0,0:0:0:0:
49,62,114542,2,0,P|33:111|41:146,1,60.5000018463135,8|0,0:0|0:0,0:0:0:0:
36,205,114834,2,0,L|-4:261,2,60.5000018463135,0|0|8,0:2|0:0|0:0,0:0:0:0:
120,205,115271,1,0,0:2:0:0:
308,88,115562,2,0,L|281:22,2,60.5000018463135,0|8|0,0:0|0:0|0:0,0:0:0:0:
349,166,115999,6,0,P|361:202|365:240,1,60.5000018463135,4|0,0:0|0:0,0:0:0:0:
275,216,116290,2,0,P|268:254|254:281,1,60.5000018463135,8|0,0:0|0:0,0:0:0:0:
183,322,116581,1,0,0:0:0:0:
104,186,116872,6,0,P|92:150|93:115,1,60.5000018463135,8|0,0:0|0:0,0:0:0:0:
176,139,117164,2,0,P|184:102|198:71,1,60.5000018463135,0|0,0:0|0:0,0:0:0:0:
270,46,117455,1,8,0:0:0:0:
349,163,117746,2,0,P|385:183|418:192,2,60.5000018463135,0|0|8,0:0|0:0|0:0,0:0:0:0:
264,159,118183,1,0,0:0:0:0:
300,235,118329,6,0,P|329:287|319:344,1,121.000003692627,4|8,0:0|0:0,0:0:0:0:
245,302,118766,2,0,P|188:316|134:290,1,121.000003692627,0|0,0:0|0:0,0:0:0:0:
109,208,119203,1,8,0:0:0:0:
98,119,119348,2,0,P|150:102|207:59,1,121.000003692627,0|0,0:0|0:0,0:0:0:0:
266,0,119785,2,0,L|336:11,1,60.5000018463135,8|0,0:0|0:0,0:0:0:0:
411,0,120076,2,0,P|411:28|395:59,1,60.5000018463135
319,93,120368,2,0,P|286:102|249:131,1,60.5000018463135,8|0,0:0|0:0,0:0:0:0:
284,201,120659,6,0,P|337:227|397:221,1,121.000003692627,4|8,0:0|0:0,0:0:0:0:
484,217,121096,2,0,P|476:255|449:289,1,60.5000018463135,0|0,0:0|0:0,0:0:0:0:
404,342,121387,1,0,0:0:0:0:
404,342,121533,2,0,P|381:325|327:313,1,60.5000018463135,8|0,0:0|0:0,0:0:0:0:
268,321,121824,2,0,L|251:383,2,60.5000018463135,0|0|8,0:0|0:0|0:0,0:0:0:0:
186,287,122261,2,0,P|125:267|76:214,1,121.000003692627,0|0,0:0|0:0,0:0:0:0:
41,149,122698,2,0,P|57:121|79:97,1,60.5000018463135,8|0,0:0|0:0,0:0:0:0:
153,65,122989,6,0,L|186:199,1,121.000003692627,4|8,0:0|0:0,0:0:0:0:
265,151,123426,2,0,L|234:30,1,121.000003692627,0|0,0:0|0:0,0:0:0:0:
325,30,123863,2,0,L|379:62,1,60.5000018463135,8|4,0:0|0:2,0:0:0:0:
451,108,124154,2,0,P|456:161|415:231,1,121.000003692627,0|8,0:0|0:0,0:0:0:0:
340,233,124591,2,0,P|285:237|222:254,1,121.000003692627,0|0,0:0|0:0,0:0:0:0:
215,339,125028,1,8,0:0:0:0:
69,217,125319,6,0,L|142:203,1,60.5000018463135,4|0,0:0|0:0,0:0:0:0:
110,123,125610,2,0,L|50:132,1,60.5000018463135,8|0,0:0|0:0,0:0:0:0:
34,48,125902,2,0,L|107:34,1,60.5000018463135,0|0,0:0|0:0,0:0:0:0:
174,64,126193,6,0,L|232:53,1,60.5000018463135,8|0,0:0|0:0,0:0:0:0:
257,134,126485,2,0,L|198:145,1,60.5000018463135,0|0,0:0|0:0,0:0:0:0:
214,227,126776,2,0,L|272:216,1,60.5000018463135,8|0,0:0|0:0,0:0:0:0:
354,189,127067,6,0,L|400:127,2,60.5000018463135,0|0|8,0:0|0:0|0:0,0:0:0:0:
243,330,127649,2,0,P|197:359|131:347,1,121.000003692627,4|8,0:0|0:0,0:0:0:0:
178,276,128086,2,0,L|224:212,2,60.5000018463135,0|0|0,0:0|0:0|0:0,0:0:0:0:
93,276,128523,1,8,0:0:0:0:
52,202,128669,2,0,P|43:137|66:73,1,121.000003692627,0|0,0:0|0:0,0:3:0:0:
115,20,129105,1,8,0:0:0:0:
275,129,129397,5,0,0:0:0:0:
275,129,129542,1,0,0:0:0:0:
283,216,129688,2,0,P|310:208|335:196,1,55,8|0,0:0|0:0,0:0:0:0:
393,264,129979,2,0,P|343:287|290:303,1,110,4|8,0:0|0:0,0:0:0:0:
116,273,130562,1,0,0:0:0:0:
116,273,130707,1,0,0:0:0:0:
142,189,130853,2,0,L|161:137,1,55,8|0,0:0|0:0,0:0:0:0:
206,62,131144,6,0,P|152:49|92:81,1,110,0|8,0:0|0:0,0:0:0:0:
77,153,131581,1,0,0:0:0:0:
162,138,131727,2,0,P|188:147|228:149,1,55,0|0,0:0|0:0,0:0:0:0:
294,110,132018,2,0,P|302:138|300:179,1,55,8|0,0:0|0:0,0:0:0:0:
285,244,132309,2,0,L|394:237,1,110,4|8,0:0|0:0,0:0:0:0:
401,325,132746,2,0,L|291:331,1,110,0|0,0:0|0:0,0:0:0:0:
211,293,133183,6,0,P|180:277|157:246,1,55,0|0,0:0|0:0,0:0:0:0:
129,182,133474,2,0,P|138:123|181:185,2,165,12|0|0,0:0|0:0|0:0,0:0:0:0:
293,246,134639,5,4,0:0:0:0:
