osu file format v12

[General]
AudioFilename: Nevereverlandver.PV.mp3
AudioLeadIn: 0
PreviewTime: 111047
Countdown: 0
SampleSet: Normal
StackLeniency: 0.7
Mode: 0
LetterboxInBreaks: 0

[Editor]
DistanceSpacing: 0.6
BeatDivisor: 4
GridSize: 4

[Metadata]
Title:Nevereverland
TitleUnicode:Nevereverland
Artist:nano
ArtistUnicode:ナノ
Creator:Nyquill
Version:Insane
Source:
Tags:jonathanlfj LunarSakuya Itou Naoki neko
BeatmapID:256499
BeatmapSetID:95533

[Difficulty]
HPDrainRate:6
CircleSize:4
OverallDifficulty:7
ApproachRate:9
SliderMultiplier:1.9
SliderTickRate:2

[Events]
//Background and Video events
Video,23,"video.avi"
0,0,"320fX.jpg",0,0
//Break Periods
2,50374,57729
2,210275,218505
//Storyboard Layer 0 (Background)
//Storyboard Layer 1 (Fail)
//Storyboard Layer 2 (Pass)
//Storyboard Layer 3 (Foreground)
//Storyboard Sound Samples
//Background Colour Transformations
3,100,163,162,255

[TimingPoints]
934,400,4,2,1,40,1,0
13734,-117.647058823529,4,2,1,40,0,0
40854,291.26213592233,4,2,0,85,1,0
49591,-133.333333333333,4,2,0,85,0,0
58329,-100,4,2,0,85,0,0
58912,-100,4,1,1,85,0,0
64154,-111.111111111111,4,1,1,85,0,0
92116,-133.333333333333,4,2,1,85,0,0
107844,291.26213592233,3,1,1,85,1,0
107844,-133.333333333333,3,1,1,85,0,0
108426,-111.111111111111,3,1,1,85,0,0
110319,-125,3,2,1,85,0,0
111339,291.26213592233,4,1,1,85,1,1
111339,-100,4,1,1,100,0,1
120076,-100,4,1,1,95,0,1
120659,-100,4,1,1,100,0,1
133474,-111.111111111111,4,1,1,100,0,1
134639,-100,4,1,1,85,0,0
138135,-111.111111111111,4,1,1,85,0,0
164639,291.26213592233,4,1,1,85,1,0
166969,-133.333333333333,4,2,1,85,0,0
183279,291.26213592233,3,2,1,85,1,0
183279,-133.333333333333,3,1,1,85,0,0
184152,-111.111111111111,3,1,1,85,0,0
185026,-100,3,1,1,85,0,0
185754,-125,3,2,1,85,0,0
186775,291.26213592233,4,1,1,100,1,1
195512,-100,4,1,1,95,0,1
196095,-100,4,1,1,100,0,1
210075,-100,4,1,1,85,0,0
219396,-166.666666666667,4,2,1,85,0,0
238328,-166.666666666667,4,2,1,5,0,0
240367,-90.9090909090909,4,1,1,100,0,1
249687,-86.9565217391304,4,1,1,100,0,1
263668,-100,4,1,1,95,0,0
264250,291.26213592233,4,1,1,95,1,0

[Colours]
Combo1 : 104,166,142
Combo2 : 146,91,153
Combo3 : 197,69,245

[HitObjects]
136,200,13734,2,0,P|212:192|304:184,1,161.500003080368,2|0,0:0|0:0,0:0:0:0:
384,176,14334,1,2,0:0:0:0:
304,108,14534,2,0,P|296:220|300:292,1,161.500003080368,0|2,0:0|0:0,0:0:0:0:
352,328,15134,2,0,P|268:296|200:320,1,161.500003080368,0|2,0:0|0:0,0:0:0:0:
120,344,15734,2,0,P|64:348|36:344,1,80.750001540184
44,164,16134,2,0,P|100:160|128:164,1,80.750001540184,0|2,0:0|0:0,0:0:0:0:
80,256,16534,1,0,0:0:0:0:
80,256,16734,1,2,0:0:0:0:
184,228,16934,6,0,P|284:212|372:232,1,161.500003080368,0|2,0:0|0:0,0:0:0:0:
352,128,17534,2,0,P|268:84|232:12,2,161.500003080368,0|2|0,0:0|0:0|0:0,0:0:0:0:
208,132,18534,2,0,L|116:120,1,80.750001540184,0|2,0:0|0:0,0:0:0:0:
232,212,18934,2,0,L|164:264,1,80.750001540184
304,264,19334,2,0,L|292:368,1,80.750001540184,2|0,0:0|0:0,0:0:0:0:
400,252,19734,2,0,L|444:344,1,80.750001540184,0|2,0:0|0:0,0:0:0:0:
468,192,20134,6,0,P|492:100|484:28,1,161.500003080368,2|0,0:0|0:0,0:0:0:0:
328,180,20734,2,0,P|240:192|160:164,1,161.500003080368,2|0,0:0|0:0,0:0:0:0:
180,40,21334,2,0,P|276:28|364:56,1,161.500003080368,2|0,0:0|0:0,0:0:0:0:
436,96,21934,2,0,L|444:12,1,80.750001540184,2|0,0:0|0:0,0:0:0:0:
492,176,22334,1,0,0:0:0:0:
492,176,22534,1,2,0:0:0:0:
352,256,22734,1,0,0:0:0:0:
404,176,22934,1,2,0:0:0:0:
448,264,23134,1,0,0:0:0:0:
304,176,23334,6,0,L|120:160,1,161.500003080368,2|0,0:0|0:0,0:0:0:0:
92,272,23934,2,0,L|264:256,1,161.500003080368,2|0,0:0|0:0,0:0:0:0:
168,336,24534,2,0,P|128:232|172:168,1,161.500003080368,2|0,0:0|0:0,0:0:0:0:
16,48,25134,2,0,P|56:152|12:216,1,161.500003080368,2|0,0:0|0:0,0:0:0:0:
156,60,25734,1,2,0:0:0:0:
164,48,26134,2,0,P|248:36|304:68,1,121.125002310276,2|0,0:0|0:0,0:0:0:0:
288,56,26534,6,0,P|400:68|448:16,1,161.500003080368,2|2,0:0|0:0,0:0:0:0:
216,124,27134,2,0,P|200:188|200:228,2,80.750001540184
132,256,27734,1,2,0:0:0:0:
288,180,27934,2,0,B|368:148|372:216|480:164,1,161.500003080368,0|2,0:0|0:0,0:0:0:0:
492,104,28534,1,2,0:0:0:0:
384,240,28734,1,2,0:0:0:0:
336,76,28934,1,2,0:0:0:0:
444,176,29134,1,2,0:0:0:0:
360,164,29334,1,2,0:0:0:0:
412,104,29534,1,2,0:0:0:0:
412,104,29634,1,2,0:0:0:0:
412,104,29734,5,6,0:0:0:0:
412,104,30134,1,0,0:0:0:0:
280,132,30334,2,0,L|116:116,1,161.500003080368,2|0,0:0|0:0,0:0:0:0:
216,200,30934,2,0,P|244:112|216:36,1,161.500003080368,2|0,0:0|0:0,0:0:0:0:
320,168,31534,2,0,P|312:236|312:256,1,80.750001540184,2|2,0:0|0:0,0:0:0:0:
472,280,31934,2,0,P|480:212|480:192,1,80.750001540184,0|2,0:0|0:0,0:0:0:0:
412,120,32334,1,0,0:0:0:0:
400,208,32534,1,2,0:0:0:0:
388,292,32734,1,0,0:0:0:0:
376,376,32934,6,0,P|292:352|248:280,1,161.500003080368,2|0,0:0|0:0,0:0:0:0:
136,144,33534,2,0,P|168:244|160:304,1,161.500003080368
96,364,34134,1,2,0:0:0:0:
232,136,34334,1,2,0:0:0:0:
248,120,34734,2,0,L|360:116,1,80.750001540184,0|2,0:0|0:0,0:0:0:0:
500,104,35134,1,2,0:0:0:0:
500,104,35534,1,0,0:0:0:0:
404,120,35734,1,0,0:0:0:0:
464,188,35934,1,0,0:0:0:0:
440,32,36134,5,2,0:0:0:0:
440,32,36534,1,0,0:0:0:0:
404,120,36734,2,0,P|316:116|260:64,1,161.500003080368
204,136,37334,2,0,P|248:220|236:288,1,161.500003080368,2|0,0:0|0:0,0:0:0:0:
324,304,37934,2,0,P|356:224|428:196,1,161.500003080368,2|0,0:0|0:0,0:0:0:0:
424,296,38534,1,0,0:0:0:0:
248,96,38934,2,0,L|240:32,1,40.375000770092,0|2,0:0|0:0,0:0:0:0:
316,128,39134,2,0,L|376:104,1,40.375000770092,2|0,0:0|0:0,0:0:0:0:
252,172,39334,1,2,0:0:0:0:
344,300,40854,6,0,P|256:292|148:284,1,190,0|0,1:0|0:0,0:0:0:0:
52,284,41290,1,2,0:0:0:0:
152,188,41436,1,0,0:0:0:0:
64,104,41582,1,2,0:0:0:0:
56,196,41727,1,0,0:0:0:0:
164,96,41873,6,0,L|272:80,1,95
352,184,42164,2,0,L|244:200,1,95,2|0,0:0|0:0,0:0:0:0:
408,28,42455,2,0,P|456:144|432:216,1,190
408,332,42892,1,2,0:0:0:0:
352,184,43038,1,0,1:0:0:0:
512,208,43184,5,0,0:0:0:0:
336,268,43329,1,0,1:0:0:0:
184,168,43475,2,0,P|92:168|24:252,1,190
252,232,43912,2,0,P|268:160|264:120,1,95,2|0,0:0|0:0,0:0:0:0:
356,56,44203,2,0,P|380:152|368:252,2,190,0|2|0,0:0|0:0|0:0,0:0:0:0:
264,128,44931,1,0,0:0:0:0:
228,140,45004,1,0,0:0:0:0:
188,144,45077,1,0,0:0:0:0:
152,140,45150,1,0,0:0:0:0:
116,128,45222,2,0,L|16:116,1,95
288,316,45514,6,0,P|332:224|308:124,1,190,4|0,1:2|0:0,0:0:0:0:
220,60,45951,2,0,P|176:152|200:252,1,190,0|0,1:2|0:0,0:0:0:0:
420,228,46387,2,0,P|412:124|348:28,1,190,4|0,1:2|0:0,0:0:0:0:
92,156,46824,2,0,P|100:260|164:356,1,190,0|0,1:2|0:0,0:0:0:0:
316,256,47261,2,0,P|328:184|328:152,1,95,0|0,1:0|1:0,0:0:0:0:
196,128,47553,2,0,P|184:200|184:232,1,95,8|8,3:0|3:0,0:0:0:0:
272,56,47844,6,0,P|144:32|72:72,1,190,4|0,1:2|0:0,0:0:0:0:
24,192,48281,1,2,0:0:0:0:
152,108,48426,1,0,0:0:0:0:
40,96,48572,1,0,0:0:0:0:
140,208,48718,2,0,L|256:200,1,95,0|0,1:0|1:0,0:0:0:0:
352,56,49009,1,0,1:0:0:0:
344,92,49082,1,0,1:0:0:0:
348,128,49154,1,0,1:0:0:0:
360,164,49227,1,0,1:0:0:0:
372,200,49300,1,0,1:0:0:0:
376,240,49373,1,0,1:0:0:0:
368,276,49446,1,0,1:0:0:0:
352,312,49519,1,0,1:0:0:0:
384,336,49591,6,0,B|356:328|356:328|344:348|344:348|336:332|336:332|256:324,1,142.500005435944,0|0,1:0|1:0,0:0:0:0:
476,312,50174,1,4,1:2:0:0:
192,184,58329,5,0,1:0:0:0:
216,200,58402,1,0,1:0:0:0:
240,216,58475,1,0,1:0:0:0:
264,232,58548,1,0,1:0:0:0:
288,248,58620,2,0,L|408:232,1,95,0|0,1:0|0:0,0:0:0:0:
228,100,58912,2,0,L|112:116,1,95,4|0,0:0|0:0,0:0:0:0:
380,152,59203,2,0,L|484:140,1,95,4|0,0:0|0:0,0:0:0:0:
108,44,59494,6,0,P|44:132|48:216,1,190,4|0,0:0|0:0,0:0:0:0:
156,288,59931,1,0,0:0:0:0:
264,232,60077,2,0,P|352:192|472:208,1,190,8|0,0:0|0:0,0:0:0:0:
344,276,60514,2,0,L|156:256,1,190
96,188,60951,2,0,P|108:136|100:80,1,95,8|0,0:0|0:0,0:0:0:0:
76,276,61242,2,0,P|64:328|72:384,1,95,0|8,0:0|0:0,0:0:0:0:
156,328,61533,1,8,0:0:0:0:
96,188,61679,1,8,0:0:0:0:
212,104,61824,6,0,L|332:92,1,95,4|0,0:0|0:0,0:0:0:0:
436,80,62116,1,0,0:0:0:0:
312,176,62261,1,0,0:0:0:0:
296,12,62407,1,8,0:0:0:0:
412,168,62553,1,8,0:0:0:0:
260,100,62698,2,0,L|156:112,1,95
276,264,62989,2,0,L|316:164,1,95
128,208,63281,2,0,L|200:292,1,95,8|0,0:0|0:0,0:0:0:0:
72,136,63572,1,0,0:0:0:0:
480,196,63863,1,0,0:0:0:0:
260,120,64154,6,0,B|232:212|288:200|244:324,2,170.999994781494,4|8|0,0:0|0:0|0:0,0:0:0:0:
272,36,64883,1,0,0:0:0:0:
340,92,65028,1,8,0:0:0:0:
184,60,65174,2,0,P|80:60|32:8,1,170.999994781494
96,176,65611,2,0,P|108:232|104:276,1,85.4999973907472,8|0,0:0|0:0,0:0:0:0:
216,352,65902,2,0,P|224:288|236:260,1,85.4999973907472
272,164,66193,1,8,0:0:0:0:
324,312,66339,1,0,0:0:0:0:
144,272,66485,6,0,P|28:296|-12:240,1,170.999994781494,0|8,0:0|0:0,0:0:0:0:
272,164,66921,2,0,P|324:228|296:332,1,170.999994781494
184,196,67358,1,8,0:0:0:0:
144,120,67504,2,0,P|32:148|0:224,1,170.999994781494
48,264,67941,1,8,0:0:0:0:
344,300,68232,1,0,0:0:0:0:
140,344,68523,1,8,0:0:0:0:
448,112,68815,6,0,B|484:200|408:204|468:308,2,170.999994781494,4|8|0,0:0|0:0|0:0,0:0:0:0:
424,32,69543,1,0,0:0:0:0:
360,152,69688,1,8,0:0:0:0:
332,56,69834,2,0,P|232:64|196:140,1,170.999994781494
284,224,70271,2,0,P|292:176|288:120,1,85.4999973907472,8|0,0:0|0:0,0:0:0:0:
108,124,70562,2,0,P|100:172|100:228,1,85.4999973907472,0|0,0:0|0:0,0:0:0:0:
188,232,70853,1,8,0:0:0:0:
196,108,70999,1,0,0:0:0:0:
48,36,71145,6,0,P|16:140|32:232,1,170.999994781494,0|8,0:0|0:0,0:0:0:0:
196,108,71582,2,0,P|292:96|376:160,1,170.999994781494
404,228,72019,1,8,0:0:0:0:
288,224,72164,2,0,P|276:148|288:32,1,170.999994781494
388,176,72601,2,0,L|372:280,1,85.4999973907472,8|0,0:0|0:0,0:0:0:0:
188,152,72892,2,0,L|208:48,1,85.4999973907472,0|0,0:0|0:0,0:0:0:0:
264,296,73184,1,8,0:0:0:0:
264,296,73475,6,0,P|364:252|436:272,1,170.999994781494,4|8,0:0|0:0,0:0:0:0:
360,344,73912,1,0,0:0:0:0:
208,216,74057,2,0,P|140:208|96:212,2,85.4999973907472,0|0|8,0:0|0:0|0:0,0:0:0:0:
52,260,74494,2,0,P|8:209|4:88,1,170.999994781494
208,216,74931,1,8,0:0:0:0:
300,280,75077,2,0,P|388:268|452:208,1,170.999994781494
208,216,75514,1,8,0:0:0:0:
208,216,75805,6,0,P|136:176|24:208,1,170.999994781494,0|8,0:0|0:0,0:0:0:0:
164,296,76242,1,0,0:0:0:0:
264,292,76387,2,0,L|384:284,1,85.4999973907472
440,276,76679,1,8,0:0:0:0:
300,208,76824,2,0,P|236:164|240:60,1,170.999994781494
336,24,77261,2,0,P|400:68|392:172,1,170.999994781494,8|0,0:0|0:0,0:0:0:0:
320,116,77698,1,0,0:0:0:0:
240,64,77844,2,0,L|128:56,1,85.4999973907472,8|0,0:0|0:0,0:0:0:0:
44,32,78135,6,0,P|100:120|68:216,1,170.999994781494,4|8,0:0|0:0,0:0:0:0:
412,284,78718,1,0,0:0:0:0:
336,324,78863,1,0,0:0:0:0:
272,268,79009,1,8,0:0:0:0:
348,240,79154,2,0,P|388:152|364:64,1,170.999994781494
184,164,79591,2,0,P|108:172|88:172,1,85.4999973907472,8|0,0:0|0:0,0:0:0:0:
296,200,79883,2,0,P|352:200|392:208,1,85.4999973907472
136,88,80174,2,0,P|80:64|48:40,1,85.4999973907472,8|0,0:0|0:0,0:0:0:0:
300,88,80465,6,0,P|344:208|316:268,1,170.999994781494,4|8,0:0|0:0,0:0:0:0:
240,304,80902,2,0,L|32:288,1,170.999994781494
252,216,81339,1,8,0:0:0:0:
340,336,81485,2,0,P|436:340|504:272,1,170.999994781494
300,184,81921,2,0,P|240:208|208:232,1,85.4999973907472,8|0,0:0|0:0,0:0:0:0:
424,188,82213,2,0,P|448:124|456:84,1,85.4999973907472,8|0,0:0|0:0,0:0:0:0:
372,292,82504,2,0,P|400:364|416:384,1,85.4999973907472,8|0,0:0|0:0,0:0:0:0:
244,304,82795,6,0,P|140:292|40:288,1,170.999994781494,4|0,0:0|0:0,0:0:0:0:
316,104,83378,1,8,0:0:0:0:
408,136,83523,1,0,0:0:0:0:
376,48,83669,1,0,0:0:0:0:
336,180,83815,1,0,0:0:0:0:
336,180,84106,2,0,P|324:240|328:272,1,85.4999973907472,0|8,0:0|0:0,0:0:0:0:
172,196,84397,2,0,P|204:160|248:136,1,85.4999973907472
316,104,84688,1,0,0:0:0:0:
184,60,84834,6,0,P|128:52|88:36,1,85.4999973907472,4|0,0:0|0:0,0:0:0:0:
108,184,85125,2,0,P|164:161|208:156,1,85.4999973907472,0|0,0:0|0:0,0:0:0:0:
196,312,85417,2,0,P|91:305|24:244,1,170.999994781494,8|0,0:0|0:0,0:0:0:0:
292,272,85853,1,0,0:0:0:0:
292,272,86145,2,0,P|348:264|388:260,1,85.4999973907472,0|8,0:0|0:0,0:0:0:0:
476,256,86436,1,0,0:0:0:0:
256,160,86582,2,0,P|192:156|160:144,1,85.4999973907472
304,60,86873,2,0,P|360:72|400:92,1,85.4999973907472,8|8,0:0|0:0,0:0:0:0:
512,184,87164,5,4,0:0:0:0:
396,208,87310,1,0,0:0:0:0:
476,104,87455,1,0,0:0:0:0:
476,252,87601,1,0,0:0:0:0:
336,160,87747,2,0,L|128:152,1,170.999994781494,8|0,0:0|0:0,0:0:0:0:
20,148,88184,1,0,0:0:0:0:
20,148,88475,1,0,0:0:0:0:
152,216,88620,2,0,P|160:272|156:320,1,85.4999973907472,8|0,0:0|0:0,0:0:0:0:
92,108,88912,2,0,P|84:52|88:12,1,85.4999973907472,12|0,0:0|0:0,0:0:0:0:
264,152,89203,5,0,0:0:0:0:
352,180,89349,1,0,0:0:0:0:
416,124,89494,1,0,0:0:0:0:
328,88,89640,1,0,0:0:0:0:
272,244,89786,2,0,P|172:272|116:200,1,170.999994781494,8|0,0:0|0:0,0:0:0:0:
356,204,90222,2,0,P|456:176|512:244,1,170.999994781494,0|0,0:0|0:0,0:0:0:0:
272,244,90659,2,0,P|268:176|272:136,1,85.4999973907472,12|0,0:0|0:0,0:0:0:0:
432,256,90951,2,0,P|436:320|432:352,1,85.4999973907472,8|0,0:0|0:0,0:0:0:0:
356,204,91242,1,8,0:0:0:0:
488,176,91387,1,8,0:0:0:0:
488,176,92116,6,0,L|320:172,1,142.500005435944,2|0,0:0|0:0,0:0:0:0:
264,168,92553,1,0,0:0:0:0:
304,244,92698,2,0,L|316:332,2,71.2500027179719,2|0|0,0:0|0:0|0:0,0:0:0:0:
212,232,93135,2,0,L|176:300,2,71.2500027179719,2|0|0,0:0|0:0|0:0,0:0:0:0:
160,156,93572,2,0,L|56:148,1,71.2500027179719,2|0,0:0|0:0,0:0:0:0:
220,80,93863,6,0,L|380:68,1,142.500005435944,2|0,0:0|0:0,0:0:0:0:
440,32,94300,1,0,0:0:0:0:
472,228,94446,2,0,P|464:276|464:308,1,71.2500027179719,0|2,0:0|0:0,0:0:0:0:
365,181,94737,2,0,P|356:188|312:228,1,71.2500027179719,2|0,0:0|0:0,0:0:0:0:
392,80,95028,2,0,P|328:56|240:80,1,142.500005435944,2|0,0:0|0:0,0:0:0:0:
208,128,95465,2,0,P|136:141|72:117,1,142.500005435944,2|0,0:0|0:0,0:0:0:0:
288,144,95902,2,0,P|296:184|304:228,1,71.2500027179719,2|0,0:0|0:0,0:0:0:0:
301,213,96120,1,0,0:0:0:0:
302,214,96193,6,0,P|380:240|436:192,1,142.500005435944,2|0,0:0|0:0,0:0:0:0:
224,208,96630,2,0,P|168:256|160:332,1,142.500005435944,2|0,0:0|0:0,0:0:0:0:
272,144,97067,2,0,P|288:76|268:0,1,142.500005435944,2|0,0:0|0:0,0:0:0:0:
196,132,97504,2,0,L|92:132,1,71.2500027179719,2|0,0:0|0:0,0:0:0:0:
40,136,97795,1,0,0:0:0:0:
92,208,97941,2,0,P|100:244|108:288,1,71.2500027179719,2|0,0:0|0:0,0:0:0:0:
200,332,98232,2,0,P|208:280|212:240,1,71.2500027179719,2|0,0:0|0:0,0:0:0:0:
312,200,98523,6,0,P|332:264|316:360,1,142.500005435944,2|0,0:0|0:0,0:0:0:0:
344,124,98960,2,0,P|412:88|484:96,1,142.500005435944,2|0,0:0|0:0,0:0:0:0:
264,132,99397,2,0,P|172:112|136:56,1,142.500005435944,2|0,0:0|0:0,0:0:0:0:
76,120,99834,2,0,P|96:204|76:268,1,142.500005435944,2|0,0:0|0:0,0:0:0:0:
168,264,100271,2,0,P|216:248|256:240,1,71.2500027179719,2|0,0:0|0:0,0:0:0:0:
396,288,100562,2,0,P|344:284|308:272,1,71.2500027179719,2|0,0:0|0:0,0:0:0:0:
216,88,100853,6,0,P|292:96|348:156,1,142.500005435944,2|0,0:0|0:0,0:0:0:0:
376,212,101290,1,0,0:0:0:0:
396,288,101436,2,0,P|404:336|412:356,1,71.2500027179719,2|0,0:0|0:0,0:0:0:0:
256,320,101727,2,0,P|272:276|292:244,1,71.2500027179719
272,144,102019,2,0,P|168:160|120:200,1,142.500005435944,2|0,0:0|0:0,0:0:0:0:
116,268,102455,2,0,P|120:320|120:356,1,71.2500027179719,2|0,0:0|0:0,0:0:0:0:
56,216,102747,2,0,P|52:168|52:136,1,71.2500027179719,0|2,0:0|0:0,0:0:0:0:
92,80,103038,1,0,0:0:0:0:
160,116,103184,6,0,P|232:124|296:80,1,142.500005435944,2|0,0:0|0:0,0:0:0:0:
376,32,103620,2,0,L|368:128,2,71.2500027179719,2|0|0,0:0|0:0|0:0,0:0:0:0:
432,160,104057,2,0,L|440:240,1,71.2500027179719,2|0,0:0|0:0,0:0:0:0:
360,284,104349,2,0,P|264:300|224:256,1,142.500005435944,0|0,0:0|0:0,0:0:0:0:
168,332,104786,2,0,P|108:300|24:320,1,142.500005435944,2|0,0:0|0:0,0:0:0:0:
164,232,105222,2,0,P|152:192|152:152,1,71.2500027179719
240,176,105514,6,0,P|320:144|416:224,1,213.750008153916,0|2,0:0|0:0,0:0:0:0:
208,100,106096,2,0,P|116:64|28:148,1,213.750008153916,0|2,0:0|0:0,0:0:0:0:
360,228,106679,2,0,P|416:164|412:92,1,142.500005435944
260,208,107116,1,2,0:0:0:0:
176,280,107261,2,0,P|120:216|124:144,1,142.500005435944
260,208,107698,1,0,0:0:0:0:
320,284,107844,6,0,P|328:332|332:368,1,71.2500027179719
200,136,108135,2,0,P|192:88|188:48,1,71.2500027179719
388,248,108717,6,0,P|396:296|396:344,1,85.4999973907472
112,136,109009,2,0,P|104:88|104:40,1,85.4999973907472
312,136,109591,5,0,0:0:0:0:
216,256,109737,1,0,0:0:0:0:
204,144,109882,1,0,0:0:0:0:
324,240,110028,1,0,0:0:0:0:
324,240,110319,2,0,L|400:232,1,76,2|0,2:0|2:0,0:0:0:0:
492,192,110610,1,2,2:0:0:0:
400,232,111047,2,0,L|324:240,1,76,0|0,2:0|2:0,0:0:0:0:
204,144,111339,6,0,P|80:140|48:212,1,190,4|8,0:0|0:0,0:0:0:0:
324,240,111775,2,0,P|356:164|300:72,1,190
204,144,112212,2,0,L|192:260,1,95,8|0,0:0|0:0,0:0:0:0:
316,292,112504,6,0,L|328:176,1,95,0|0,0:0|0:0,0:0:0:0:
176,44,112795,1,8,0:0:0:0:
96,108,112940,2,0,P|72:216|116:296,1,190
316,288,113377,2,0,L|328:172,1,95,8|0,0:0|0:0,0:0:0:0:
204,140,113669,6,0,L|192:256,1,95,4|0,0:0|0:0,0:0:0:0:
384,360,113960,1,8,0:0:0:0:
464,296,114105,2,0,P|488:188|444:108,1,190
204,144,114542,2,0,L|192:260,1,95,8|0,0:0|0:0,0:0:0:0:
316,292,114834,6,0,L|328:176,1,95,0|0,0:0|0:0,0:0:0:0:
176,44,115125,1,8,0:0:0:0:
96,108,115271,2,0,P|72:216|116:296,1,190
280,144,115707,2,0,L|388:132,1,95,8|0,0:0|0:0,0:0:0:0:
512,120,115999,5,4,0:0:0:0:
396,212,116144,1,0,0:0:0:0:
376,56,116290,1,8,0:0:0:0:
480,200,116436,1,0,0:0:0:0:
340,280,116581,2,0,L|212:264,1,95
124,256,116872,1,8,0:0:0:0:
248,352,117018,1,0,0:0:0:0:
256,184,117164,5,0,0:0:0:0:
100,368,117309,1,0,0:0:0:0:
32,280,117455,2,0,B|8:204|56:168|24:80,1,190,8|0,0:0|0:0,0:0:0:0:
0,12,117892,1,0,0:0:0:0:
120,116,118038,2,0,P|124:200|116:228,1,95,8|0,0:0|0:0,0:0:0:0:
208,32,118329,6,0,P|308:12|380:60,1,190,4|8,0:0|0:0,0:0:0:0:
272,264,118766,2,0,P|240:180|300:104,1,190
384,148,119203,1,8,0:0:0:0:
304,356,119348,2,0,B|240:356|240:356|192:336|192:336|116:336,1,190
404,320,119785,2,0,L|508:320,1,95,12|0,0:0|0:0,0:0:0:0:
272,264,120076,1,8,0:0:0:0:
244,260,120149,1,8,0:0:0:0:
216,252,120222,1,8,0:0:0:0:
192,236,120295,1,8,0:0:0:0:
172,216,120368,1,8,0:0:0:0:
160,188,120440,1,8,0:0:0:0:
152,160,120513,1,8,0:0:0:0:
148,132,120586,1,8,0:0:0:0:
152,104,120659,6,0,L|168:4,1,95,4|0,0:0|0:0,0:0:0:0:
264,152,120950,1,8,0:0:0:0:
360,256,121096,2,0,P|472:252|512:176,1,190
272,216,121533,2,0,P|264:292|272:332,1,95,8|0,0:0|0:0,0:0:0:0:
420,188,121824,6,0,P|428:112|420:72,1,95,0|0,0:0|0:0,0:0:0:0:
272,216,122115,1,8,0:0:0:0:
176,292,122261,2,0,P|64:288|24:212,1,190
268,264,122698,2,0,L|272:368,1,95,8|0,0:0|0:0,0:0:0:0:
192,192,122989,6,0,P|196:104|280:40,1,190,4|8,0:0|0:0,0:0:0:0:
372,64,123426,1,0,0:0:0:0:
392,172,123572,2,0,L|380:284,1,95
400,360,123863,1,8,0:0:0:0:
272,288,124008,2,0,P|156:236|88:280,1,190
96,152,124445,2,0,P|32:144|-4:136,1,95,8|0,0:0|0:0,0:0:0:0:
188,20,124737,2,0,P|188:92|192:144,1,95,8|0,0:0|0:0,0:0:0:0:
344,188,125028,2,0,P|352:124|352:80,1,95
328,376,125319,5,0,0:0:0:0:
264,228,125465,1,0,0:0:0:0:
420,248,125610,1,8,0:0:0:0:
252,320,125756,1,0,0:0:0:0:
124,200,125902,2,0,P|72:192|12:176,1,95
264,228,126193,5,8,0:0:0:0:
128,280,126339,1,0,0:0:0:0:
164,124,126484,1,0,0:0:0:0:
212,292,126630,1,0,0:0:0:0:
328,168,126775,2,0,B|412:148|428:216|532:156,1,190,8|0,0:0|0:0,0:0:0:0:
456,96,127212,1,0,0:0:0:0:
344,64,127358,2,0,P|276:68|248:68,1,95,8|0,0:0|0:0,0:0:0:0:
104,48,127649,6,0,P|152:144|132:240,1,190,4|8,0:0|0:0,0:0:0:0:
248,144,128086,2,0,P|364:112|428:148,1,190
288,224,128523,1,8,0:0:0:0:
192,224,128669,2,0,P|132:160|128:48,1,190
424,168,129105,2,0,L|420:292,1,95,12|0,0:0|0:0,0:0:0:0:
244,136,129397,2,0,L|248:28,1,95,12|0,0:0|0:0,0:0:0:0:
352,240,129688,2,0,L|348:348,1,95,12|0,0:0|0:0,0:0:0:0:
80,344,129979,6,0,P|44:248|52:148,1,190,4|8,0:0|0:0,0:0:0:0:
280,296,130562,1,0,0:0:0:0:
356,344,130707,1,0,0:0:0:0:
436,304,130853,1,8,0:0:0:0:
356,260,130999,2,0,P|280:232|240:120,1,190
416,204,131436,6,0,L|524:208,1,95,8|0,0:0|0:0,0:0:0:0:
344,52,131727,2,0,P|340:112|328:168,1,95
164,196,132018,2,0,P|160:136|160:96,1,95,8|0,0:0|0:0,0:0:0:0:
252,168,132309,2,0,B|280:256|228:272|264:368,1,190,0|8,0:0|0:0,0:0:0:0:
336,300,132746,2,0,P|228:264|168:312,1,190
112,360,133183,1,0,0:0:0:0:
340,192,133474,6,0,P|368:88|344:20,1,170.999994781494,4|2,0:0|2:0,0:0:0:0:
156,32,133911,2,0,P|138:89|166:193,1,170.999994781494,0|2,2:0|2:0,0:0:0:0:
336,300,134494,1,0,0:0:0:0:
176,300,134639,1,4,0:0:0:0:
256,192,134712,12,0,136970,0:0:0:0:
192,240,138135,6,0,L|184:336,1,85.4999973907472
340,200,138426,2,0,L|348:296,1,85.4999973907472,8|0,0:0|0:0,0:0:0:0:
140,128,138717,2,0,L|108:224,1,85.4999973907472,0|8,0:0|0:0,0:0:0:0:
392,64,139008,2,0,L|412:164,1,85.4999973907472,0|8,0:0|0:0,0:0:0:0:
280,28,139300,6,0,P|244:128|260:216,1,170.999994781494,4|8,0:0|0:0,0:0:0:0:
400,344,139882,1,0,0:0:0:0:
432,264,140028,1,0,0:0:0:0:
352,224,140173,1,8,0:0:0:0:
316,312,140319,2,0,P|212:308|168:240,1,170.999994781494
96,228,140756,2,0,L|80:336,1,85.4999973907472,8|0,0:0|0:0,0:0:0:0:
24,96,141047,2,0,L|36:196,1,85.4999973907472
96,36,141339,1,8,0:0:0:0:
96,36,141630,6,0,P|180:68|248:20,1,170.999994781494,4|8,0:0|0:0,0:0:0:0:
436,128,142212,1,0,0:0:0:0:
348,152,142358,1,0,0:0:0:0:
368,244,142504,1,8,0:0:0:0:
456,224,142649,1,0,0:0:0:0:
284,212,142795,1,0,0:0:0:0:
260,208,142868,1,0,0:0:0:0:
236,204,142940,1,0,0:0:0:0:
212,200,143013,1,0,0:0:0:0:
188,196,143086,2,0,L|200:288,1,85.4999973907472
116,144,143377,2,0,L|192:88,1,85.4999973907472,4|0,0:0|0:0,0:0:0:0:
104,232,143669,1,4,0:0:0:0:
104,232,143960,5,2,2:0:0:0:
104,232,145707,1,0,0:0:0:0:
128,228,145780,1,0,0:0:0:0:
152,224,145853,1,0,0:0:0:0:
176,220,145926,1,0,0:0:0:0:
200,216,145999,1,4,0:0:0:0:
420,80,146290,6,0,L|408:188,1,85.4999973907472,0|0,0:0|0:0,0:0:0:0:
392,268,146581,2,0,L|204:260,1,170.999994781494,8|0,0:0|0:0,0:0:0:0:
132,256,147018,1,0,0:0:0:0:
84,336,147164,2,0,P|136:344|180:340,1,85.4999973907472,8|0,0:0|0:0,0:0:0:0:
176,172,147455,2,0,P|124:164|80:168,1,85.4999973907472,0|0,0:0|0:0,0:0:0:0:
40,96,147746,2,0,P|160:88|236:104,2,170.999994781494,8|0|8,0:0|0:0|0:0,0:0:0:0:
320,236,148620,6,0,P|376:140|384:48,1,170.999994781494,4|8,0:0|0:0,0:0:0:0:
336,16,149057,1,0,0:0:0:0:
468,200,149203,2,0,L|464:296,1,85.4999973907472
288,336,149494,1,8,0:0:0:0:
220,264,149639,2,0,P|184:184|200:84,1,170.999994781494
336,160,150076,2,0,L|436:148,1,85.4999973907472,8|0,0:0|0:0,0:0:0:0:
152,28,150368,2,0,L|56:40,1,85.4999973907472
376,72,150659,2,0,L|476:64,1,85.4999973907472,8|0,0:0|0:0,0:0:0:0:
192,144,150950,6,0,P|80:148|28:108,1,170.999994781494,0|8,0:0|0:0,0:0:0:0:
224,208,151387,2,0,P|188:132|208:32,1,170.999994781494
280,284,151824,1,8,0:0:0:0:
316,200,151970,2,0,P|404:160|492:192,1,170.999994781494
312,88,152406,2,0,P|248:84|208:72,1,85.4999973907472,8|0,0:0|0:0,0:0:0:0:
112,64,152698,2,0,P|128:140|132:184,1,85.4999973907472
48,320,152989,2,0,P|32:244|28:200,1,85.4999973907472,8|0,0:0|0:0,0:0:0:0:
160,336,153280,6,0,P|272:328|312:280,1,170.999994781494,4|8,0:0|0:0,0:0:0:0:
316,200,153717,1,0,0:0:0:0:
244,144,153863,2,0,P|196:136|152:136,1,85.4999973907472
196,244,154154,1,8,0:0:0:0:
316,200,154300,2,0,P|384:180|492:200,1,170.999994781494
508,272,154737,1,8,0:0:0:0:
312,112,154882,2,0,P|216:96|144:128,1,170.999994781494
76,184,155319,6,0,B|40:112|108:92|60:0,2,170.999994781494,8|0|8,0:0|0:0|0:0,0:0:0:0:
160,208,156047,1,0,0:0:0:0:
248,184,156193,2,0,P|296:176|340:176,1,85.4999973907472
420,184,156484,1,8,0:0:0:0:
360,256,156630,2,0,P|336:192|344:84,1,170.999994781494
440,276,157067,2,0,L|420:384,1,85.4999973907472,8|0,0:0|0:0,0:0:0:0:
272,240,157358,2,0,L|376:208,1,85.4999973907472
296,336,157649,2,0,P|192:324|88:324,1,170.999994781494,8|0,0:0|0:0,0:0:0:0:
36,340,158086,5,0,0:0:0:0:
80,256,158232,2,0,P|92:192|92:164,1,85.4999973907472,8|0,0:0|0:0,0:0:0:0:
164,24,158523,2,0,P|160:72|164:120,1,85.4999973907472
84,88,158814,1,8,0:0:0:0:
176,192,158960,2,0,P|264:192|332:144,1,170.999994781494
384,228,159397,2,0,P|432:216|476:208,1,85.4999973907472,8|0,0:0|0:0,0:0:0:0:
500,124,159688,2,0,P|488:240|492:320,1,170.999994781494,0|8,0:0|0:0,0:0:0:0:
492,372,160125,1,0,0:0:0:0:
304,264,160271,6,0,P|216:260|148:316,1,170.999994781494,4|8,0:0|0:0,0:0:0:0:
392,344,160707,2,0,P|428:300|424:172,1,170.999994781494
392,112,161144,1,8,0:0:0:0:
244,192,161290,2,0,P|136:184|88:120,1,170.999994781494
320,144,161727,2,0,P|328:216|320:240,1,85.4999973907472,8|0,0:0|0:0,0:0:0:0:
160,240,162018,2,0,P|152:168|160:144,1,85.4999973907472,8|0,0:0|0:0,0:0:0:0:
232,112,162309,1,8,0:0:0:0:
248,264,162455,1,0,0:0:0:0:
80,292,162601,6,0,P|60:208|76:108,1,170.999994781494,4|0,0:0|0:0,0:0:0:0:
292,340,163183,1,8,0:0:0:0:
376,352,163329,1,0,0:0:0:0:
424,280,163474,1,0,0:0:0:0:
344,276,163620,2,0,P|284:212|296:128,1,170.999994781494
392,104,164057,2,0,P|448:112|488:108,1,85.4999973907472,8|0,0:0|0:0,0:0:0:0:
296,56,164348,2,0,P|240:48|200:52,1,85.4999973907472,8|0,0:0|0:0,0:0:0:0:
100,76,164639,5,0,0:0:0:0:
100,76,164784,1,0,0:0:0:0:
168,144,164930,2,0,P|172:208|168:244,1,95
144,340,165221,2,0,P|240:304|308:356,1,190,8|0,0:0|0:0,0:0:0:0:
324,248,165658,2,0,P|420:284|488:232,1,190,0|0,0:0|0:0,0:0:0:0:
296,152,166095,2,0,P|252:192|224:232,1,95,8|0,0:0|0:0,0:0:0:0:
400,108,166386,2,0,P|424:52|432:12,1,95,0|8,0:0|0:0,0:0:0:0:
396,224,166677,2,0,P|408:284|428:328,1,95,8|8,0:0|0:0,0:0:0:0:
508,176,166969,1,2,0:0:0:0:
508,176,167551,6,0,P|448:144|348:160,1,142.500005435944,2|0,0:0|0:0,0:0:0:0:
304,184,167988,1,0,0:0:0:0:
236,220,168134,2,0,P|200:228|160:228,2,71.2500027179719,2|0|0,0:0|0:0|0:0,0:0:0:0:
296,264,168571,2,0,P|332:256|372:256,2,71.2500027179719,2|0|0,0:0|0:0|0:0,0:0:0:0:
240,320,169007,2,0,B|164:340|168:300|72:320,1,142.500005435944,2|0,0:0|0:0,0:0:0:0:
20,324,169444,5,0,0:0:0:0:
52,252,169590,2,0,P|56:208|52:164,1,71.2500027179719,0|2,0:0|0:0,0:0:0:0:
144,40,169881,2,0,P|132:112|136:192,1,142.500005435944,2|0,0:0|0:0,0:0:0:0:
160,256,170318,1,0,0:0:0:0:
260,168,170464,2,0,P|328:136|408:152,1,142.500005435944,2|0,0:0|0:0,0:0:0:0:
484,148,170901,2,0,P|448:84|468:-4,1,142.500005435944,2|0,0:0|0:0,0:0:0:0:
440,224,171338,2,0,P|440:272|436:320,1,71.2500027179719,2|0,0:0|0:0,0:0:0:0:
348,340,171629,6,0,P|252:332|216:276,1,142.500005435944,2|0,0:0|0:0,0:0:0:0:
308,140,172066,2,0,P|328:232|288:276,1,142.500005435944,2|0,0:0|0:0,0:0:0:0:
232,104,172503,2,0,P|258:73|354:65,1,142.500005435944,2|0,0:0|0:0,0:0:0:0:
240,188,172939,2,0,L|156:176,1,71.2500027179719,2|0,0:0|0:0,0:0:0:0:
88,160,173231,1,0,0:0:0:0:
176,264,173376,2,0,L|256:276,1,71.2500027179719,2|0,0:0|0:0,0:0:0:0:
392,216,173668,2,0,L|316:228,1,71.2500027179719,2|0,0:0|0:0,0:0:0:0:
464,312,173959,6,0,P|504:220|484:152,1,142.500005435944,2|0,0:0|0:0,0:0:0:0:
256,256,174396,2,0,P|304:320|372:336,1,142.500005435944,2|0,0:0|0:0,0:0:0:0:
400,96,174833,2,0,P|324:104|264:164,1,142.500005435944,2|0,0:0|0:0,0:0:0:0:
184,188,175270,2,0,P|148:236|124:252,1,71.2500027179719,2|0,0:0|0:0,0:0:0:0:
208,96,175561,1,0,0:0:0:0:
268,224,175706,2,0,P|272:272|280:296,1,71.2500027179719,2|0,0:0|0:0,0:0:0:0:
420,360,175998,2,0,P|364:348|344:352,1,71.2500027179719,2|0,0:0|0:0,0:0:0:0:
488,304,176289,6,0,P|504:216|488:148,1,142.500005435944,2|0,0:0|0:0,0:0:0:0:
456,92,176726,1,0,0:0:0:0:
380,132,176872,2,0,P|288:136|224:124,1,142.500005435944,2|0,0:0|0:0,0:0:0:0:
236,208,177308,2,0,P|148:204|72:216,1,142.500005435944,2|0,0:0|0:0,0:0:0:0:
84,124,177745,2,0,P|128:120|172:112,2,71.2500027179719,2|0|0,0:0|0:0|0:0,0:0:0:0:
248,108,178182,2,0,P|288:100|328:96,1,71.2500027179719,2|0,0:0|0:0,0:0:0:0:
400,84,178473,1,0,0:0:0:0:
368,164,178619,6,0,P|324:212|336:312,1,142.500005435944,2|0,0:0|0:0,0:0:0:0:
452,200,179056,1,0,0:0:0:0:
436,104,179202,2,0,P|352:64|288:84,1,142.500005435944,2|0,0:0|0:0,0:0:0:0:
236,120,179639,1,0,0:0:0:0:
172,184,179784,2,0,L|164:236,3,35.625001358986
200,228,180075,2,0,L|208:280,3,35.625001358986
284,200,180367,2,0,L|360:188,1,71.2500027179719,2|0,0:0|0:0,0:0:0:0:
484,256,180658,2,0,L|404:248,1,71.2500027179719,0|2,0:0|0:0,0:0:0:0:
492,36,180949,6,0,P|520:136|504:180,1,142.500005435944,0|2,0:0|0:0,0:0:0:0:
400,56,181386,2,0,P|304:52|260:96,1,142.500005435944
356,264,181823,2,0,P|376:180|348:132,1,142.500005435944,2|0,0:0|0:0,0:0:0:0:
260,236,182260,1,2,0:0:0:0:
260,236,182551,1,2,0:0:0:0:
200,300,182697,2,0,P|136:296|100:288,1,71.2500027179719
80,152,182988,2,0,P|84:196|80:224,1,71.2500027179719,2|0,0:0|0:0,0:0:0:0:
176,104,183279,6,0,P|172:52|176:12,1,71.2500027179719
336,152,183570,2,0,P|340:204|336:244,1,71.2500027179719,0|0,0:0|0:0,0:0:0:0:
136,256,184152,6,0,P|128:204|132:156,1,85.4999973907472
380,24,184444,2,0,P|388:76|384:124,1,85.4999973907472
216,244,185026,5,0,0:0:0:0:
296,136,185172,1,0,0:0:0:0:
308,228,185317,1,0,0:0:0:0:
204,152,185463,1,0,0:0:0:0:
204,152,185754,2,0,L|100:144,1,76,2|0,0:0|0:0,0:0:0:0:
236,8,186045,2,0,L|260:96,1,76
100,68,186337,2,0,L|144:-8,1,76
204,152,186628,1,0,0:0:0:0:
308,228,186775,6,0,P|420:228|472:160,1,190,4|8,0:0|0:0,0:0:0:0:
240,144,187211,2,0,P|200:240|208:336,1,190
344,144,187648,2,0,P|356:92|352:44,1,95,8|0,0:0|0:0,0:0:0:0:
132,144,187940,6,0,P|124:196|128:244,1,95,0|0,0:0|0:0,0:0:0:0:
240,144,188231,1,8,0:0:0:0:
180,60,188376,2,0,P|108:40|0:76,1,190
268,64,188813,2,0,P|312:68|364:64,1,95,8|0,0:0|0:0,0:0:0:0:
368,244,189105,6,0,P|304:244|260:248,1,95,4|0,0:0|0:0,0:0:0:0:
400,144,189396,1,8,0:0:0:0:
488,196,189541,2,0,P|508:292|424:356,1,190
172,216,189978,2,0,P|176:168|180:104,1,95,8|0,0:0|0:0,0:0:0:0:
320,180,190270,6,0,P|316:228|312:292,1,95,0|0,0:0|0:0,0:0:0:0:
156,352,190561,1,8,0:0:0:0:
56,304,190707,2,0,P|24:196|60:116,1,190
172,216,191143,2,0,P|228:224|288:228,1,95,8|0,0:0|0:0,0:0:0:0:
400,244,191435,5,4,0:0:0:0:
264,308,191580,1,0,0:0:0:0:
288,152,191726,1,8,0:0:0:0:
352,320,191872,1,0,0:0:0:0:
484,216,192017,2,0,B|508:132|464:100|496:16,1,190,0|8,0:0|0:0,0:0:0:0:
400,244,192454,5,0,0:0:0:0:
288,152,192600,1,0,0:0:0:0:
408,104,192745,1,0,0:0:0:0:
300,244,192891,2,0,B|204:280|208:224|92:248,1,190,8|0,0:0|0:0,0:0:0:0:
16,268,193328,1,0,0:0:0:0:
188,160,193474,2,0,P|196:108|192:60,1,95,8|0,0:0|0:0,0:0:0:0:
288,212,193765,6,0,P|384:236|472:172,1,190,4|8,0:0|0:0,0:0:0:0:
212,144,194202,2,0,P|176:232|208:340,1,190
304,128,194639,1,8,0:0:0:0:
240,60,194784,2,0,B|144:44|136:108|40:60,1,190
20,172,195221,2,0,P|4:232|4:276,1,95,8|0,0:0|0:0,0:0:0:0:
308,324,195512,1,8,0:0:0:0:
320,296,195585,1,8,0:0:0:0:
328,268,195658,1,8,0:0:0:0:
332,240,195731,1,8,0:0:0:0:
332,212,195804,1,8,0:0:0:0:
324,184,195876,1,8,0:0:0:0:
316,156,195949,1,8,0:0:0:0:
304,132,196022,1,8,0:0:0:0:
292,108,196095,6,0,L|188:92,1,95,4|0,0:0|0:0,0:0:0:0:
304,212,196386,1,8,0:0:0:0:
400,168,196532,2,0,P|448:68|412:-12,1,190
168,112,196969,2,0,L|152:228,1,95,8|0,0:0|0:0,0:0:0:0:
328,304,197260,6,0,L|344:188,1,95,0|0,0:0|0:0,0:0:0:0:
216,280,197551,1,8,0:0:0:0:
132,336,197697,2,0,P|44:328|4:232,1,190
204,212,198134,2,0,P|272:232|300:256,1,95,8|0,0:0|0:0,0:0:0:0:
96,216,198425,6,0,P|68:140|88:20,1,190,4|8,0:0|0:0,0:0:0:0:
168,112,198862,1,0,0:0:0:0:
272,152,199008,2,0,P|324:160|372:160,1,95
472,172,199299,1,8,0:0:0:0:
366,160,199444,6,0,P|266:188|170:248,1,190
72,296,199881,2,0,L|80:192,1,95,8|0,0:0|0:0,0:0:0:0:
260,100,200173,2,0,L|248:236,1,95,8|0,0:0|0:0,0:0:0:0:
196,44,200464,1,0,0:0:0:0:
196,44,200537,1,0,0:0:0:0:
196,44,200609,1,0,0:0:0:0:
184,228,200755,5,0,0:0:0:0:
304,324,200901,1,0,0:0:0:0:
328,184,201046,1,8,0:0:0:0:
212,312,201192,1,0,0:0:0:0:
368,264,201338,2,0,P|428:264|480:256,1,95
296,224,201629,5,8,0:0:0:0:
140,112,201775,1,0,0:0:0:0:
252,108,201920,1,0,0:0:0:0:
180,232,202066,1,0,0:0:0:0:
324,152,202211,2,0,B|416:132|420:196|552:144,1,190,8|0,0:0|0:0,0:0:0:0:
460,60,202648,1,0,0:0:0:0:
368,240,202794,2,0,P|360:304|360:352,1,95,8|0,0:0|0:0,0:0:0:0:
256,324,203085,6,0,P|148:328|88:256,1,190,4|8,0:0|0:0,0:0:0:0:
72,164,203522,2,0,P|72:124|76:68,1,95
272,48,203813,2,0,P|272:88|268:144,1,95,0|8,0:0|0:0,0:0:0:0:
164,216,204105,2,0,P|160:152|168:16,1,190
244,216,204541,6,0,L|264:332,1,95,12|0,0:0|0:0,0:0:0:0:
424,144,204833,2,0,L|404:28,1,95,12|0,0:0|0:0,0:0:0:0:
344,272,205124,2,0,L|324:388,1,95,12|0,0:0|0:0,0:0:0:0:
312,128,205415,6,0,P|249:48|156:40,1,190,4|8,0:0|0:0,0:0:0:0:
100,104,205852,1,0,0:0:0:0:
160,168,205998,2,0,P|168:252|168:280,1,95
148,356,206289,1,8,0:0:0:0:
268,296,206435,2,0,P|352:264|452:296,1,190
200,208,206872,6,0,P|124:200|92:188,1,95,8|0,0:0|0:0,0:0:0:0:
348,112,207163,2,0,P|388:152|424:208,1,95
204,108,207454,2,0,P|180:48|172:8,1,95,8|0,0:0|0:0,0:0:0:0:
296,172,207745,6,0,B|328:240|264:288|304:388,1,190,0|8,0:0|0:0,0:0:0:0:
208,232,208182,1,0,0:0:0:0:
388,340,208328,1,0,0:0:0:0:
388,340,208401,1,0,0:0:0:0:
388,340,208474,1,0,0:0:0:0:
256,168,208619,2,0,L|256:64,1,95
184,24,208910,6,0,P|132:120|172:220,1,190,4|2,0:0|2:0,0:0:0:0:
361,193,209347,2,0,P|380:120|328:24,1,190,0|2,2:0|2:0,0:0:0:0:
256,272,209930,1,0,2:0:0:0:
256,368,210075,1,4,0:0:0:0:
256,192,219105,5,0,2:0:0:0:
324,104,219396,6,0,P|432:80|500:124,2,170.999994781494,6|2|0,0:0|0:0|0:0,0:0:0:0:
252,168,220415,2,0,P|188:164|132:148,1,113.999996520996,2|2,0:0|0:0,0:0:0:0:
344,192,221143,1,2,0:0:0:0:
176,268,221435,1,0,0:0:0:0:
92,260,221580,1,0,0:0:0:0:
144,188,221726,6,0,P|184:128|184:76,1,113.999996520996,2|0,0:0|0:0,0:0:0:0:
268,88,222163,2,0,P|284:156|328:204,1,113.999996520996
364,268,222600,2,0,P|272:264|212:340,1,170.999994781494,2|0,0:0|0:0,0:0:0:0:
140,288,223182,2,0,P|72:280|24:288,2,113.999996520996,0|2|0,0:0|0:0|0:0,0:0:0:0:
192,212,224056,6,0,P|160:140|192:48,2,170.999994781494,2|2|0,0:0|0:0|0:0,0:0:0:0:
264,180,225075,2,0,P|360:156|392:164,1,113.999996520996,2|0,0:0|0:0,0:0:0:0:
88,120,225804,1,0,0:0:0:0:
120,200,225949,1,0,0:0:0:0:
40,236,226095,1,0,0:0:0:0:
12,152,226241,1,0,0:0:0:0:
120,280,226386,6,0,P|200:284|248:252,1,113.999996520996,2|0,0:0|0:0,0:0:0:0:
308,312,226823,2,0,P|396:288|444:296,1,113.999996520996
148,200,227406,2,0,P|136:128|176:20,1,170.999994781494,2|0,0:0|0:0,0:0:0:0:
384,192,228134,2,0,P|448:196|520:176,1,113.999996520996,2|0,0:0|0:0,0:0:0:0:
224,104,228716,6,0,P|132:128|88:208,2,170.999994781494,4|2|0,0:0|0:0|0:0,0:0:0:0:
304,72,229736,2,0,P|372:72|420:48,1,113.999996520996,2|0,0:0|0:0,0:0:0:0:
480,108,230173,2,0,P|496:64|504:40,1,56.9999982604981,0|2,0:0|0:0,0:0:0:0:
432,172,230464,2,0,P|428:200|428:240,1,56.9999982604981,2|0,0:0|0:0,0:0:0:0:
352,152,230755,1,0,0:0:0:0:
280,196,230901,1,0,0:0:0:0:
280,196,230974,1,0,0:0:0:0:
280,196,231046,6,0,P|176:192|132:120,2,170.999994781494,2|2|0,0:0|0:0|0:0,0:0:0:0:
284,116,232066,2,0,P|252:84|176:88,1,113.999996520996,2|2,0:0|0:0,0:0:0:0:
116,48,232503,2,0,P|76:52|52:52,1,56.9999982604981
128,128,232794,2,0,P|116:160|112:188,1,56.9999982604981,2|2,0:0|0:0,0:0:0:0:
208,296,233085,2,0,P|220:244|220:220,1,56.9999982604981,0|2,0:0|0:0,0:0:0:0:
292,340,233376,6,0,P|372:344|424:272,2,170.999994781494,2|2|0,0:0|0:0|0:0,0:0:0:0:
340,264,234396,2,0,P|352:192|276:120,1,170.999994781494,2|0,0:0|0:0,0:0:0:0:
80,208,235124,2,0,L|64:288,1,56.9999982604981,0|2,0:0|0:0,0:0:0:0:
164,148,235415,2,0,L|172:208,1,56.9999982604981
100,76,235707,5,2,0:0:0:0:
80,48,236143,5,2,0:0:0:0:
60,24,236580,5,2,0:0:0:0:
256,192,238328,12,0,239639,0:0:0:0:
312,72,240367,6,0,P|432:84|476:176,1,209.000006378174,4|8,0:0|0:0,0:0:0:0:
140,228,240804,2,0,P|92:148|128:36,1,209.000006378174
336,228,241241,2,0,P|340:280|328:344,1,104.500003189087,8|0,0:0|0:0,0:0:0:0:
208,152,241532,6,0,P|228:104|260:56,1,104.500003189087
248,240,241823,1,8,0:0:0:0:
176,308,241969,2,0,P|84:308|16:184,1,209.000006378174
248,200,242406,2,0,P|304:224|336:256,1,104.500003189087,8|0,0:0|0:0,0:0:0:0:
128,200,242697,6,0,P|100:132|92:76,1,104.500003189087,4|0,0:0|0:0,0:0:0:0:
248,200,242988,1,8,0:0:0:0:
340,288,243134,2,0,P|436:292|512:208,1,209.000006378174
212,264,243571,2,0,P|191:288|159:352,1,104.500003189087,8|0,0:0|0:0,0:0:0:0:
352,152,243862,6,0,P|372:84|376:28,1,104.500003189087,2|0,0:2|0:0,0:0:0:0:
248,200,244153,1,8,0:0:0:0:
140,248,244299,2,0,P|36:212|4:108,1,209.000006378174,2|0,0:2|0:0,0:0:0:0:
248,200,244736,2,8,P|256:284|248:320,1,104.500003189087,8|0,0:0|0:0,0:0:0:0:
156,136,245027,5,4,0:1:0:0:
248,16,245173,1,0,0:0:0:0:
324,152,245318,1,8,0:0:0:0:
164,52,245464,1,0,0:0:0:0:
340,60,245609,2,0,P|396:60|460:64,1,104.500003189087,0|0,0:0|0:0,0:0:0:0:
248,104,245901,5,8,0:0:0:0:
112,208,246046,1,0,0:0:0:0:
76,56,246192,1,0,0:0:0:0:
192,180,246338,1,0,0:0:0:0:
92,336,246483,2,0,P|16:284|4:164,1,209.000006378174,8|0,0:0|0:0,0:0:0:0:
176,268,246920,1,0,0:0:0:0:
268,312,247066,2,0,P|336:316|388:312,1,104.500003189087,8|0,0:0|0:0,0:0:0:0:
192,180,247357,6,0,P|88:128|-12:156,1,209.000006378174,4|8,0:0|0:0,0:0:0:0:
288,188,247794,2,0,P|352:112|340:-12,1,209.000006378174
232,264,248231,1,8,0:0:0:0:
304,316,248376,2,0,B|400:336|416:292|528:324,1,209.000006378174
336,232,248813,2,0,P|284:188|248:136,1,104.500003189087,12|0,0:0|0:0,0:0:0:0:
172,28,249105,1,8,0:0:0:0:
180,56,249177,1,8,0:0:0:0:
184,88,249250,1,8,0:0:0:0:
184,120,249323,1,8,0:0:0:0:
176,152,249396,1,8,0:0:0:0:
164,180,249469,1,8,0:0:0:0:
156,212,249541,1,8,0:0:0:0:
156,244,249614,1,8,0:0:0:0:
168,272,249687,6,0,P|288:304|344:204,1,218.500004167557,4|8,0:0|0:0,0:0:0:0:
84,196,250124,2,0,P|20:280|92:388,1,218.500004167557
240,212,250561,2,0,P|260:148|264:88,1,109.250002083778,8|0,0:0|0:0,0:0:0:0:
280,8,250852,1,0,0:0:0:0:
188,116,250998,1,0,0:0:0:0:
332,160,251143,1,8,0:0:0:0:
168,32,251289,2,0,P|68:80|40:184,1,218.500004167557
136,224,251726,2,0,P|144:284|132:344,1,109.250002083778,8|0,0:0|0:0,0:0:0:0:
216,136,252017,6,0,B|312:100|320:172|448:120,2,218.500004167557,4|8|0,0:0|0:0|0:0,0:0:0:0:
264,240,252745,2,0,P|284:304|292:360,1,109.250002083778,0|8,0:0|0:0,0:0:0:0:
156,228,253037,1,0,0:0:0:0:
368,208,253182,6,0,P|412:128|388:0,1,218.500004167557,0|8,0:0|0:0,0:0:0:0:
248,212,253619,2,0,P|284:316|404:352,1,218.500004167557
296,124,254056,2,0,P|228:116|180:116,1,109.250002083778,8|0,0:0|0:0,0:0:0:0:
44,100,254347,5,4,0:0:0:0:
184,204,254493,1,0,0:0:0:0:
204,28,254639,1,8,0:0:0:0:
92,196,254784,1,0,0:0:0:0:
272,288,254930,2,0,P|336:276|392:272,1,109.250002083778
512,268,255221,5,8,0:0:0:0:
380,356,255367,1,0,0:0:0:0:
384,192,255512,1,0,0:0:0:0:
496,368,255658,1,0,0:0:0:0:
232,348,255804,2,0,P|116:316|0:340,1,218.500004167557,8|0,0:0|0:0,0:0:0:0:
160,240,256241,2,0,P|216:212|256:168,1,109.250002083778,0|8,0:0|0:0,0:0:0:0:
60,232,256532,1,0,0:0:0:0:
288,264,256677,6,0,P|420:288|476:192,1,218.500004167557,4|8,0:0|0:0,0:0:0:0:
208,172,257114,2,0,P|148:264|212:376,1,218.500004167557
288,264,257551,1,8,0:0:0:0:
328,148,257697,2,0,P|256:56|136:88,1,218.500004167557
32,32,258134,2,0,L|16:180,1,109.250002083778,12|0,0:0|0:0,0:0:0:0:
236,252,258425,2,0,L|228:132,1,109.250002083778,12|0,0:0|0:0,0:0:0:0:
68,244,258716,2,0,L|60:364,1,109.250002083778,12|0,0:0|0:0,0:0:0:0:
336,336,259008,6,0,P|384:216|360:128,1,218.500004167557,4|8,0:0|0:0,0:0:0:0:
92,92,259590,1,0,0:0:0:0:
160,148,259736,1,0,0:0:0:0:
248,112,259881,1,8,0:0:0:0:
172,56,260027,2,0,P|96:124|104:240,1,218.500004167557
224,224,260464,6,0,P|284:204|340:196,1,109.250002083778,8|0,0:0|0:0,0:0:0:0:
504,296,260755,2,0,P|424:244|400:216,1,109.250002083778
392,36,261046,2,0,P|404:100|396:160,1,109.250002083778,8|0,0:0|0:0,0:0:0:0:
168,344,261338,2,0,P|156:272|168:228,1,109.250002083778,12|0,0:0|0:0,0:0:0:0:
344,236,261629,2,0,P|352:270|340:342,1,109.250002083778,12|0,0:0|0:0,0:0:0:0:
111,143,261920,2,0,P|108:100|120:36,1,109.250002083778,12|8,0:0|0:0,0:0:0:0:
256,176,262211,1,0,0:0:0:0:
256,280,262357,1,8,0:0:0:0:
336,352,262503,6,0,P|384:260|356:152,1,218.500004167557,2|0,2:0|2:0,0:0:0:0:
154,153,262940,2,0,P|128:260|176:352,1,218.500004167557,2|0,2:0|2:0,0:0:0:0:
256,176,263522,1,0,2:0:0:0:
308,68,263668,2,0,B|360:56|360:56|412:68,1,95,2|0,2:0|2:0,0:0:0:0:
200,68,263959,2,0,B|148:56|148:56|96:68,1,95,2|2,2:0|2:0,0:0:0:0:
376,148,264250,6,0,P|416:224|380:336,1,190,4|8,0:0|0:0,0:0:0:0:
288,228,264686,1,0,0:0:0:0:
200,172,264832,2,0,P|100:148|16:184,1,190,0|8,0:0|0:0,0:0:0:0:
216,276,265269,2,0,P|304:232|340:140,1,190
400,60,265706,2,0,L|424:168,1,95,8|0,0:0|0:0,0:0:0:0:
352,340,265997,2,0,L|376:232,1,95
280,24,266288,2,0,L|304:144,1,95,8|0,0:0|0:0,0:0:0:0:
176,176,266580,6,0,P|104:132|0:160,1,190,4|8,0:0|0:0,0:0:0:0:
152,272,267016,1,0,0:0:0:0:
240,248,267162,2,0,P|280:176|256:56,1,190,0|8,0:0|0:0,0:0:0:0:
176,72,267599,1,0,0:0:0:0:
344,256,267745,2,0,P|392:284|472:280,1,95,2|0,0:2|0:0,0:0:0:0:
504,220,268036,1,0,0:0:0:0:
184,184,268182,2,0,P|136:212|56:208,1,95,2|0,0:2|0:0,0:0:0:0:
0,200,268473,1,8,0:0:0:0:
332,136,268618,2,0,P|392:132|432:124,1,95,8|8,0:0|0:0,0:0:0:0:
164,48,268910,6,0,P|44:72|8:128,1,190,4|8,0:0|0:0,0:0:0:0:
168,144,269347,1,0,0:0:0:0:
260,100,269492,2,0,P|344:80|440:124,1,190,0|8,0:0|0:0,0:0:0:0:
336,336,269929,2,0,P|304:232|368:164,1,190
442,211,270366,2,0,P|462:263|468:308,1,95,8|0,0:0|0:0,0:0:0:0:
224,192,270657,2,0,P|234:133|247:93,1,95
375,37,270949,2,0,P|380:114|376:147,1,95,8|0,0:0|0:0,0:0:0:0:
172,63,271240,6,0,P|85:56|8:127,1,190,4|8,0:0|0:0,0:0:0:0:
179,159,271677,1,0,0:0:0:0:
267,116,271822,2,0,P|343:105|444:170,1,190,0|8,0:0|0:0,0:0:0:0:
266,215,272259,1,0,0:0:0:0:
180,158,272405,2,0,L|177:38,1,95,12|0,0:0|0:0,0:0:0:0:
116,239,272696,2,0,L|104:347,1,95,12|0,0:0|0:0,0:0:0:0:
232,318,272987,1,8,0:0:0:0:
258,327,273060,1,0,0:0:0:0:
286,328,273133,1,0,0:0:0:0:
313,320,273206,1,0,0:0:0:0:
337,304,273279,1,0,0:0:0:0:
352,280,273351,1,0,0:0:0:0:
355,251,273424,1,0,0:0:0:0:
348,223,273497,1,0,0:0:0:0:
330,200,273570,6,0,L|318:97,1,95,4|0,0:0|0:0,0:0:0:0:
168,205,273861,2,0,L|270:253,1,95,8|0,0:0|0:0,0:0:0:0:
204,106,274152,2,0,P|92:101|30:164,1,190,0|8,0:0|0:0,0:0:0:0:
186,328,274589,2,0,P|265:246|264:156,1,190
368,253,275026,2,0,P|417:245|467:248,1,95,8|0,0:0|0:0,0:0:0:0:
169,203,275317,2,0,P|141:149|131:111,1,95
375,131,275609,2,0,P|440:120|481:120,1,95,8|0,0:0|0:0,0:0:0:0:
237,141,275900,6,0,P|238:89|242:47,1,95,4|0,0:0|0:0,0:0:0:0:
411,54,276191,2,0,P|410:106|406:148,1,95,8|0,0:0|0:0,0:0:0:0:
313,171,276483,1,0,0:0:0:0:
320,36,276628,1,0,0:0:0:0:
313,171,276774,1,8,0:0:0:0:
168,92,276919,2,0,P|64:88|12:164,1,190
248,152,277356,2,0,L|264:36,1,95,8|0,0:0|0:0,0:0:0:0:
112,176,277648,2,0,L|116:284,1,95,0|8,0:0|0:0,0:0:0:0:
332,208,277939,2,0,L|348:104,1,95,0|8,0:0|0:0,0:0:0:0:
244,304,278230,5,4,0:0:0:0:
388,328,278376,1,0,0:0:0:0:
256,220,278521,1,8,0:0:0:0:
308,356,278667,1,0,0:0:0:0:
408,248,278813,2,0,L|436:56,1,190,0|8,0:0|0:0,0:0:0:0:
332,208,279250,2,0,P|228:224|168:168,1,190
240,32,279686,2,0,P|248:100|236:144,1,95,8|0,0:0|0:0,0:0:0:0:
84,128,279978,2,0,P|76:60|88:16,1,95,0|8,0:0|0:0,0:0:0:0:
164,84,280269,1,8,0:0:0:0:
172,184,280415,1,8,0:0:0:0:
328,104,280560,6,8,P|416:68|520:104,1,190
360,200,280997,1,0,0:0:0:0:
300,272,281143,2,0,P|292:340|296:392,1,95,8|0,0:0|0:0,0:0:0:0:
200,124,281434,2,0,P|208:56|204:4,1,95,8|0,0:0|0:0,0:0:0:0:
176,236,281725,5,8,0:0:0:0:
312,152,281871,1,0,0:0:0:0:
232,316,282016,1,8,0:0:0:0:
232,316,282089,1,0,0:0:0:0:
232,316,282162,1,0,0:0:0:0:
120,160,282308,5,12,0:0:0:0:
356,252,282453,1,0,0:0:0:0:
112,272,282599,5,8,0:0:0:0:
380,152,282745,1,8,0:0:0:0:
