osu file format v14

[General]
AudioFilename: Nevereverland.mp3
AudioLeadIn: 0
PreviewTime: 110710
Countdown: 0
SampleSet: Soft
StackLeniency: 0.3
Mode: 0
LetterboxInBreaks: 1
WidescreenStoryboard: 0

[Editor]
DistanceSpacing: 0.6
BeatDivisor: 4
GridSize: 4
TimelineZoom: 1

[Metadata]
Title:Nevereverland
TitleUnicode:Nevereverland
Artist:nano
ArtistUnicode:ナノ
Creator:Guy
Version:NevereverGuy
Source:
Tags:maaagic jomnhnk
BeatmapID:215589
BeatmapSetID:76552

[Difficulty]
HPDrainRate:7
CircleSize:4
OverallDifficulty:8
ApproachRate:9
SliderMultiplier:1.8
SliderTickRate:1

[Events]
//Background and Video events
0,0,"7ce7a342.jpg",0,0
//Break Periods
2,50330,54190
//Storyboard Layer 0 (Background)
//Storyboard Layer 1 (Fail)
//Storyboard Layer 2 (Pass)
//Storyboard Layer 3 (Foreground)
//Storyboard Layer 4 (Overlay)
//Storyboard Sound Samples

[TimingPoints]
888,400,4,2,1,50,1,0
13688,-133.333333333333,4,2,1,35,0,0
20088,-133.333333333333,4,2,1,35,0,0
21988,-133.333333333333,4,2,1,30,0,0
22188,-133.333333333333,4,2,1,35,0,0
22488,-133.333333333333,4,2,1,25,0,0
22688,-133.333333333333,4,2,1,30,0,0
22888,-133.333333333333,4,2,1,35,0,0
23088,-133.333333333333,4,2,1,45,0,0
23288,-133.333333333333,4,2,1,70,0,0
23388,-133.333333333333,4,2,1,55,0,0
24688,-133.333333333333,4,2,1,60,0,0
29088,-133.333333333333,4,2,1,45,0,0
29288,-133.333333333333,4,2,1,40,0,0
29488,-133.333333333333,4,2,1,35,0,0
29688,-133.333333333333,4,2,1,60,0,0
40688,-133.333333333333,4,2,1,15,0,0
40810,291.26213592233,4,2,1,70,1,0
48091,-100,4,2,1,40,0,0
48382,-100,4,2,1,55,0,0
48674,-100,4,2,1,70,0,0
48965,-100,4,2,1,80,0,0
49110,-100,4,2,1,60,0,0
49839,-100,4,2,1,50,0,0
56756,-100,4,2,1,85,0,0
56902,-100,4,2,1,70,0,0
59450,-133.333333333333,4,2,1,60,0,0
62363,-133.333333333333,4,2,1,40,0,0
62509,-133.333333333333,4,2,1,60,0,0
62654,-100,4,2,1,80,0,0
62800,-100,4,2,1,70,0,0
62945,-100,4,2,1,60,0,0
63091,-100,4,2,1,50,0,0
63237,-100,4,2,1,45,0,0
63382,-100,4,2,1,40,0,0
63528,-200,4,2,1,60,0,0
64110,-100,4,2,1,70,0,0
82751,291.26213592233,7,2,1,70,1,0
84790,291.26213592233,4,2,1,70,1,0
87120,291.26213592233,7,2,1,70,1,0
89159,291.26213592233,4,2,1,70,1,0
100809,-133.333333333333,4,2,1,60,0,0
107508,-100,4,2,1,70,0,0
111294,-100,4,2,1,80,0,1
134595,-100,4,2,1,70,0,0
144935,-100,4,2,1,20,0,0
145081,-100,4,2,1,30,0,0
145226,-100,4,2,1,45,0,0
145445,-100,4,2,1,65,0,0
145663,-100,4,2,1,60,0,0
146027,-100,4,2,1,30,0,0
146173,-100,4,2,1,70,0,0
162557,291.26213592233,7,2,1,60,1,0
164596,291.26213592233,4,2,1,60,1,0
176246,-133.333333333333,4,2,1,60,0,0
177702,-133.333333333333,4,2,1,30,0,0
177848,-133.333333333333,4,2,1,60,0,0
182945,-100,4,2,1,70,0,0
186003,-100,4,2,1,50,0,0
186440,-100,4,2,1,35,0,0
186731,-100,4,2,1,80,0,1
210032,-100,4,2,1,70,0,0
210105,-100,4,2,1,40,0,0
219062,-133.333333333333,4,2,1,50,0,0
224523,-133.333333333333,4,2,4,40,0,0
224668,-133.333333333333,4,2,1,50,0,0
229911,-133.333333333333,4,2,1,35,0,0
230785,-133.333333333333,4,2,1,50,0,0
235663,-133.333333333333,4,2,1,60,0,0
236028,-133.333333333333,4,2,1,70,0,0
236464,-133.333333333333,4,2,1,80,0,0
236610,-133.333333333333,4,2,1,50,0,0
237338,-133.333333333333,4,2,1,10,0,0
238722,-133.333333333333,4,2,1,30,0,0
239013,-133.333333333333,4,2,1,40,0,0
239304,-133.333333333333,4,2,1,50,0,0
239595,-133.333333333333,4,2,1,20,0,0
239887,-133.333333333333,4,2,1,40,0,0
240324,-100,4,2,1,80,0,1
256489,-100,4,2,1,30,0,1
256634,-100,4,2,1,80,0,1
264208,291.26213592233,4,2,1,70,1,0
282630,-100,4,2,1,40,0,0

[Colours]
Combo1 : 240,5,5
Combo2 : 5,240,5
Combo3 : 5,5,240

[HitObjects]
83,329,13688,6,0,P|88:241|96:178,1,135.000005149842,2|0,0:0|0:0,0:0:0:0:
160,110,14288,2,0,P|167:144|177:192,1,67.5000025749208,2|0,0:0|0:0,0:0:0:0:
246,325,14888,1,2,0:0:0:0:
246,325,15488,6,0,L|320:318,2,67.5000025749208,2|0|0,0:0|0:0|0:0,0:0:0:0:
324,240,16088,1,0,0:0:0:0:
268,160,16288,1,2,0:0:0:0:
359,245,16488,1,2,0:0:0:0:
349,100,16688,1,2,0:0:0:0:
176,136,16888,6,0,P|180:226|184:293,1,135.000005149842,2|0,0:0|0:0,0:0:0:0:
297,353,17488,2,0,P|347:317|423:336,1,135.000005149842,2|0,0:0|0:0,0:0:0:0:
266,222,18088,2,0,P|201:217|113:198,1,135.000005149842,2|0,0:0|0:0,0:0:0:0:
352,64,18688,2,0,L|363:138,2,67.5000025749208,2|0|0,0:0|0:0|0:0,0:0:0:0:
266,222,19288,1,0,0:0:0:0:
327,297,19488,2,0,L|398:288,1,67.5000025749208,0|2,0:0|0:0,0:0:0:0:
393,288,19888,1,2,0:0:0:0:
146,128,20088,6,0,L|135:273,1,135.000005149842,2|0,0:0|0:0,0:0:0:0:
126,360,20688,2,0,P|173:333|252:330,1,135.000005149842,2|0,0:0|0:0,0:0:0:0:
252,330,21288,1,2,0:0:0:0:
269,245,21888,5,2,0:0:0:0:
252,330,22088,1,0,0:0:0:0:
193,275,22288,1,0,0:0:0:0:
286,295,22488,5,2,0:0:0:0:
261,212,22688,1,0,0:0:0:0:
194,157,22888,1,0,0:0:0:0:
110,141,23088,1,0,0:0:0:0:
29,171,23288,2,0,P|33:275|37:329,1,135.000005149842,2|0,0:0|0:0,0:0:0:0:
200,291,23888,2,0,P|196:187|192:133,1,135.000005149842,2|0,0:0|0:0,0:0:0:0:
102,66,24488,5,2,0:0:0:0:
102,66,24688,2,0,L|28:74,1,67.5000025749208
193,156,25088,2,0,L|267:148,1,67.5000025749208,2|0,0:0|0:0,0:0:0:0:
342,52,25488,1,0,0:0:0:0:
440,278,25688,2,0,L|366:270,1,67.5000025749208,2|0,0:0|0:0,0:0:0:0:
156,241,26088,1,2,0:0:0:0:
397,165,26288,1,0,0:0:0:0:
397,165,26388,1,0,0:0:0:0:
397,165,26488,1,2,0:0:0:0:
89,336,26888,5,0,0:0:0:0:
36,258,27088,2,0,L|40:182,1,67.5000025749208,2|0,0:0|0:0,0:0:0:0:
45,102,27488,1,0,0:0:0:0:
121,150,27688,2,0,P|165:145|233:90,1,135.000005149842,2|0,0:0|0:0,0:0:0:0:
283,12,28288,1,2,0:0:0:0:
333,239,28488,2,0,L|240:230,1,67.5000025749208
137,216,28888,1,0,0:0:0:0:
271,319,29088,1,2,0:0:0:0:
297,139,29288,1,2,0:0:0:0:
340,360,29488,5,2,0:0:0:0:
340,360,29588,1,0,0:0:0:0:
340,360,29688,2,0,P|433:349|499:344,1,135.000005149842,2|0,0:0|0:0,0:0:0:0:
287,204,30288,2,0,P|224:195|178:246,1,135.000005149842,2|0,0:0|0:0,0:0:0:0:
78,317,30888,2,0,P|85:233|88:180,1,135.000005149842,2|0,0:0|0:0,0:0:0:0:
78,90,31488,5,2,0:0:0:0:
222,108,31688,1,0,0:0:0:0:
54,46,31888,1,0,0:0:0:0:
159,252,32088,1,0,0:0:0:0:
127,130,32288,1,2,0:0:0:0:
91,325,32488,1,2,0:0:0:0:
298,357,32688,5,2,0:0:0:0:
298,357,32788,1,0,0:0:0:0:
298,357,32888,2,0,P|290:236|287:204,1,135.000005149842,2|0,0:0|0:0,0:0:0:0:
288,222,33488,1,2,0:0:0:0:
442,333,34088,1,2,0:0:0:0:
442,333,34288,1,2,0:0:0:0:
338,170,34688,5,2,0:0:0:0:
251,275,34888,1,0,0:0:0:0:
134,207,35088,1,2,0:0:0:0:
407,65,35488,5,0,0:0:0:0:
375,155,35688,1,0,0:0:0:0:
302,94,35888,1,0,0:0:0:0:
416,55,36088,6,0,P|412:139|410:203,1,135.000005149842,2|0,0:0|0:0,0:0:0:0:
274,222,36688,2,0,P|278:138|280:74,1,135.000005149842
349,258,37288,2,0,P|276:255|233:317,1,135.000005149842,2|0,0:0|0:0,0:0:0:0:
237,297,37888,1,2,0:0:0:0:
147,266,38088,1,0,0:0:0:0:
147,266,38288,1,0,0:0:0:0:
195,120,38488,6,0,L|264:131,1,67.5000025749208
359,185,38888,2,0,L|397:178,1,33.7500012874604,2|0,0:0|0:0,0:0:0:0:
465,167,39088,1,0,0:0:0:0:
475,165,39188,1,0,0:0:0:0:
485,164,39288,1,2,0:0:0:0:
256,192,39388,12,0,40688,0:0:0:0:
80,319,40810,6,0,L|179:305,1,90,4|0,0:0|0:0,0:0:0:0:
222,216,41101,2,0,L|123:202,1,90
56,117,41392,2,0,L|155:103,2,90
256,84,41829,1,0,0:0:0:0:
432,319,42120,6,0,L|333:305,1,90
290,216,42411,2,0,L|389:202,1,90
456,117,42702,2,0,L|357:103,1,90
256,84,42994,1,8,0:0:0:0:
209,254,43140,1,0,0:0:0:0:
259,73,43285,1,0,0:0:0:0:
305,190,43431,5,0,0:0:0:0:
305,190,43576,1,0,0:0:0:0:
402,132,43722,2,0,L|389:226,1,90
236,339,44013,2,0,L|223:245,1,90
200,133,44305,6,0,L|296:156,1,90
155,272,44596,2,0,L|59:249,1,90
158,35,44887,1,0,0:0:0:0:
158,35,44960,1,0,0:0:0:0:
158,35,45033,1,0,0:0:0:0:
158,35,45106,1,0,0:0:0:0:
158,35,45178,1,0,0:0:0:0:
443,102,45470,5,4,0:0:0:0:
416,207,45615,2,0,P|363:188|328:178,1,90
155,62,45906,1,4,0:0:0:0:
161,170,46052,2,0,L|169:266,1,90
177,358,46343,5,4,0:0:0:0:
260,214,46489,1,0,0:0:0:0:
260,214,46634,1,0,0:0:0:0:
80,293,46780,5,4,0:0:0:0:
357,242,46926,1,0,0:0:0:0:
357,242,47072,1,0,0:0:0:0:
139,203,47217,5,4,0:0:0:0:
236,293,47363,1,0,0:0:0:0:
223,87,47509,1,4,3:0:0:0:
50,200,47654,1,0,0:0:0:0:
248,31,47800,6,0,L|255:175,1,135,4|0,0:0|0:0,0:0:0:0:
195,201,48091,5,8,0:0:0:0:
322,182,48237,1,0,0:0:0:0:
130,149,48382,5,8,0:0:0:0:
383,232,48528,1,0,0:0:0:0:
126,269,48673,5,8,0:0:0:0:
386,115,48819,1,0,0:0:0:0:
96,72,48965,5,8,0:0:0:0:
74,89,49037,1,0,0:0:0:0:
58,112,49110,1,0,0:0:0:0:
48,139,49183,1,0,0:0:0:0:
49,167,49256,1,0,0:0:0:0:
54,194,49329,1,0,0:0:0:0:
60,222,49401,1,0,0:0:0:0:
68,249,49474,1,0,0:0:0:0:
77,275,49547,2,0,B|126:290|167:270|167:270|209:250|257:265,1,180,0|4,0:0|3:0,0:0:0:0:
252,263,50130,1,4,0:0:0:0:
182,148,54790,5,4,0:0:0:0:
216,234,54936,1,0,0:0:0:0:
295,178,55081,2,0,L|403:189,1,90,8|0,0:0|0:0,0:0:0:0:
431,279,55373,2,0,L|323:268,2,90,0|0|8,0:0|0:0|0:0,0:0:0:0:
328,109,55809,6,0,P|246:116|224:209,1,180
258,327,56246,2,0,P|209:314|169:310,1,90,8|0,0:0|0:0,0:0:0:0:
15,239,56538,2,0,P|62:226|109:222,1,90
199,160,56829,2,0,P|233:175|290:189,1,90,8|2,0:0|0:0,0:0:0:0:
390,234,57120,5,4,0:0:0:0:
396,123,57266,1,0,0:0:0:0:
491,240,57411,1,8,0:0:0:0:
480,79,57557,1,0,0:0:0:0:
384,239,57703,2,0,P|343:225|296:218,1,90
235,128,57994,2,0,P|194:142|147:149,1,90,8|0,0:0|0:0,0:0:0:0:
65,322,58285,5,8,0:0:0:0:
65,322,58358,1,0,0:0:0:0:
65,322,58431,1,0,0:0:0:0:
65,322,58504,1,0,0:0:0:0:
65,322,58576,1,0,0:0:0:0:
253,291,58722,1,0,0:0:0:0:
83,139,58868,2,0,P|87:200|89:240,1,90,4|0,0:0|0:0,0:0:0:0:
271,309,59159,2,0,P|267:248|265:208,1,90,4|0,0:0|0:0,0:0:0:0:
135,42,59450,5,4,0:0:0:0:
135,42,59596,2,0,L|139:191,1,135.000005149842,2|0,0:0|0:0,0:0:0:0:
141,201,59960,2,0,P|170:162|287:165,1,168.750006437302,2|0,0:0|0:0,0:0:0:0:
304,159,60397,2,0,B|280:223|280:223|302:276|297:362,1,202.500007724762,2|0,0:0|0:0,0:0:0:0:
293,378,60907,2,0,L|364:371,1,67.5000025749208,2|0,0:0|0:0,0:0:0:0:
442,367,61198,5,0,0:0:0:0:
442,367,61343,1,8,0:0:0:0:
233,252,61489,1,8,0:0:0:0:
233,252,61635,1,8,0:0:0:0:
386,180,61780,5,4,0:0:0:0:
311,233,61926,1,0,0:0:0:0:
303,143,62072,1,0,0:0:0:0:
392,272,62217,5,0,0:0:0:0:
231,192,62363,1,8,0:0:0:0:
375,90,62509,1,0,0:0:0:0:
375,90,62654,6,0,L|386:184,1,90,2|0,0:0|0:0,0:0:0:0:
241,281,62945,2,0,L|230:187,1,90,2|0,0:0|0:0,0:0:0:0:
303,143,63237,2,0,L|314:237,1,90,2|0,0:0|0:0,0:0:0:0:
165,331,63528,6,0,L|154:237,1,90,2|0,0:0|0:0,0:0:0:0:
141,228,64110,6,0,L|51:242,1,90,4|0,0:0|0:0,0:0:0:0:
125,99,64402,2,0,P|178:126|210:136,1,90,8|0,0:0|0:0,0:0:0:0:
304,94,64693,1,0,0:0:0:0:
284,199,64839,2,0,P|275:262|271:300,1,90,0|8,0:0|0:0,0:0:0:0:
482,330,65130,6,0,P|472:279|343:277,1,180
191,325,65567,1,8,0:0:0:0:
191,325,65858,1,0,0:0:0:0:
169,188,66004,1,0,0:0:0:0:
73,348,66149,1,8,0:0:0:0:
73,348,66441,6,0,P|152:346|187:344,1,90
347,328,66732,1,0,0:0:0:0:
246,275,66877,2,0,P|250:228|254:186,1,90
354,130,67169,1,0,0:0:0:0:
354,130,67314,1,8,0:0:0:0:
218,83,67460,1,0,0:0:0:0:
264,255,67606,6,0,P|328:247|372:247,1,90
208,321,67897,2,0,P|180:275|179:233,1,90,8|0,0:0|0:0,0:0:0:0:
411,178,68188,2,0,P|436:215|442:260,1,90
107,171,68479,1,0,0:0:0:0:
107,171,68771,6,0,B|114:118|114:118|185:107|236:191,1,180,0|8,0:0|0:0,0:0:0:0:
221,170,69353,1,0,0:0:0:0:
313,109,69499,1,0,0:0:0:0:
296,267,69644,2,0,P|236:264|192:260,1,90,8|0,0:0|0:0,0:0:0:0:
131,164,69936,6,0,P|191:167|235:171,2,90,0|0|8,0:0|0:0|0:0,0:0:0:0:
313,109,70373,2,0,L|305:6,1,90
334,207,70664,1,0,0:0:0:0:
459,189,70809,1,8,0:0:0:0:
322,212,70955,1,0,0:0:0:0:
443,96,71101,6,0,P|441:173|440:203,1,90
