osu file format v14

[General]
AudioFilename: MY LIBERATION.mp3
AudioLeadIn: 0
PreviewTime: 57817
Countdown: 0
SampleSet: Normal
StackLeniency: 0.7
Mode: 1
LetterboxInBreaks: 0
WidescreenStoryboard: 0

[Editor]
DistanceSpacing: 1.2
BeatDivisor: 4
GridSize: 32
TimelineZoom: 1

[Metadata]
Title:MY LIBERATION
TitleUnicode:MY LIBERATION
Artist:nano
ArtistUnicode:ナノ
Creator:Nardoxyribonucleic
Version:Inner Oni
Source:チェインクロニクル~ヘクセイタスの閃~
Tags:Taiko Chain Chronicle The Light of Haecceitas Opening WEST GROUND
BeatmapID:1240974
BeatmapSetID:585896

[Difficulty]
HPDrainRate:6
CircleSize:5
OverallDifficulty:6
ApproachRate:7
SliderMultiplier:1.4
SliderTickRate:1

[Events]
//Background and Video events
0,0,"ccop5.jpg",0,60
//Break Periods
2,171386,175338
//Storyboard Layer 0 (Background)
//Storyboard Layer 1 (Fail)
//Storyboard Layer 2 (Pass)
//Storyboard Layer 3 (Foreground)
//Storyboard Sound Samples

[TimingPoints]
660,315.789473684211,4,1,0,50,1,0
660,-125,4,1,0,50,0,0
6975,-100,4,1,0,50,0,0
7528,-100,4,1,0,70,0,0
8081,-100,4,1,0,90,0,0
28449,-100,4,1,0,60,0,0
38554,-100,4,1,0,80,0,0
48660,-100,4,1,0,70,0,0
53712,-100,4,1,0,85,0,0
58607,-100,4,1,0,100,0,1
83870,-100,4,1,0,90,0,0
94133,-100,4,1,0,70,0,0
104238,-100,4,1,0,85,0,0
114344,-100,4,1,0,80,0,0
119396,-100,4,1,0,85,0,0
125712,-100,4,1,0,90,0,0
145923,-100,4,1,0,90,0,1
166133,-100,4,1,0,50,0,0
186186,-100,4,1,0,100,0,1
211449,-100,4,1,0,90,0,0

[HitObjects]
256,192,975,5,8,0:0:0:0:
256,192,1291,1,8,0:0:0:0:
256,192,1607,1,0,0:0:0:0:
256,192,1765,1,0,0:0:0:0:
256,192,1923,1,8,0:0:0:0:
256,192,2238,1,0,0:0:0:0:
256,192,2554,1,8,0:0:0:0:
256,192,2712,1,8,0:0:0:0:
256,192,3028,1,0,0:0:0:0:
256,192,3975,1,0,0:0:0:0:
256,192,4133,1,0,0:0:0:0:
256,192,4291,1,0,0:0:0:0:
256,192,4449,1,8,0:0:0:0:
256,192,4765,1,8,0:0:0:0:
256,192,4923,1,0,0:0:0:0:
256,192,5238,1,8,0:0:0:0:
256,192,5712,12,0,7291,0:0:0:0:
256,192,7607,5,0,0:0:0:0:
256,192,7765,1,0,0:0:0:0:
256,192,7923,1,8,0:0:0:0:
256,192,8081,1,4,0:0:0:0:
256,192,8396,1,0,0:0:0:0:
256,192,8554,1,8,0:0:0:0:
256,192,8712,1,8,0:0:0:0:
256,192,8791,1,8,0:0:0:0:
256,192,8870,1,0,0:0:0:0:
256,192,9028,1,0,0:0:0:0:
256,192,9186,1,8,0:0:0:0:
256,192,9344,1,0,0:0:0:0:
256,192,9660,1,8,0:0:0:0:
256,192,9817,1,0,0:0:0:0:
256,192,9975,1,0,0:0:0:0:
256,192,10054,1,0,0:0:0:0:
256,192,10133,1,8,0:0:0:0:
256,192,10291,1,0,0:0:0:0:
256,192,10449,1,8,0:0:0:0:
256,192,10607,1,0,0:0:0:0:
256,192,10923,1,0,0:0:0:0:
256,192,11081,1,8,0:0:0:0:
256,192,11238,1,0,0:0:0:0:
256,192,11317,1,0,0:0:0:0:
256,192,11396,1,8,0:0:0:0:
256,192,11554,1,8,0:0:0:0:
256,192,11712,1,0,0:0:0:0:
256,192,11870,1,8,0:0:0:0:
256,192,11949,1,8,0:0:0:0:
256,192,12028,1,0,0:0:0:0:
256,192,12186,1,0,0:0:0:0:
256,192,12344,1,8,0:0:0:0:
256,192,12502,1,0,0:0:0:0:
256,192,12581,1,0,0:0:0:0:
256,192,12660,1,0,0:0:0:0:
256,192,12817,1,0,0:0:0:0:
256,192,12975,1,8,0:0:0:0:
256,192,13133,1,0,0:0:0:0:
256,192,13449,1,0,0:0:0:0:
256,192,13607,1,8,0:0:0:0:
256,192,13765,1,8,0:0:0:0:
256,192,13923,1,0,0:0:0:0:
256,192,14002,1,0,0:0:0:0:
256,192,14081,1,0,0:0:0:0:
256,192,14238,1,8,0:0:0:0:
256,192,14396,1,0,0:0:0:0:
256,192,14712,1,8,0:0:0:0:
256,192,14870,1,0,0:0:0:0:
256,192,15028,1,0,0:0:0:0:
256,192,15107,1,0,0:0:0:0:
256,192,15186,1,8,0:0:0:0:
256,192,15344,1,8,0:0:0:0:
256,192,15502,1,0,0:0:0:0:
256,192,15660,1,8,0:0:0:0:
256,192,15975,1,0,0:0:0:0:
256,192,16133,1,8,0:0:0:0:
256,192,16291,1,0,0:0:0:0:
256,192,16370,1,0,0:0:0:0:
256,192,16449,1,8,0:0:0:0:
256,192,16607,1,8,0:0:0:0:
256,192,16765,1,0,0:0:0:0:
256,192,16923,1,8,0:0:0:0:
256,192,17002,1,0,0:0:0:0:
256,192,17081,1,8,0:0:0:0:
256,192,17160,1,8,0:0:0:0:
256,192,17238,1,0,0:0:0:0:
256,192,17396,1,8,0:0:0:0:
256,192,17554,1,0,0:0:0:0:
256,192,17633,1,0,0:0:0:0:
256,192,17712,1,8,0:0:0:0:
256,192,17870,1,8,0:0:0:0:
256,192,17949,1,8,0:0:0:0:
256,192,18028,1,8,0:0:0:0:
256,192,18107,1,8,0:0:0:0:
256,192,18186,1,0,0:0:0:0:
256,192,18502,1,0,0:0:0:0:
256,192,18660,1,8,0:0:0:0:
256,192,18817,1,8,0:0:0:0:
256,192,18896,1,8,0:0:0:0:
256,192,18975,1,0,0:0:0:0:
256,192,19133,1,0,0:0:0:0:
256,192,19291,1,8,0:0:0:0:
256,192,19449,1,0,0:0:0:0:
256,192,19765,1,8,0:0:0:0:
256,192,19923,1,0,0:0:0:0:
256,192,20081,1,0,0:0:0:0:
256,192,20160,1,0,0:0:0:0:
256,192,20238,1,8,0:0:0:0:
256,192,20396,1,0,0:0:0:0:
256,192,20554,1,8,0:0:0:0:
256,192,20712,1,0,0:0:0:0:
256,192,21028,1,0,0:0:0:0:
256,192,21186,1,8,0:0:0:0:
256,192,21344,1,0,0:0:0:0:
256,192,21423,1,0,0:0:0:0:
256,192,21502,1,8,0:0:0:0:
256,192,21660,1,8,0:0:0:0:
256,192,21817,1,0,0:0:0:0:
256,192,21975,1,8,0:0:0:0:
256,192,22054,1,8,0:0:0:0:
256,192,22133,1,0,0:0:0:0:
256,192,22291,1,0,0:0:0:0:
256,192,22449,1,8,0:0:0:0:
256,192,22607,1,0,0:0:0:0:
256,192,22686,1,0,0:0:0:0:
256,192,22765,1,0,0:0:0:0:
256,192,22923,1,0,0:0:0:0:
256,192,23081,1,8,0:0:0:0:
256,192,23238,1,0,0:0:0:0:
256,192,23554,1,0,0:0:0:0:
256,192,23712,1,8,0:0:0:0:
256,192,23870,1,8,0:0:0:0:
256,192,24028,1,0,0:0:0:0:
256,192,24107,1,0,0:0:0:0:
256,192,24186,1,0,0:0:0:0:
256,192,24344,1,8,0:0:0:0:
256,192,24502,1,0,0:0:0:0:
256,192,24817,1,8,0:0:0:0:
256,192,24975,1,0,0:0:0:0:
256,192,25133,1,0,0:0:0:0:
256,192,25212,1,0,0:0:0:0:
256,192,25291,1,8,0:0:0:0:
256,192,25449,1,8,0:0:0:0:
256,192,25607,1,0,0:0:0:0:
256,192,25765,1,8,0:0:0:0:
256,192,26081,1,0,0:0:0:0:
256,192,26238,1,8,0:0:0:0:
256,192,26396,1,0,0:0:0:0:
256,192,26475,1,0,0:0:0:0:
256,192,26554,1,8,0:0:0:0:
256,192,26712,1,8,0:0:0:0:
256,192,26870,1,0,0:0:0:0:
256,192,27028,1,8,0:0:0:0:
256,192,27107,1,0,0:0:0:0:
256,192,27186,1,8,0:0:0:0:
256,192,27265,1,8,0:0:0:0:
256,192,27344,1,0,0:0:0:0:
256,192,27502,1,8,0:0:0:0:
256,192,27660,1,0,0:0:0:0:
256,192,27817,1,8,0:0:0:0:
256,192,27975,1,0,0:0:0:0:
256,192,28054,1,0,0:0:0:0:
256,192,28133,1,0,0:0:0:0:
256,192,28212,1,0,0:0:0:0:
256,192,28291,1,0,0:0:0:0:
256,192,28370,1,0,0:0:0:0:
256,192,28449,1,8,0:0:0:0:
256,192,28765,1,0,0:0:0:0:
256,192,29081,1,8,0:0:0:0:
256,192,29396,1,8,0:0:0:0:
256,192,29554,1,0,0:0:0:0:
256,192,29870,1,0,0:0:0:0:
256,192,30028,1,8,0:0:0:0:
256,192,30502,1,0,0:0:0:0:
256,192,30817,1,0,0:0:0:0:
256,192,31133,1,0,0:0:0:0:
256,192,31291,1,8,0:0:0:0:
256,192,31607,1,0,0:0:0:0:
256,192,31923,1,0,0:0:0:0:
256,192,32081,1,0,0:0:0:0:
256,192,32396,1,8,0:0:0:0:
256,192,32712,1,8,0:0:0:0:
256,192,33028,1,0,0:0:0:0:
256,192,33186,1,8,0:0:0:0:
256,192,33344,1,0,0:0:0:0:
256,192,33660,1,0,0:0:0:0:
256,192,33975,1,8,0:0:0:0:
256,192,34291,1,0,0:0:0:0:
256,192,34449,1,8,0:0:0:0:
256,192,35554,1,0,0:0:0:0:
256,192,35870,1,0,0:0:0:0:
256,192,36028,1,8,0:0:0:0:
256,192,36186,1,0,0:0:0:0:
256,192,36502,1,8,0:0:0:0:
256,192,36817,1,8,0:0:0:0:
256,192,36975,1,0,0:0:0:0:
256,192,37291,1,8,0:0:0:0:
256,192,37449,1,0,0:0:0:0:
256,192,37607,1,8,0:0:0:0:
256,192,37765,1,8,0:0:0:0:
256,192,37923,1,0,0:0:0:0:
256,192,38238,1,8,0:0:0:0:
256,192,38554,1,4,0:0:0:0:
256,192,38870,1,8,0:0:0:0:
256,192,39028,1,8,0:0:0:0:
256,192,39186,1,0,0:0:0:0:
256,192,39344,1,8,0:0:0:0:
256,192,39423,1,8,0:0:0:0:
256,192,39502,1,0,0:0:0:0:
256,192,39660,1,0,0:0:0:0:
256,192,39817,1,8,0:0:0:0:
256,192,39975,1,0,0:0:0:0:
256,192,40054,1,0,0:0:0:0:
256,192,40133,1,8,0:0:0:0:
256,192,40291,1,8,0:0:0:0:
256,192,40449,1,0,0:0:0:0:
256,192,40607,1,8,0:0:0:0:
256,192,40923,1,12,0:0:0:0:
256,192,41238,1,0,0:0:0:0:
256,192,41396,1,8,0:0:0:0:
256,192,41712,1,0,0:0:0:0:
256,192,41870,1,8,0:0:0:0:
256,192,42028,1,0,0:0:0:0:
256,192,42186,1,0,0:0:0:0:
256,192,42265,1,0,0:0:0:0:
256,192,42344,1,8,0:0:0:0:
256,192,42502,1,0,0:0:0:0:
256,192,42660,1,8,0:0:0:0:
256,192,42817,1,0,0:0:0:0:
256,192,42896,1,0,0:0:0:0:
256,192,42975,1,0,0:0:0:0:
256,192,43133,1,8,0:0:0:0:
256,192,43449,1,4,0:0:0:0:
256,192,43765,1,0,0:0:0:0:
256,192,43923,1,8,0:0:0:0:
256,192,44238,1,0,0:0:0:0:
256,192,44396,1,8,0:0:0:0:
256,192,44554,1,0,0:0:0:0:
256,192,44712,1,0,0:0:0:0:
256,192,44791,1,0,0:0:0:0:
256,192,44870,1,8,0:0:0:0:
256,192,45028,1,0,0:0:0:0:
256,192,45186,1,8,0:0:0:0:
256,192,45344,1,8,0:0:0:0:
256,192,45423,1,8,0:0:0:0:
256,192,45502,1,0,0:0:0:0:
256,192,45660,1,8,0:0:0:0:
256,192,45817,1,0,0:0:0:0:
256,192,45975,1,4,0:0:0:0:
256,192,46291,1,0,0:0:0:0:
256,192,46449,1,8,0:0:0:0:
256,192,46607,1,8,0:0:0:0:
256,192,46765,1,0,0:0:0:0:
256,192,46923,1,8,0:0:0:0:
256,192,47081,1,0,0:0:0:0:
256,192,47160,1,0,0:0:0:0:
256,192,47238,1,0,0:0:0:0:
256,192,47396,1,8,0:0:0:0:
256,192,47554,1,0,0:0:0:0:
256,192,47633,1,0,0:0:0:0:
256,192,47712,1,8,0:0:0:0:
256,192,47870,1,8,0:0:0:0:
256,192,48028,1,0,0:0:0:0:
256,192,48186,1,8,0:0:0:0:
256,192,48265,1,8,0:0:0:0:
256,192,48344,1,8,0:0:0:0:
256,192,48423,1,8,0:0:0:0:
256,192,48502,1,8,0:0:0:0:
256,192,48581,1,8,0:0:0:0:
256,192,48660,1,0,0:0:0:0:
256,192,49133,1,8,0:0:0:0:
256,192,49607,1,0,0:0:0:0:
256,192,50396,1,0,0:0:0:0:
256,192,50554,1,8,0:0:0:0:
256,192,50870,1,0,0:0:0:0:
256,192,51186,1,0,0:0:0:0:
256,192,51660,1,8,0:0:0:0:
256,192,52133,1,0,0:0:0:0:
256,192,52923,1,0,0:0:0:0:
256,192,53002,1,0,0:0:0:0:
256,192,53081,1,8,0:0:0:0:
256,192,53238,1,0,0:0:0:0:
256,192,53317,1,0,0:0:0:0:
256,192,53396,1,0,0:0:0:0:
256,192,53712,1,12,0:0:0:0:
256,192,54028,1,0,0:0:0:0:
256,192,54186,1,8,0:0:0:0:
256,192,54502,1,0,0:0:0:0:
256,192,54660,1,8,0:0:0:0:
256,192,54817,1,8,0:0:0:0:
256,192,54896,1,8,0:0:0:0:
256,192,54975,1,0,0:0:0:0:
256,192,55133,1,8,0:0:0:0:
256,192,55291,1,8,0:0:0:0:
256,192,55449,1,0,0:0:0:0:
256,192,55528,1,0,0:0:0:0:
256,192,55607,1,0,0:0:0:0:
256,192,55765,1,0,0:0:0:0:
256,192,55923,1,8,0:0:0:0:
256,192,56081,1,0,0:0:0:0:
256,192,56160,1,0,0:0:0:0:
256,192,56238,1,8,0:0:0:0:
256,192,56317,1,0,0:0:0:0:
256,192,56396,1,0,0:0:0:0:
256,192,56554,1,8,0:0:0:0:
256,192,56712,1,0,0:0:0:0:
256,192,56870,1,8,0:0:0:0:
256,192,57028,1,8,0:0:0:0:
256,192,57107,1,8,0:0:0:0:
256,192,57186,1,8,0:0:0:0:
256,192,57344,1,8,0:0:0:0:
256,192,57817,1,8,0:0:0:0:
256,192,58133,1,8,0:0:0:0:
256,192,58449,1,0,0:0:0:0:
256,192,58607,1,12,0:0:0:0:
256,192,58923,1,8,0:0:0:0:
256,192,59081,1,8,0:0:0:0:
256,192,59160,1,8,0:0:0:0:
256,192,59238,1,0,0:0:0:0:
256,192,59396,1,8,0:0:0:0:
256,192,59554,1,0,0:0:0:0:
256,192,59633,1,0,0:0:0:0:
256,192,59712,1,0,0:0:0:0:
256,192,59870,1,0,0:0:0:0:
256,192,60028,1,8,0:0:0:0:
256,192,60186,1,0,0:0:0:0:
256,192,60265,1,0,0:0:0:0:
256,192,60344,1,8,0:0:0:0:
256,192,60502,1,0,0:0:0:0:
256,192,60817,1,0,0:0:0:0:
256,192,60975,1,8,0:0:0:0:
256,192,61133,1,0,0:0:0:0:
256,192,61212,1,0,0:0:0:0:
256,192,61291,1,0,0:0:0:0:
256,192,61449,1,8,0:0:0:0:
256,192,61528,1,0,0:0:0:0:
256,192,61607,1,8,0:0:0:0:
256,192,61686,1,8,0:0:0:0:
256,192,61765,1,0,0:0:0:0:
256,192,61923,1,8,0:0:0:0:
256,192,62081,1,0,0:0:0:0:
256,192,62160,1,0,0:0:0:0:
256,192,62238,1,0,0:0:0:0:
256,192,62396,1,0,0:0:0:0:
256,192,62554,1,8,0:0:0:0:
256,192,62633,1,8,0:0:0:0:
256,192,62712,1,0,0:0:0:0:
256,192,62791,1,0,0:0:0:0:
256,192,62870,1,8,0:0:0:0:
256,192,63028,1,0,0:0:0:0:
256,192,63344,1,0,0:0:0:0:
256,192,63502,1,8,0:0:0:0:
256,192,63660,1,0,0:0:0:0:
256,192,63738,1,0,0:0:0:0:
256,192,63817,1,0,0:0:0:0:
256,192,63975,1,0,0:0:0:0:
256,192,64133,1,8,0:0:0:0:
256,192,64291,1,8,0:0:0:0:
256,192,64449,1,0,0:0:0:0:
256,192,64765,1,8,0:0:0:0:
256,192,65081,1,0,0:0:0:0:
256,192,65238,1,8,0:0:0:0:
256,192,65317,1,8,0:0:0:0:
256,192,65396,1,8,0:0:0:0:
256,192,65554,1,0,0:0:0:0:
256,192,65712,1,8,0:0:0:0:
256,192,65870,1,0,0:0:0:0:
256,192,65949,1,0,0:0:0:0:
256,192,66028,1,8,0:0:0:0:
256,192,66186,1,0,0:0:0:0:
256,192,66265,1,8,0:0:0:0:
256,192,66344,1,0,0:0:0:0:
256,192,66502,1,8,0:0:0:0:
256,192,66581,1,0,0:0:0:0:
256,192,66660,1,8,0:0:0:0:
256,192,66738,1,8,0:0:0:0:
256,192,66817,1,0,0:0:0:0:
256,192,66975,1,8,0:0:0:0:
256,192,67133,1,0,0:0:0:0:
256,192,67212,1,0,0:0:0:0:
256,192,67291,1,8,0:0:0:0:
256,192,67449,1,0,0:0:0:0:
256,192,67607,1,8,0:0:0:0:
256,192,67686,1,8,0:0:0:0:
256,192,67765,1,0,0:0:0:0:
256,192,67844,1,0,0:0:0:0:
256,192,67923,1,0,0:0:0:0:
256,192,68081,1,12,0:0:0:0:
256,192,68396,1,4,0:0:0:0:
256,192,68712,1,12,0:0:0:0:
256,192,69028,1,8,0:0:0:0:
256,192,69186,1,8,0:0:0:0:
256,192,69265,1,8,0:0:0:0:
256,192,69344,1,0,0:0:0:0:
256,192,69502,1,8,0:0:0:0:
256,192,69660,1,0,0:0:0:0:
256,192,69738,1,0,0:0:0:0:
256,192,69817,1,0,0:0:0:0:
256,192,69975,1,0,0:0:0:0:
256,192,70133,1,8,0:0:0:0:
256,192,70291,1,0,0:0:0:0:
256,192,70370,1,0,0:0:0:0:
256,192,70449,1,8,0:0:0:0:
256,192,70607,1,0,0:0:0:0:
256,192,70923,1,0,0:0:0:0:
256,192,71081,1,8,0:0:0:0:
256,192,71238,1,0,0:0:0:0:
256,192,71317,1,0,0:0:0:0:
256,192,71396,1,0,0:0:0:0:
256,192,71554,1,8,0:0:0:0:
256,192,71633,1,0,0:0:0:0:
256,192,71712,1,8,0:0:0:0:
256,192,71791,1,8,0:0:0:0:
256,192,71870,1,0,0:0:0:0:
256,192,72028,1,8,0:0:0:0:
256,192,72186,1,0,0:0:0:0:
256,192,72265,1,0,0:0:0:0:
256,192,72344,1,0,0:0:0:0:
256,192,72502,1,0,0:0:0:0:
256,192,72660,1,8,0:0:0:0:
256,192,72738,1,8,0:0:0:0:
256,192,72817,1,0,0:0:0:0:
256,192,72896,1,0,0:0:0:0:
256,192,72975,1,8,0:0:0:0:
256,192,73133,1,0,0:0:0:0:
256,192,73449,1,0,0:0:0:0:
256,192,73607,1,8,0:0:0:0:
256,192,73765,1,0,0:0:0:0:
256,192,73844,1,0,0:0:0:0:
256,192,73923,1,0,0:0:0:0:
256,192,74081,1,0,0:0:0:0:
256,192,74238,1,8,0:0:0:0:
256,192,74396,1,8,0:0:0:0:
256,192,74554,1,0,0:0:0:0:
256,192,74870,1,8,0:0:0:0:
256,192,75186,1,0,0:0:0:0:
256,192,75344,1,0,0:0:0:0:
256,192,75423,1,0,0:0:0:0:
256,192,75502,1,8,0:0:0:0:
256,192,75660,1,0,0:0:0:0:
256,192,75817,1,8,0:0:0:0:
256,192,75896,1,8,0:0:0:0:
256,192,75975,1,0,0:0:0:0:
256,192,76133,1,8,0:0:0:0:
256,192,76291,1,0,0:0:0:0:
256,192,76370,1,8,0:0:0:0:
256,192,76449,1,0,0:0:0:0:
256,192,76528,1,0,0:0:0:0:
256,192,76607,1,8,0:0:0:0:
256,192,76686,1,0,0:0:0:0:
256,192,76765,1,8,0:0:0:0:
256,192,76923,1,0,0:0:0:0:
256,192,77002,1,0,0:0:0:0:
256,192,77081,1,8,0:0:0:0:
256,192,77160,1,8,0:0:0:0:
256,192,77238,1,0,0:0:0:0:
256,192,77396,1,8,0:0:0:0:
256,192,77554,1,0,0:0:0:0:
256,192,77633,1,0,0:0:0:0:
256,192,77712,1,8,0:0:0:0:
256,192,77791,1,8,0:0:0:0:
256,192,77870,1,0,0:0:0:0:
256,192,77949,1,8,0:0:0:0:
256,192,78028,1,0,0:0:0:0:
256,192,78186,1,12,0:0:0:0:
256,192,78502,1,4,0:0:0:0:
256,192,78817,1,4,0:0:0:0:
256,192,79133,1,0,0:0:0:0:
256,192,79291,1,0,0:0:0:0:
256,192,79607,1,8,0:0:0:0:
256,192,79765,1,0,0:0:0:0:
256,192,79923,1,0,0:0:0:0:
256,192,80081,1,8,0:0:0:0:
256,192,80238,1,8,0:0:0:0:
256,192,80554,1,0,0:0:0:0:
256,192,80870,1,8,0:0:0:0:
256,192,81028,1,0,0:0:0:0:
256,192,81344,1,0,0:0:0:0:
256,192,81660,1,0,0:0:0:0:
256,192,81817,1,8,0:0:0:0:
256,192,81975,1,0,0:0:0:0:
256,192,82054,1,0,0:0:0:0:
256,192,82133,1,8,0:0:0:0:
256,192,82291,1,8,0:0:0:0:
256,192,82449,1,8,0:0:0:0:
256,192,82607,1,8,0:0:0:0:
256,192,82765,1,0,0:0:0:0:
256,192,83081,1,8,0:0:0:0:
256,192,83238,1,0,0:0:0:0:
256,192,83554,1,8,0:0:0:0:
256,192,83870,1,4,0:0:0:0:
256,192,84186,1,0,0:0:0:0:
256,192,84344,1,8,0:0:0:0:
256,192,84502,1,8,0:0:0:0:
256,192,84581,1,8,0:0:0:0:
256,192,84660,1,0,0:0:0:0:
256,192,84817,1,0,0:0:0:0:
256,192,84975,1,8,0:0:0:0:
256,192,85133,1,0,0:0:0:0:
256,192,85449,1,8,0:0:0:0:
256,192,85607,1,0,0:0:0:0:
256,192,85765,1,0,0:0:0:0:
256,192,85844,1,0,0:0:0:0:
256,192,85923,1,8,0:0:0:0:
256,192,86081,1,0,0:0:0:0:
256,192,86238,1,8,0:0:0:0:
256,192,86396,1,0,0:0:0:0:
256,192,86712,1,0,0:0:0:0:
256,192,86870,1,8,0:0:0:0:
256,192,87028,1,0,0:0:0:0:
256,192,87107,1,0,0:0:0:0:
256,192,87186,1,8,0:0:0:0:
256,192,87344,1,8,0:0:0:0:
256,192,87502,1,0,0:0:0:0:
256,192,87660,1,8,0:0:0:0:
256,192,87738,1,8,0:0:0:0:
256,192,87817,1,0,0:0:0:0:
256,192,87975,1,0,0:0:0:0:
256,192,88133,1,8,0:0:0:0:
256,192,88291,1,0,0:0:0:0:
256,192,88370,1,0,0:0:0:0:
256,192,88449,1,0,0:0:0:0:
256,192,88607,1,0,0:0:0:0:
256,192,88765,1,8,0:0:0:0:
256,192,88923,1,0,0:0:0:0:
256,192,89238,1,0,0:0:0:0:
256,192,89396,1,8,0:0:0:0:
256,192,89554,1,8,0:0:0:0:
256,192,89712,1,0,0:0:0:0:
256,192,89791,1,0,0:0:0:0:
256,192,89870,1,0,0:0:0:0:
256,192,90028,1,8,0:0:0:0:
256,192,90186,1,0,0:0:0:0:
256,192,90502,1,8,0:0:0:0:
256,192,90660,1,0,0:0:0:0:
256,192,90817,1,0,0:0:0:0:
256,192,90896,1,0,0:0:0:0:
256,192,90975,1,8,0:0:0:0:
256,192,91133,1,8,0:0:0:0:
256,192,91291,1,0,0:0:0:0:
256,192,91449,1,8,0:0:0:0:
256,192,91765,1,0,0:0:0:0:
256,192,91923,1,8,0:0:0:0:
256,192,92081,1,0,0:0:0:0:
256,192,92160,1,0,0:0:0:0:
256,192,92238,1,8,0:0:0:0:
256,192,92396,1,8,0:0:0:0:
256,192,92554,1,0,0:0:0:0:
256,192,92712,1,8,0:0:0:0:
256,192,92791,1,0,0:0:0:0:
256,192,92870,1,8,0:0:0:0:
256,192,92949,1,8,0:0:0:0:
256,192,93028,1,0,0:0:0:0:
256,192,93186,1,8,0:0:0:0:
256,192,93344,1,0,0:0:0:0:
256,192,93423,1,0,0:0:0:0:
256,192,93502,1,8,0:0:0:0:
256,192,93581,1,8,0:0:0:0:
256,192,93660,1,8,0:0:0:0:
256,192,93738,1,8,0:0:0:0:
256,192,93817,1,0,0:0:0:0:
256,192,93896,1,0,0:0:0:0:
256,192,93975,1,0,0:0:0:0:
256,192,94054,1,0,0:0:0:0:
256,192,94133,1,8,0:0:0:0:
256,192,94449,1,0,0:0:0:0:
256,192,94765,1,8,0:0:0:0:
256,192,95081,1,8,0:0:0:0:
256,192,95238,1,0,0:0:0:0:
256,192,95554,1,0,0:0:0:0:
256,192,95712,1,0,0:0:0:0:
256,192,96028,1,8,0:0:0:0:
256,192,96186,1,8,0:0:0:0:
256,192,96344,1,0,0:0:0:0:
256,192,96660,1,8,0:0:0:0:
256,192,96975,1,0,0:0:0:0:
256,192,97291,1,8,0:0:0:0:
256,192,97607,1,0,0:0:0:0:
256,192,97765,1,0,0:0:0:0:
256,192,98081,1,8,0:0:0:0:
256,192,98396,1,0,0:0:0:0:
256,192,98554,1,8,0:0:0:0:
256,192,98870,1,0,0:0:0:0:
256,192,99028,1,0,0:0:0:0:
256,192,99186,1,8,0:0:0:0:
256,192,99502,1,8,0:0:0:0:
256,192,99660,1,0,0:0:0:0:
256,192,99975,1,0,0:0:0:0:
256,192,100133,1,8,0:0:0:0:
256,192,100449,1,8,0:0:0:0:
256,192,100765,1,0,0:0:0:0:
256,192,101081,1,8,0:0:0:0:
256,192,101238,1,8,0:0:0:0:
256,192,101396,1,0,0:0:0:0:
256,192,101712,1,8,0:0:0:0:
256,192,102028,1,0,0:0:0:0:
256,192,102186,1,8,0:0:0:0:
256,192,102502,1,8,0:0:0:0:
256,192,102660,1,0,0:0:0:0:
256,192,102975,1,8,0:0:0:0:
256,192,103291,1,0,0:0:0:0:
256,192,103607,1,0,0:0:0:0:
256,192,103765,1,0,0:0:0:0:
256,192,103923,1,12,0:0:0:0:
256,192,104238,1,8,0:0:0:0:
256,192,104396,1,0,0:0:0:0:
256,192,104554,1,0,0:0:0:0:
256,192,104712,1,8,0:0:0:0:
256,192,105028,1,8,0:0:0:0:
256,192,105186,1,0,0:0:0:0:
256,192,105344,1,0,0:0:0:0:
256,192,105502,1,8,0:0:0:0:
256,192,105660,1,0,0:0:0:0:
256,192,105817,1,8,0:0:0:0:
256,192,105975,1,0,0:0:0:0:
256,192,106054,1,0,0:0:0:0:
256,192,106133,1,8,0:0:0:0:
256,192,106291,1,0,0:0:0:0:
256,192,106449,1,8,0:0:0:0:
256,192,106607,1,8,0:0:0:0:
256,192,106923,1,8,0:0:0:0:
256,192,107081,1,0,0:0:0:0:
256,192,107238,1,0,0:0:0:0:
256,192,107396,1,8,0:0:0:0:
256,192,107712,1,8,0:0:0:0:
256,192,107870,1,0,0:0:0:0:
256,192,108028,1,8,0:0:0:0:
256,192,108186,1,0,0:0:0:0:
256,192,108344,1,8,0:0:0:0:
256,192,108502,1,8,0:0:0:0:
256,192,108660,1,0,0:0:0:0:
256,192,108817,1,8,0:0:0:0:
256,192,108896,1,8,0:0:0:0:
256,192,108975,1,0,0:0:0:0:
256,192,109133,1,8,0:0:0:0:
256,192,109449,1,0,0:0:0:0:
256,192,109607,1,8,0:0:0:0:
256,192,109765,1,8,0:0:0:0:
256,192,109923,1,0,0:0:0:0:
256,192,110081,1,8,0:0:0:0:
256,192,110238,1,0,0:0:0:0:
256,192,110396,1,0,0:0:0:0:
256,192,110475,1,0,0:0:0:0:
256,192,110554,1,8,0:0:0:0:
256,192,110712,1,0,0:0:0:0:
256,192,110870,1,8,0:0:0:0:
256,192,111186,1,8,0:0:0:0:
256,192,111344,1,8,0:0:0:0:
256,192,111502,1,0,0:0:0:0:
256,192,111660,1,8,0:0:0:0:
256,192,111817,1,0,0:0:0:0:
256,192,111975,1,8,0:0:0:0:
256,192,112054,1,8,0:0:0:0:
256,192,112133,1,0,0:0:0:0:
256,192,112291,1,0,0:0:0:0:
256,192,112449,1,8,0:0:0:0:
256,192,112765,1,8,0:0:0:0:
256,192,112923,1,0,0:0:0:0:
256,192,113081,1,8,0:0:0:0:
256,192,113238,1,0,0:0:0:0:
256,192,113317,1,0,0:0:0:0:
256,192,113396,1,8,0:0:0:0:
256,192,113554,1,0,0:0:0:0:
256,192,113712,1,8,0:0:0:0:
256,192,113817,1,8,0:0:0:0:
256,192,113923,1,0,0:0:0:0:
256,192,114028,1,8,0:0:0:0:
256,192,114133,1,0,0:0:0:0:
256,192,114238,1,0,0:0:0:0:
256,192,114344,1,8,0:0:0:0:
256,192,114502,1,0,0:0:0:0:
256,192,114660,1,0,0:0:0:0:
256,192,114817,1,8,0:0:0:0:
256,192,115133,1,8,0:0:0:0:
256,192,115291,1,0,0:0:0:0:
256,192,115449,1,8,0:0:0:0:
256,192,115765,1,8,0:0:0:0:
256,192,116081,1,8,0:0:0:0:
256,192,116238,1,0,0:0:0:0:
256,192,116396,1,0,0:0:0:0:
256,192,116554,1,8,0:0:0:0:
256,192,116712,1,8,0:0:0:0:
256,192,116870,1,0,0:0:0:0:
256,192,117028,1,0,0:0:0:0:
256,192,117186,1,0,0:0:0:0:
256,192,117344,1,8,0:0:0:0:
256,192,117660,1,8,0:0:0:0:
256,192,117817,1,0,0:0:0:0:
256,192,117975,1,8,0:0:0:0:
256,192,118291,1,8,0:0:0:0:
256,192,118607,1,8,0:0:0:0:
256,192,118765,1,0,0:0:0:0:
256,192,118923,1,0,0:0:0:0:
256,192,119081,1,8,0:0:0:0:
256,192,119160,1,8,0:0:0:0:
256,192,119238,1,8,0:0:0:0:
256,192,119317,1,8,0:0:0:0:
256,192,119396,1,0,0:0:0:0:
256,192,119554,1,8,0:0:0:0:
256,192,119712,1,0,0:0:0:0:
256,192,119791,1,0,0:0:0:0:
256,192,119870,1,8,0:0:0:0:
256,192,120028,1,0,0:0:0:0:
256,192,120186,1,8,0:0:0:0:
256,192,120344,1,0,0:0:0:0:
256,192,120423,1,0,0:0:0:0:
256,192,120502,1,8,0:0:0:0:
256,192,120660,1,0,0:0:0:0:
256,192,120817,1,8,0:0:0:0:
256,192,120896,1,8,0:0:0:0:
256,192,120975,1,0,0:0:0:0:
256,192,121054,1,0,0:0:0:0:
256,192,121133,1,8,0:0:0:0:
256,192,121291,1,0,0:0:0:0:
256,192,121449,1,8,0:0:0:0:
256,192,121607,1,0,0:0:0:0:
256,192,121686,1,0,0:0:0:0:
256,192,121765,1,8,0:0:0:0:
256,192,121844,1,8,0:0:0:0:
256,192,121923,1,0,0:0:0:0:
256,192,122081,1,8,0:0:0:0:
256,192,122238,1,0,0:0:0:0:
256,192,122317,1,0,0:0:0:0:
256,192,122396,1,8,0:0:0:0:
256,192,122554,1,0,0:0:0:0:
256,192,122712,1,8,0:0:0:0:
256,192,122791,1,8,0:0:0:0:
256,192,122870,1,0,0:0:0:0:
256,192,122949,1,0,0:0:0:0:
256,192,123028,1,8,0:0:0:0:
256,192,123186,1,8,0:0:0:0:
256,192,123265,1,0,0:0:0:0:
256,192,123344,1,0,0:0:0:0:
256,192,123423,1,0,0:0:0:0:
256,192,123502,1,0,0:0:0:0:
256,192,123581,1,0,0:0:0:0:
256,192,123660,1,8,0:0:0:0:
256,192,123738,1,0,0:0:0:0:
256,192,123817,1,0,0:0:0:0:
256,192,123896,1,0,0:0:0:0:
256,192,123975,1,0,0:0:0:0:
256,192,124054,1,0,0:0:0:0:
256,192,124133,1,8,0:0:0:0:
256,192,124212,1,0,0:0:0:0:
256,192,124291,1,8,0:0:0:0:
256,192,124370,1,8,0:0:0:0:
256,192,124449,1,8,0:0:0:0:
256,192,124607,1,0,0:0:0:0:
256,192,124660,1,0,0:0:0:0:
256,192,124712,1,0,0:0:0:0:
256,192,124765,1,0,0:0:0:0:
256,192,124923,1,8,0:0:0:0:
256,192,125081,1,0,0:0:0:0:
256,192,125133,1,0,0:0:0:0:
256,192,125186,1,0,0:0:0:0:
256,192,125238,1,0,0:0:0:0:
256,192,125396,1,8,0:0:0:0:
256,192,125712,1,4,0:0:0:0:
256,192,126028,1,8,0:0:0:0:
256,192,126186,1,0,0:0:0:0:
256,192,126344,1,0,0:0:0:0:
256,192,126502,1,8,0:0:0:0:
256,192,126660,1,0,0:0:0:0:
256,192,126817,1,8,0:0:0:0:
256,192,126975,1,0,0:0:0:0:
256,192,127054,1,0,0:0:0:0:
256,192,127133,1,0,0:0:0:0:
256,192,127291,1,8,0:0:0:0:
256,192,127449,1,8,0:0:0:0:
256,192,127607,1,0,0:0:0:0:
256,192,127765,1,8,0:0:0:0:
256,192,128081,1,8,0:0:0:0:
256,192,128238,1,0,0:0:0:0:
256,192,128396,1,0,0:0:0:0:
256,192,128554,1,8,0:0:0:0:
256,192,128870,1,0,0:0:0:0:
256,192,129028,1,8,0:0:0:0:
256,192,129186,1,0,0:0:0:0:
256,192,129344,1,8,0:0:0:0:
256,192,129423,1,8,0:0:0:0:
256,192,129502,1,0,0:0:0:0:
256,192,129660,1,0,0:0:0:0:
256,192,129817,1,8,0:0:0:0:
256,192,129975,1,8,0:0:0:0:
256,192,130133,1,0,0:0:0:0:
256,192,130291,1,8,0:0:0:0:
256,192,130607,1,8,0:0:0:0:
256,192,130765,1,0,0:0:0:0:
256,192,130923,1,0,0:0:0:0:
256,192,131081,1,8,0:0:0:0:
256,192,131238,1,0,0:0:0:0:
256,192,131317,1,0,0:0:0:0:
256,192,131396,1,8,0:0:0:0:
256,192,131554,1,8,0:0:0:0:
256,192,131712,1,0,0:0:0:0:
256,192,131870,1,0,0:0:0:0:
256,192,131949,1,0,0:0:0:0:
256,192,132028,1,8,0:0:0:0:
256,192,132186,1,0,0:0:0:0:
256,192,132344,1,8,0:0:0:0:
256,192,132502,1,8,0:0:0:0:
256,192,132660,1,0,0:0:0:0:
256,192,132817,1,8,0:0:0:0:
256,192,132896,1,8,0:0:0:0:
256,192,132975,1,0,0:0:0:0:
256,192,133133,1,8,0:0:0:0:
256,192,133291,1,0,0:0:0:0:
256,192,133449,1,0,0:0:0:0:
256,192,133607,1,8,0:0:0:0:
256,192,133765,1,0,0:0:0:0:
256,192,133844,1,0,0:0:0:0:
256,192,133923,1,8,0:0:0:0:
256,192,134081,1,8,0:0:0:0:
256,192,134238,1,0,0:0:0:0:
256,192,134396,1,0,0:0:0:0:
256,192,134475,1,0,0:0:0:0:
256,192,134554,1,8,0:0:0:0:
256,192,134712,1,0,0:0:0:0:
256,192,134791,1,0,0:0:0:0:
256,192,134870,1,8,0:0:0:0:
256,192,135028,1,8,0:0:0:0:
256,192,135186,1,0,0:0:0:0:
256,192,135265,1,0,0:0:0:0:
256,192,135344,1,0,0:0:0:0:
256,192,135423,1,0,0:0:0:0:
256,192,135502,1,8,0:0:0:0:
256,192,135581,1,8,0:0:0:0:
256,192,135660,1,8,0:0:0:0:
256,192,135738,1,8,0:0:0:0:
256,192,135817,1,0,0:0:0:0:
256,192,136133,1,8,0:0:0:0:
256,192,136291,1,0,0:0:0:0:
256,192,136449,1,0,0:0:0:0:
256,192,136607,1,8,0:0:0:0:
256,192,136765,1,0,0:0:0:0:
256,192,136923,1,8,0:0:0:0:
256,192,137081,1,0,0:0:0:0:
256,192,137160,1,0,0:0:0:0:
256,192,137238,1,0,0:0:0:0:
256,192,137396,1,8,0:0:0:0:
256,192,137554,1,8,0:0:0:0:
256,192,137712,1,0,0:0:0:0:
256,192,137870,1,8,0:0:0:0:
256,192,138186,1,8,0:0:0:0:
256,192,138344,1,0,0:0:0:0:
256,192,138502,1,0,0:0:0:0:
256,192,138660,1,8,0:0:0:0:
256,192,138975,1,0,0:0:0:0:
256,192,139133,1,8,0:0:0:0:
256,192,139291,1,0,0:0:0:0:
256,192,139449,1,8,0:0:0:0:
256,192,139528,1,8,0:0:0:0:
256,192,139607,1,0,0:0:0:0:
256,192,139765,1,0,0:0:0:0:
256,192,139923,1,8,0:0:0:0:
256,192,140081,1,8,0:0:0:0:
256,192,140238,1,0,0:0:0:0:
256,192,140396,1,8,0:0:0:0:
256,192,140475,1,8,0:0:0:0:
256,192,140554,1,0,0:0:0:0:
256,192,140633,1,0,0:0:0:0:
256,192,140712,1,8,0:0:0:0:
256,192,140870,1,0,0:0:0:0:
256,192,141028,1,0,0:0:0:0:
256,192,141186,1,8,0:0:0:0:
256,192,141344,1,0,0:0:0:0:
256,192,141423,1,0,0:0:0:0:
256,192,141502,1,8,0:0:0:0:
256,192,141660,1,8,0:0:0:0:
256,192,141817,1,0,0:0:0:0:
256,192,141975,1,0,0:0:0:0:
256,192,142054,1,0,0:0:0:0:
256,192,142133,1,8,0:0:0:0:
256,192,142291,1,0,0:0:0:0:
256,192,142449,1,8,0:0:0:0:
256,192,142607,1,8,0:0:0:0:
256,192,142765,1,0,0:0:0:0:
256,192,142923,1,8,0:0:0:0:
256,192,143002,1,8,0:0:0:0:
256,192,143081,1,0,0:0:0:0:
256,192,143238,1,8,0:0:0:0:
256,192,143396,1,0,0:0:0:0:
256,192,143554,1,0,0:0:0:0:
256,192,143712,1,8,0:0:0:0:
256,192,143870,1,0,0:0:0:0:
256,192,143949,1,0,0:0:0:0:
256,192,144028,1,8,0:0:0:0:
256,192,144186,1,8,0:0:0:0:
256,192,144344,1,0,0:0:0:0:
256,192,144423,1,0,0:0:0:0:
256,192,144502,1,0,0:0:0:0:
256,192,144581,1,0,0:0:0:0:
256,192,144660,1,8,0:0:0:0:
256,192,144817,1,0,0:0:0:0:
256,192,144896,1,0,0:0:0:0:
256,192,144975,1,8,0:0:0:0:
256,192,145133,1,0,0:0:0:0:
256,192,145291,1,8,0:0:0:0:
256,192,145370,1,8,0:0:0:0:
256,192,145449,1,0,0:0:0:0:
256,192,145528,1,0,0:0:0:0:
256,192,145607,1,8,0:0:0:0:
256,192,145686,1,8,0:0:0:0:
256,192,145765,1,8,0:0:0:0:
256,192,145923,1,4,0:0:0:0:
256,192,146081,1,0,0:0:0:0:
256,192,146238,1,8,0:0:0:0:
256,192,146396,1,0,0:0:0:0:
256,192,146475,1,0,0:0:0:0:
256,192,146554,1,0,0:0:0:0:
256,192,146712,1,8,0:0:0:0:
256,192,146870,1,0,0:0:0:0:
256,192,147028,1,8,0:0:0:0:
256,192,147107,1,8,0:0:0:0:
256,192,147186,1,0,0:0:0:0:
256,192,147344,1,0,0:0:0:0:
256,192,147502,1,8,0:0:0:0:
256,192,147817,1,0,0:0:0:0:
256,192,147975,1,8,0:0:0:0:
256,192,148133,1,0,0:0:0:0:
256,192,148212,1,0,0:0:0:0:
256,192,148291,1,8,0:0:0:0:
256,192,148449,1,0,0:0:0:0:
256,192,148607,1,0,0:0:0:0:
256,192,148765,1,8,0:0:0:0:
256,192,148923,1,0,0:0:0:0:
256,192,149002,1,0,0:0:0:0:
256,192,149081,1,0,0:0:0:0:
256,192,149238,1,8,0:0:0:0:
256,192,149396,1,0,0:0:0:0:
256,192,149554,1,8,0:0:0:0:
256,192,149633,1,8,0:0:0:0:
256,192,149712,1,0,0:0:0:0:
256,192,149870,1,0,0:0:0:0:
256,192,150028,1,8,0:0:0:0:
256,192,150344,1,0,0:0:0:0:
256,192,150502,1,8,0:0:0:0:
256,192,150660,1,0,0:0:0:0:
256,192,150817,1,8,0:0:0:0:
256,192,150896,1,8,0:0:0:0:
256,192,150975,1,0,0:0:0:0:
256,192,151133,1,0,0:0:0:0:
256,192,151291,1,8,0:0:0:0:
256,192,151449,1,0,0:0:0:0:
256,192,151528,1,0,0:0:0:0:
256,192,151607,1,0,0:0:0:0:
256,192,151765,1,8,0:0:0:0:
256,192,151923,1,0,0:0:0:0:
256,192,152081,1,8,0:0:0:0:
256,192,152160,1,8,0:0:0:0:
256,192,152238,1,0,0:0:0:0:
256,192,152396,1,0,0:0:0:0:
256,192,152554,1,8,0:0:0:0:
256,192,152870,1,0,0:0:0:0:
256,192,153028,1,8,0:0:0:0:
256,192,153186,1,0,0:0:0:0:
256,192,153265,1,0,0:0:0:0:
256,192,153344,1,8,0:0:0:0:
256,192,153502,1,0,0:0:0:0:
256,192,153660,1,0,0:0:0:0:
256,192,153817,1,8,0:0:0:0:
256,192,153975,1,0,0:0:0:0:
256,192,154054,1,0,0:0:0:0:
256,192,154133,1,8,0:0:0:0:
256,192,154212,1,0,0:0:0:0:
256,192,154291,1,8,0:0:0:0:
256,192,154370,1,8,0:0:0:0:
256,192,154449,1,0,0:0:0:0:
256,192,154607,1,8,0:0:0:0:
256,192,154765,1,0,0:0:0:0:
256,192,154923,1,0,0:0:0:0:
256,192,155002,1,0,0:0:0:0:
256,192,155081,1,8,0:0:0:0:
256,192,155238,1,0,0:0:0:0:
256,192,155317,1,8,0:0:0:0:
256,192,155396,1,0,0:0:0:0:
256,192,155475,1,0,0:0:0:0:
256,192,155554,1,8,0:0:0:0:
256,192,155633,1,0,0:0:0:0:
256,192,155712,1,8,0:0:0:0:
256,192,155791,1,8,0:0:0:0:
256,192,155870,1,0,0:0:0:0:
256,192,155949,1,8,0:0:0:0:
256,192,156028,1,0,0:0:0:0:
256,192,156186,1,8,0:0:0:0:
256,192,156344,1,0,0:0:0:0:
256,192,156423,1,0,0:0:0:0:
256,192,156502,1,8,0:0:0:0:
256,192,156660,1,0,0:0:0:0:
256,192,156817,1,8,0:0:0:0:
256,192,156975,1,0,0:0:0:0:
256,192,157054,1,0,0:0:0:0:
256,192,157133,1,8,0:0:0:0:
256,192,157291,1,0,0:0:0:0:
256,192,157449,1,8,0:0:0:0:
256,192,157607,1,0,0:0:0:0:
256,192,157686,1,0,0:0:0:0:
256,192,157765,1,8,0:0:0:0:
256,192,157923,1,0,0:0:0:0:
256,192,158081,1,8,0:0:0:0:
256,192,158238,1,0,0:0:0:0:
256,192,158317,1,0,0:0:0:0:
256,192,158396,1,8,0:0:0:0:
256,192,158475,1,8,0:0:0:0:
256,192,158554,1,0,0:0:0:0:
256,192,158712,1,8,0:0:0:0:
256,192,158870,1,0,0:0:0:0:
256,192,158949,1,0,0:0:0:0:
256,192,159028,1,8,0:0:0:0:
256,192,159186,1,0,0:0:0:0:
256,192,159344,1,8,0:0:0:0:
256,192,159502,1,0,0:0:0:0:
256,192,159581,1,0,0:0:0:0:
256,192,159660,1,8,0:0:0:0:
256,192,159817,1,0,0:0:0:0:
256,192,159975,1,8,0:0:0:0:
256,192,160133,1,0,0:0:0:0:
256,192,160212,1,0,0:0:0:0:
256,192,160291,1,8,0:0:0:0:
256,192,160449,1,0,0:0:0:0:
256,192,160607,1,8,0:0:0:0:
256,192,160686,1,8,0:0:0:0:
256,192,160765,1,0,0:0:0:0:
256,192,160844,1,0,0:0:0:0:
256,192,160923,1,8,0:0:0:0:
256,192,161081,1,0,0:0:0:0:
256,192,161238,1,8,0:0:0:0:
256,192,161317,1,8,0:0:0:0:
256,192,161396,1,0,0:0:0:0:
256,192,161554,1,8,0:0:0:0:
256,192,161712,1,0,0:0:0:0:
256,192,161870,1,8,0:0:0:0:
256,192,161949,1,8,0:0:0:0:
256,192,162028,1,0,0:0:0:0:
256,192,162186,1,8,0:0:0:0:
256,192,162344,1,0,0:0:0:0:
256,192,162502,1,8,0:0:0:0:
256,192,162581,1,8,0:0:0:0:
256,192,162660,1,0,0:0:0:0:
256,192,162817,1,8,0:0:0:0:
256,192,162975,1,0,0:0:0:0:
256,192,163054,1,8,0:0:0:0:
256,192,163133,1,0,0:0:0:0:
256,192,163212,1,0,0:0:0:0:
256,192,163291,1,8,0:0:0:0:
256,192,163370,1,0,0:0:0:0:
256,192,163449,1,8,0:0:0:0:
256,192,163528,1,8,0:0:0:0:
256,192,163607,1,0,0:0:0:0:
256,192,163765,1,8,0:0:0:0:
256,192,163844,1,8,0:0:0:0:
256,192,163923,1,0,0:0:0:0:
256,192,164081,1,8,0:0:0:0:
256,192,164160,1,0,0:0:0:0:
256,192,164238,1,8,0:0:0:0:
256,192,164317,1,8,0:0:0:0:
256,192,164396,1,0,0:0:0:0:
256,192,164475,1,8,0:0:0:0:
256,192,164554,1,0,0:0:0:0:
256,192,164633,1,0,0:0:0:0:
256,192,164712,1,8,0:0:0:0:
256,192,164870,1,0,0:0:0:0:
256,192,164949,1,0,0:0:0:0:
256,192,165028,1,8,0:0:0:0:
256,192,165186,1,0,0:0:0:0:
256,192,165265,1,0,0:0:0:0:
256,192,165344,1,8,0:0:0:0:
256,192,165423,1,0,0:0:0:0:
256,192,165502,1,8,0:0:0:0:
256,192,165581,1,8,0:0:0:0:
256,192,165660,1,0,0:0:0:0:
256,192,165738,1,8,0:0:0:0:
256,192,165817,1,0,0:0:0:0:
256,192,165896,1,0,0:0:0:0:
256,192,165975,1,8,0:0:0:0:
256,192,166133,1,4,0:0:0:0:
256,192,166291,12,0,171186,0:0:0:0:
256,192,176238,12,0,181291,0:0:0:0:
256,192,185396,5,8,0:0:0:0:
256,192,185712,1,8,0:0:0:0:
256,192,186028,1,0,0:0:0:0:
256,192,186186,1,12,0:0:0:0:
256,192,186502,1,8,0:0:0:0:
256,192,186660,1,8,0:0:0:0:
256,192,186738,1,8,0:0:0:0:
256,192,186817,1,0,0:0:0:0:
256,192,186975,1,8,0:0:0:0:
256,192,187133,1,0,0:0:0:0:
256,192,187212,1,0,0:0:0:0:
256,192,187291,1,0,0:0:0:0:
256,192,187449,1,0,0:0:0:0:
256,192,187607,1,8,0:0:0:0:
256,192,187765,1,0,0:0:0:0:
256,192,187844,1,0,0:0:0:0:
256,192,187923,1,8,0:0:0:0:
256,192,188081,1,0,0:0:0:0:
256,192,188160,1,8,0:0:0:0:
256,192,188238,1,0,0:0:0:0:
256,192,188396,1,0,0:0:0:0:
256,192,188554,1,8,0:0:0:0:
256,192,188712,1,0,0:0:0:0:
256,192,188791,1,0,0:0:0:0:
256,192,188870,1,0,0:0:0:0:
256,192,189028,1,8,0:0:0:0:
256,192,189107,1,0,0:0:0:0:
256,192,189186,1,8,0:0:0:0:
256,192,189265,1,8,0:0:0:0:
256,192,189344,1,0,0:0:0:0:
256,192,189502,1,8,0:0:0:0:
256,192,189660,1,0,0:0:0:0:
256,192,189738,1,0,0:0:0:0:
256,192,189817,1,0,0:0:0:0:
256,192,189975,1,0,0:0:0:0:
256,192,190133,1,8,0:0:0:0:
256,192,190212,1,8,0:0:0:0:
256,192,190291,1,0,0:0:0:0:
256,192,190370,1,0,0:0:0:0:
256,192,190449,1,8,0:0:0:0:
256,192,190607,1,0,0:0:0:0:
256,192,190923,1,0,0:0:0:0:
256,192,191081,1,8,0:0:0:0:
256,192,191238,1,0,0:0:0:0:
256,192,191317,1,0,0:0:0:0:
256,192,191396,1,0,0:0:0:0:
256,192,191554,1,0,0:0:0:0:
256,192,191712,1,8,0:0:0:0:
256,192,191870,1,8,0:0:0:0:
256,192,191949,1,8,0:0:0:0:
256,192,192028,1,0,0:0:0:0:
256,192,192186,1,0,0:0:0:0:
256,192,192344,1,8,0:0:0:0:
256,192,192502,1,0,0:0:0:0:
256,192,192581,1,0,0:0:0:0:
256,192,192660,1,0,0:0:0:0:
256,192,192817,1,8,0:0:0:0:
256,192,192896,1,8,0:0:0:0:
256,192,192975,1,8,0:0:0:0:
256,192,193133,1,0,0:0:0:0:
256,192,193291,1,8,0:0:0:0:
256,192,193449,1,0,0:0:0:0:
256,192,193528,1,0,0:0:0:0:
256,192,193607,1,8,0:0:0:0:
256,192,193765,1,0,0:0:0:0:
256,192,193844,1,8,0:0:0:0:
256,192,193923,1,0,0:0:0:0:
256,192,194002,1,0,0:0:0:0:
256,192,194081,1,8,0:0:0:0:
256,192,194160,1,0,0:0:0:0:
256,192,194238,1,8,0:0:0:0:
256,192,194317,1,8,0:0:0:0:
256,192,194396,1,0,0:0:0:0:
256,192,194554,1,8,0:0:0:0:
256,192,194712,1,0,0:0:0:0:
256,192,194791,1,0,0:0:0:0:
256,192,194870,1,8,0:0:0:0:
256,192,195028,1,0,0:0:0:0:
256,192,195107,1,0,0:0:0:0:
256,192,195186,1,8,0:0:0:0:
256,192,195265,1,8,0:0:0:0:
256,192,195344,1,0,0:0:0:0:
256,192,195423,1,0,0:0:0:0:
256,192,195502,1,0,0:0:0:0:
256,192,195660,1,12,0:0:0:0:
256,192,195975,1,4,0:0:0:0:
256,192,196291,1,12,0:0:0:0:
256,192,196607,1,8,0:0:0:0:
256,192,196765,1,8,0:0:0:0:
256,192,196844,1,8,0:0:0:0:
256,192,196923,1,0,0:0:0:0:
256,192,197081,1,8,0:0:0:0:
256,192,197238,1,0,0:0:0:0:
256,192,197317,1,0,0:0:0:0:
256,192,197396,1,0,0:0:0:0:
256,192,197554,1,0,0:0:0:0:
256,192,197712,1,8,0:0:0:0:
256,192,197870,1,0,0:0:0:0:
256,192,197949,1,0,0:0:0:0:
256,192,198028,1,8,0:0:0:0:
256,192,198186,1,0,0:0:0:0:
256,192,198265,1,8,0:0:0:0:
256,192,198344,1,0,0:0:0:0:
256,192,198502,1,0,0:0:0:0:
256,192,198660,1,8,0:0:0:0:
256,192,198817,1,0,0:0:0:0:
256,192,198896,1,0,0:0:0:0:
256,192,198975,1,0,0:0:0:0:
256,192,199133,1,8,0:0:0:0:
256,192,199212,1,0,0:0:0:0:
256,192,199291,1,8,0:0:0:0:
256,192,199370,1,8,0:0:0:0:
256,192,199449,1,0,0:0:0:0:
256,192,199607,1,8,0:0:0:0:
256,192,199765,1,0,0:0:0:0:
256,192,199844,1,0,0:0:0:0:
256,192,199923,1,0,0:0:0:0:
256,192,200081,1,0,0:0:0:0:
256,192,200238,1,8,0:0:0:0:
256,192,200317,1,8,0:0:0:0:
256,192,200396,1,0,0:0:0:0:
256,192,200475,1,0,0:0:0:0:
256,192,200554,1,8,0:0:0:0:
256,192,200712,1,0,0:0:0:0:
256,192,201028,1,0,0:0:0:0:
256,192,201186,1,8,0:0:0:0:
256,192,201344,1,0,0:0:0:0:
256,192,201423,1,0,0:0:0:0:
256,192,201502,1,0,0:0:0:0:
256,192,201660,1,0,0:0:0:0:
256,192,201817,1,8,0:0:0:0:
256,192,201975,1,8,0:0:0:0:
256,192,202054,1,8,0:0:0:0:
256,192,202133,1,0,0:0:0:0:
256,192,202291,1,0,0:0:0:0:
256,192,202449,1,8,0:0:0:0:
256,192,202607,1,0,0:0:0:0:
256,192,202686,1,8,0:0:0:0:
256,192,202765,1,0,0:0:0:0:
256,192,202923,1,0,0:0:0:0:
256,192,203002,1,0,0:0:0:0:
256,192,203081,1,8,0:0:0:0:
256,192,203238,1,0,0:0:0:0:
256,192,203396,1,8,0:0:0:0:
256,192,203475,1,8,0:0:0:0:
256,192,203554,1,0,0:0:0:0:
256,192,203712,1,8,0:0:0:0:
256,192,203870,1,0,0:0:0:0:
256,192,203949,1,8,0:0:0:0:
256,192,204028,1,0,0:0:0:0:
256,192,204107,1,0,0:0:0:0:
256,192,204186,1,8,0:0:0:0:
256,192,204265,1,0,0:0:0:0:
256,192,204344,1,8,0:0:0:0:
256,192,204423,1,8,0:0:0:0:
256,192,204502,1,0,0:0:0:0:
256,192,204581,1,0,0:0:0:0:
256,192,204660,1,8,0:0:0:0:
256,192,204817,1,0,0:0:0:0:
256,192,204975,1,8,0:0:0:0:
256,192,205054,1,8,0:0:0:0:
256,192,205133,1,0,0:0:0:0:
256,192,205212,1,0,0:0:0:0:
256,192,205291,1,8,0:0:0:0:
256,192,205370,1,8,0:0:0:0:
256,192,205449,1,0,0:0:0:0:
256,192,205528,1,8,0:0:0:0:
256,192,205607,1,0,0:0:0:0:
256,192,205765,1,12,0:0:0:0:
256,192,206081,1,4,0:0:0:0:
256,192,206396,1,4,0:0:0:0:
256,192,206712,1,0,0:0:0:0:
256,192,206870,1,0,0:0:0:0:
256,192,207186,1,8,0:0:0:0:
256,192,207344,1,0,0:0:0:0:
256,192,207502,1,0,0:0:0:0:
256,192,207660,1,8,0:0:0:0:
256,192,207817,1,8,0:0:0:0:
256,192,208133,1,0,0:0:0:0:
256,192,208449,1,8,0:0:0:0:
256,192,208607,1,0,0:0:0:0:
256,192,208923,1,0,0:0:0:0:
256,192,209238,1,0,0:0:0:0:
256,192,209396,1,8,0:0:0:0:
256,192,209554,1,0,0:0:0:0:
256,192,209633,1,0,0:0:0:0:
256,192,209712,1,8,0:0:0:0:
256,192,209870,1,8,0:0:0:0:
256,192,210028,1,8,0:0:0:0:
256,192,210186,1,8,0:0:0:0:
256,192,210344,1,0,0:0:0:0:
256,192,210660,1,8,0:0:0:0:
256,192,210817,1,0,0:0:0:0:
256,192,211133,1,8,0:0:0:0:
256,192,211449,1,4,0:0:0:0:
256,192,211765,1,0,0:0:0:0:
256,192,211923,1,8,0:0:0:0:
256,192,212081,1,8,0:0:0:0:
256,192,212160,1,8,0:0:0:0:
256,192,212238,1,0,0:0:0:0:
256,192,212396,1,0,0:0:0:0:
256,192,212554,1,8,0:0:0:0:
256,192,212712,1,0,0:0:0:0:
256,192,213028,1,8,0:0:0:0:
256,192,213186,1,0,0:0:0:0:
256,192,213344,1,0,0:0:0:0:
256,192,213423,1,0,0:0:0:0:
256,192,213502,1,8,0:0:0:0:
256,192,213660,1,0,0:0:0:0:
256,192,213817,1,8,0:0:0:0:
256,192,213975,1,0,0:0:0:0:
256,192,214291,1,0,0:0:0:0:
256,192,214449,1,8,0:0:0:0:
256,192,214607,1,0,0:0:0:0:
256,192,214765,1,8,0:0:0:0:
256,192,214923,1,8,0:0:0:0:
256,192,215081,1,0,0:0:0:0:
256,192,215238,1,8,0:0:0:0:
256,192,215396,1,8,0:0:0:0:
256,192,215554,1,0,0:0:0:0:
256,192,215712,1,8,0:0:0:0:
256,192,215870,1,0,0:0:0:0:
256,192,215949,1,0,0:0:0:0:
256,192,216028,1,0,0:0:0:0:
256,192,216186,1,0,0:0:0:0:
256,192,216344,1,8,0:0:0:0:
256,192,216502,1,8,0:0:0:0:
