osu file format v13

[General]
AudioFilename: 02. 192.mp3
AudioLeadIn: 1083
PreviewTime: 73142
Countdown: 0
SampleSet: Soft
StackLeniency: 0.7
Mode: 0
LetterboxInBreaks: 1
EpilepsyWarning: 1
WidescreenStoryboard: 1

[Editor]
Bookmarks: 110356
DistanceSpacing: 1.1
BeatDivisor: 4
GridSize: 4
TimelineZoom: 1.8

[Metadata]
Title:Hysteria
TitleUnicode:ヒステリ
Artist:nano
ArtistUnicode:ナノ
Creator:theramdans
Version:wendao's Insane
Source:
Tags:nanoir kuwagataP guineaQ Fort wendao2000 Harez Remember your color.
BeatmapID:435991
BeatmapSetID:168662

[Difficulty]
HPDrainRate:6
CircleSize:4
OverallDifficulty:7
ApproachRate:9
SliderMultiplier:1.9
SliderTickRate:1

[Events]
//Background and Video events
0,0,"hysteriabg.jpg",0,0
//Break Periods
2,106070,109185
2,167985,179756
//Storyboard Layer 0 (Background)
//Storyboard Layer 1 (Fail)
//Storyboard Layer 2 (Pass)
//Storyboard Layer 3 (Foreground)
//Storyboard Sound Samples
//Background Colour Transformations
3,100,163,162,255

[TimingPoints]
642,285.714285714286,4,3,1,60,1,0
928,285.714285714286,4,3,1,40,1,0
928,-125,4,3,1,40,0,0
1070,-142.857142857143,4,3,1,35,0,0
1213,-100,4,3,1,50,0,0
1785,-125,4,3,1,40,0,0
2356,-142.857142857143,4,3,1,35,0,0
2928,-166.666666666667,4,3,1,30,0,0
3213,-125,4,3,1,40,0,0
3356,-142.857142857143,4,3,1,35,0,0
3499,-100,4,3,1,50,0,0
4070,-125,4,3,1,40,0,0
4642,-142.857142857143,4,3,1,35,0,0
5213,-166.666666666667,4,3,1,30,0,0
5499,-125,4,3,1,40,0,0
5642,-142.857142857143,4,3,1,35,0,0
5785,-100,4,3,1,50,0,0
6356,-125,4,3,1,40,0,0
6928,-142.857142857143,4,3,1,35,0,0
7499,-166.666666666667,4,3,1,30,0,0
7785,-125,4,3,1,40,0,0
7928,-142.857142857143,4,3,1,35,0,0
8070,-100,4,3,1,50,0,0
8642,-125,4,3,1,40,0,0
9213,-142.857142857143,4,3,1,35,0,0
9785,-166.666666666667,4,3,1,30,0,0
10070,-100,4,3,1,60,0,0
10213,-100,4,3,1,50,0,0
10356,-100,4,3,1,70,0,0
10642,-125,4,3,1,40,0,0
10928,-125,4,3,1,50,0,0
11070,-125,4,3,1,40,0,0
11499,-125,4,3,1,50,0,0
11642,-125,4,3,1,40,0,0
11785,-166.666666666667,4,3,1,50,0,0
11928,-166.666666666667,4,3,1,45,0,0
12070,-166.666666666667,4,3,1,40,0,0
12213,-166.666666666667,4,3,1,35,0,0
12356,-100,4,3,1,60,0,0
12499,-100,4,3,1,50,0,0
12642,-100,4,3,1,80,0,0
12928,-125,4,3,1,40,0,0
13213,-125,4,3,1,50,0,0
13356,-125,4,3,1,40,0,0
13785,-125,4,3,1,50,0,0
13928,-125,4,3,1,40,0,0
14070,-166.666666666667,4,3,1,50,0,0
14213,-166.666666666667,4,3,1,45,0,0
14356,-166.666666666667,4,3,1,40,0,0
14499,-166.666666666667,4,3,1,35,0,0
14642,-100,4,3,1,60,0,0
14785,-100,4,3,1,50,0,0
14928,-100,4,3,1,70,0,0
15213,-125,4,3,1,40,0,0
15499,-125,4,3,1,50,0,0
15642,-125,4,3,1,40,0,0
16070,-125,4,3,1,50,0,0
16213,-125,4,3,1,40,0,0
16356,-166.666666666667,4,3,1,50,0,0
16499,-166.666666666667,4,3,1,45,0,0
16785,-166.666666666667,4,3,1,35,0,0
16928,-100,4,3,1,60,0,0
17070,-100,4,3,1,50,0,0
17213,-100,4,3,1,40,0,0
17356,-100,4,3,1,60,0,0
17499,-100,4,3,1,50,0,0
17642,-100,4,3,1,40,0,0
17785,-100,4,3,1,60,0,0
17928,-100,4,3,1,50,0,0
17999,-100,4,3,1,55,0,0
18070,-100,4,3,1,60,0,0
19213,-100,4,2,1,60,0,0
35213,-90.9090909090909,4,2,1,70,0,0
35499,-83.3333333333333,4,2,1,70,0,0
35785,-76.9230769230769,4,2,1,70,0,0
36213,-100,4,2,1,70,0,0
36642,-100,4,1,1,50,0,0
37499,-125,4,2,1,50,0,0
54642,-100,4,2,1,50,0,0
72928,-166.666666666667,4,2,1,50,0,0
74070,-100,4,1,1,70,0,1
90070,-100,4,1,1,50,0,1
91213,-100,4,1,1,40,0,1
91785,-100,4,1,1,60,0,1
92356,-100,4,1,1,70,0,1
104928,-100,4,1,1,70,0,0
109785,-100,4,1,1,40,0,0
110642,-125,4,2,1,55,0,0
117499,-166.666666666667,4,2,0,55,0,0
118642,-166.666666666667,4,2,1,55,0,0
119785,-100,4,2,1,55,0,0
129999,-100,4,2,1,10,0,0
130070,-166.666666666667,4,2,1,40,0,0
130285,-166.666666666667,4,2,1,10,0,0
130356,-125,4,2,1,40,0,0
130570,-125,4,2,1,10,0,0
130642,-100,4,2,1,40,0,0
130856,-100,4,2,1,10,0,0
130928,-83.3333333333333,4,2,1,40,0,0
131142,-83.3333333333333,4,2,1,10,0,0
131213,-83.3333333333333,4,1,1,70,0,1
131499,-100,4,1,1,70,0,1
147213,-100,4,1,1,50,0,1
148356,-100,4,1,1,40,0,1
148928,-100,4,1,1,60,0,1
149499,-100,4,1,1,70,0,1
162070,-111.111111111111,4,1,1,70,0,1
162356,-125,4,1,1,70,0,1
162642,-142.857142857143,4,1,1,70,0,1
162928,-166.666666666667,4,1,1,70,0,1
163213,-200,4,1,1,70,0,1
167785,-200,4,1,1,70,0,0
170070,-100,4,1,1,70,0,0
180356,-125,4,2,1,55,0,0
180499,-125,4,2,1,40,0,0
180785,-100,4,2,1,55,0,0
180928,-90.9090909090909,4,2,1,40,0,0
181070,-83.3333333333333,4,2,1,50,0,0
181213,-76.9230769230769,4,2,1,60,0,0
181356,-71.4285714285714,4,2,1,70,0,0
181499,-100,4,2,1,55,0,0
189785,-166.666666666667,4,2,1,55,0,0
190070,-125,4,2,1,55,0,0
190642,-100,4,1,1,45,0,0
190928,-100,4,1,1,35,0,0
191213,-100,4,1,1,40,0,0
191499,-100,4,1,1,30,0,0
191642,-100,4,1,1,40,0,0
191713,-100,4,1,1,45,0,0
191785,-100,4,1,1,50,0,0
192356,-90.9090909090909,4,1,1,40,0,0
192428,-83.3333333333333,4,1,1,44,0,0
192499,-76.9230769230769,4,1,1,48,0,0
192570,-71.4285714285714,4,1,1,52,0,0
192642,-66.6666666666667,4,1,1,55,0,0
192713,-62.5,4,1,1,58,0,0
192785,-58.8235294117647,4,1,1,62,0,0
192856,-55.5555555555556,4,1,1,66,0,0
192928,-100,4,1,1,70,0,1
208928,-100,4,1,1,50,0,1
210070,-100,4,1,1,40,0,1
210642,-100,4,1,1,60,0,1
211213,-100,4,1,1,70,0,1
224070,-125,4,1,1,70,0,1
224356,-100,4,1,1,70,0,1
224642,-83.3333333333333,4,1,1,70,0,1
224928,-100,4,2,1,70,0,0
243785,-100,4,2,1,65,0,0
244356,-100,4,2,1,60,0,0
244928,-100,4,2,1,55,0,0
245499,-100,4,2,1,50,0,0
246070,-100,4,2,1,55,0,0
246642,-100,4,2,1,50,0,0
247213,-100,4,2,1,45,0,0
247642,-100,4,2,1,40,0,0

[Colours]
Combo1 : 240,240,90
Combo2 : 240,30,30
Combo3 : 30,240,30
Combo4 : 30,30,240
Combo5 : 240,240,60
Combo6 : 240,90,90
Combo7 : 90,240,90
Combo8 : 90,180,240

[HitObjects]
440,80,642,5,2,0:0:0:0:
424,120,928,70,0,L|432:232,2,76,0|0|8,0:0|0:0|0:1,0:0:0:0:
280,64,1785,1,2,0:2:0:0:
240,80,2356,1,2,0:2:0:0:
192,72,2928,1,2,0:2:0:0:
80,136,3213,6,0,P|64:176|72:240,2,76,0|0|8,0:0|0:0|0:1,0:0:0:0:
200,232,4070,1,2,0:2:0:0:
240,256,4642,1,2,0:2:0:0:
256,304,5213,1,2,0:2:0:0:
376,352,5499,6,0,L|488:360,2,76,0|0|8,0:0|0:0|0:1,0:0:0:0:
480,240,6356,1,2,0:2:0:0:
496,192,6928,1,2,0:2:0:0:
480,144,7499,1,2,0:2:0:0:
368,80,7785,70,0,P|400:48|464:32,2,76,0|0|8,0:0|0:0|0:1,0:0:0:0:
248,184,8642,1,2,0:2:0:0:
252,188,9213,1,2,0:2:0:0:
256,192,9785,1,2,0:2:0:0:
260,196,10070,70,0,L|252:292,2,95,4|0|8,0:0|0:0|0:1,0:0:0:0:
92,156,10642,70,0,P|52:168|4:164,2,76,0|4|8,0:0|0:0|0:1,0:0:0:0:
160,108,11070,2,0,P|232:84|308:92,1,152,0|4,0:0|0:0,0:0:0:0:
368,148,11499,1,8,0:1:0:0:
368,148,11642,1,0,0:0:0:0:
448,100,11785,6,0,L|452:44,1,56.9999982604981,2|0,2:0|0:0,0:0:0:0:
444,244,12070,2,0,L|440:188,1,56.9999982604981,2|0,2:0|0:0,0:0:0:0:
484,316,12356,5,4,0:0:0:0:
364,344,12499,1,0,0:0:0:0:
268,268,12642,1,8,0:1:0:0:
376,72,12928,70,0,L|368:148,2,76,0|4|8,0:0|0:0|0:1,0:0:0:0:
316,12,13356,2,0,P|248:48|220:116,1,152,0|4,0:0|0:0,0:0:0:0:
240,196,13785,1,8,0:1:0:0:
240,196,13928,1,0,0:0:0:0:
164,264,14070,6,0,L|108:260,1,56.9999982604981,2|0,2:0|0:0,0:0:0:0:
256,328,14356,2,0,L|312:324,1,56.9999982604981,2|0,2:0|0:0,0:0:0:0:
432,288,14642,69,4,0:0:0:0:
496,192,14785,1,0,0:0:0:0:
468,80,14928,1,8,0:1:0:0:
284,96,15213,6,0,P|312:140|364:160,2,76,0|4|8,0:0|0:0|0:1,0:0:0:0:
248,20,15642,2,0,P|188:20|116:104,1,152,0|4,0:0|0:0,0:0:0:0:
144,160,16070,2,0,P|156:200|148:256,1,76,8|0,0:1|0:0,0:0:0:0:
116,312,16356,5,2,2:0:0:0:
200,348,16499,1,0,0:0:0:0:
284,284,16642,1,2,2:0:0:0:
372,308,16785,1,0,0:0:0:0:
476,240,16928,70,0,P|492:192|484:144,2,95,8|0|8,0:0|0:0|0:1,0:0:0:0:
352,120,17356,2,0,P|336:168|344:216,2,95,8|0|0,0:0|0:0|0:0,0:0:0:0:
414,180,17785,1,8,0:0:0:0:
360,32,17928,5,0,0:0:0:0:
360,32,17999,1,0,0:0:0:0:
360,32,18070,1,4,0:2:0:0:
248,56,18213,1,0,0:0:0:0:
212,164,18356,1,0,0:0:0:0:
276,260,18499,1,8,0:2:0:0:
276,260,18570,1,8,0:2:0:0:
276,260,18642,2,0,L|372:252,1,95,8|8,0:2|0:2,0:0:0:0:
248,56,18928,2,0,L|152:64,1,95,8|8,0:2|0:2,0:0:0:0:
56,124,19213,70,0,P|108:180|212:164,2,190,4|8|0,3:2|0:0|3:0,0:0:0:0:
80,32,19928,1,2,0:0:0:0:
200,4,20070,1,8,0:0:0:0:
290,89,20213,6,0,P|318:177|276:260,1,190,0|2,3:0|0:0,0:0:0:0:
196,328,20642,2,0,L|104:308,1,95,8|0,0:0|0:0,0:0:0:0:
316,328,20928,2,0,L|408:308,1,95,0|2,3:0|0:0,0:0:0:0:
472,200,21213,6,0,P|372:112|284:128,1,190,8|0,0:0|3:0,0:0:0:0:
236,152,21642,1,2,3:2:0:0:
236,152,21785,2,0,P|128:168|64:96,1,190,8|0,0:0|3:0,0:0:0:0:
100,28,22213,2,0,L|196:32,1,95,2|8,0:0|0:0,0:0:0:0:
332,120,22499,6,0,B|348:168|324:212|324:212|300:256|316:304,1,190,0|2,3:0|0:0,0:0:0:0:
404,344,22928,1,8,0:0:0:0:
404,344,23070,1,0,0:0:0:0:
472,200,23213,2,0,P|472:152|432:104,1,95,0|2,3:0|0:0,0:0:0:0:
268,64,23499,2,0,L|364:72,1,95,8|0,0:0|0:0,0:0:0:0:
388,180,23785,70,0,P|300:204|260:288,1,190,2|8,3:2|0:0,0:0:0:0:
304,372,24213,1,0,0:0:0:0:
395,274,24356,2,0,L|388:180,1,95,0|2,3:0|0:0,0:0:0:0:
380,68,24642,1,8,0:0:0:0:
460,100,24785,6,0,P|384:156|300:100,1,190,0|2,3:0|0:0,0:0:0:0:
216,88,25213,2,0,P|212:40|232:0,1,95,8|0,0:0|0:0,0:0:0:0:
237,181,25499,2,0,P|197:208|152:211,1,95,0|2,3:0|0:0,0:0:0:0:
56,168,25785,1,12,0:0:0:0:
116,348,26070,6,0,P|204:312|296:320,1,190,4|8,3:2|0:0,0:0:0:0:
396,376,26499,1,0,0:0:0:0:
496,324,26642,2,0,P|504:276|488:232,1,95,0|2,3:0|0:0,0:0:0:0:
412,176,26928,1,8,0:0:0:0:
412,176,27070,6,0,P|356:104|380:16,1,190,0|2,3:0|0:0,0:0:0:0:
444,92,27499,2,0,P|440:140|412:176,1,95,8|0,0:0|0:0,0:0:0:0:
304,212,27785,2,0,L|208:200,1,95,0|2,3:0|0:0,0:0:0:0:
112,140,28070,70,0,P|60:216|72:308,2,190,8|4|8,0:0|3:2|0:0,0:0:0:0:
196,92,28785,2,0,P|216:48|212:0,2,95,0|0|2,0:0|3:0|0:0,0:0:0:0:
196,188,29213,2,0,P|224:227|267:247,1,95,8|0,0:0|0:0,0:0:0:0:
356,220,29499,5,0,3:0:0:0:
408,140,29642,1,2,0:0:0:0:
319,43,29785,2,0,P|304:87|312:134,1,95,8|0,0:0|0:0,0:0:0:0:
482,192,30070,2,0,P|452:156|408:140,1,95,0|2,3:0|0:0,0:0:0:0:
273,259,30356,2,0,P|319:250|356:220,1,95,8|0,0:0|0:0,0:0:0:0:
196,188,30642,6,0,P|172:284|244:360,1,190,2|8,3:2|0:0,0:0:0:0:
328,380,31070,1,0,0:0:0:0:
416,316,31213,2,0,P|424:268|412:224,1,95,0|2,3:0|0:0,0:0:0:0:
316,160,31499,1,8,0:0:0:0:
316,160,31642,6,0,P|224:168|160:100,1,190,0|2,3:0|3:2,0:0:0:0:
319,65,32070,2,0,L|316:160,1,95,8|0,0:0|0:0,0:0:0:0:
432,228,32356,2,0,L|435:133,1,95,0|2,3:0|0:0,0:0:0:0:
332,284,32642,2,0,L|328:378,1,95,8|0,0:0|0:0,0:0:0:0:
216,320,32928,70,0,B|172:296|124:316|124:316|92:276|108:228,1,190,2|8,3:2|0:0,0:0:0:0:
144,140,33356,1,0,0:0:0:0:
236,116,33499,2,0,P|256:76|252:24,1,95,0|2,3:0|0:0,0:0:0:0:
210,207,33785,1,8,0:0:0:0:
210,207,33928,6,0,P|296:248|388:240,1,190,0|2,3:0|3:2,0:0:0:0:
424,132,34356,2,0,L|328:136,1,95,8|0,0:0|0:0,0:0:0:0:
484,196,34642,2,0,P|508:112|484:72,1,95,0|2,3:0|0:0,0:0:0:0:
268,72,34928,2,0,P|244:156|268:196,1,95,8|0,0:0|3:0,0:0:0:0:
164,224,35213,70,0,L|60:228,1,104.500003189087,4|0,3:2|0:0,0:0:0:0:
192,296,35499,6,0,L|76:300,1,113.999996520996,4|0,3:2|0:0,0:0:0:0:
220,368,35785,70,0,L|96:372,2,123.499994346619,4|0|0,3:2|0:0|0:0,0:0:0:0:
340,356,36213,70,0,P|396:280|392:188,1,190,12|0,3:2|0:0,0:0:0:0:
328,116,36642,2,0,P|309:72|312:25,1,95,8|0,0:0|3:0,0:0:0:0:
472,12,36928,2,0,P|491:56|488:103,1,95,8|0,0:0|3:0,0:0:0:0:
400,64,37213,1,0,3:0:0:0:
400,64,37356,1,8,0:0:0:0:
400,64,37499,70,0,L|240:92,1,152,0|8,3:0|0:0,0:0:0:0:
168,40,37928,2,0,B|144:76|156:112|156:112|124:136|84:132,1,152,0|0,3:0|3:0,0:0:0:0:
0,100,38356,1,8,0:0:0:0:
64,304,38642,6,0,L|140:296,1,76,0|0,3:0|3:0,0:0:0:0:
212,344,38928,2,0,L|400:340,1,152,8|0,0:0|3:0,0:0:0:0:
444,308,39356,1,0,3:0:0:0:
484,232,39499,2,0,P|488:192|476:160,1,76,8|0,0:0|0:0,0:0:0:0:
388,112,39785,70,0,B|312:128|312:128|244:100,1,152,0|8,3:0|0:0,0:0:0:0:
116,184,40213,2,0,B|156:192|192:172|192:172|260:200,1,152,0|0,3:0|3:0,0:0:0:0:
136,108,40642,2,0,P|60:128|48:224,1,152,8|0,0:0|3:0,0:0:0:0:
64,272,41070,1,0,3:0:0:0:
136,316,41213,6,0,L|212:312,1,76,8|0,0:0|0:0,0:0:0:0:
276,220,41499,2,0,L|200:224,1,76,0|0,3:0|3:0,0:0:0:0:
340,284,41785,2,0,L|416:280,1,76,8|0,0:0|0:0,0:0:0:0:
500,228,42070,6,0,P|488:156|424:120,1,152,0|8,3:0|0:0,0:0:0:0:
340,132,42499,2,0,P|264:140|200:104,1,152,0|0,3:0|3:0,0:0:0:0:
200,20,42928,1,8,0:0:0:0:
364,64,43213,6,0,P|360:104|340:132,1,76,0|0,3:0|3:0,0:0:0:0:
256,148,43499,2,0,L|180:144,1,76,8|0,0:0|0:0,0:0:0:0:
96,159,43785,2,0,P|74:189|71:227,1,76,0|0,3:0|3:0,0:0:0:0:
164,352,44070,70,0,P|192:280|136:208,2,152,8|0|8,0:0|3:0|0:0,0:0:0:0:
108,288,44785,2,0,L|268:272,1,152,0|0,3:0|3:0,0:0:0:0:
344,260,45213,1,8,0:0:0:0:
392,84,45499,6,0,P|404:120|400:160,1,76,0|0,3:0|3:0,0:0:0:0:
316,164,45785,2,0,P|304:128|308:88,1,76,8|0,0:0|3:0,0:0:0:0:
372,36,46070,2,0,L|448:40,1,76,8|8,0:0|0:0,0:0:0:0:
336,212,46356,2,0,L|260:208,1,76,8|8,0:0|0:0,0:0:0:0:
188,164,46642,6,0,P|148:228|152:304,1,152,4|8,3:2|0:0,0:0:0:0:
220,352,47070,2,0,B|296:328|296:376|372:352,1,152,0|0,3:0|3:0,0:0:0:0:
440,308,47499,1,8,0:0:0:0:
392,132,47785,6,0,P|428:120|468:124,2,76,0|0|8,3:0|3:0|0:0,0:0:0:0:
316,168,48213,1,0,0:0:0:0:
240,204,48356,2,0,P|204:216|164:212,1,76,0|0,3:0|3:0,0:0:0:0:
116,128,48642,70,0,B|80:152|72:192|72:192|48:220|8:220,2,152,8|0|8,0:0|3:0|0:0,0:0:0:0:
200,116,49356,2,0,P|280:104|320:48,1,152,0|0,3:0|3:0,0:0:0:0:
224,20,49785,1,8,0:0:0:0:
392,132,50070,6,0,L|388:208,1,76,0|0,3:0|3:0,0:0:0:0:
300,188,50356,2,0,L|315:262,1,76,8|0,0:0|0:0,0:0:0:0:
225,265,50642,2,0,L|259:332,1,76,0|0,3:0|3:0,0:0:0:0:
376,372,50928,6,0,P|432:320|428:240,2,152,8|0|8,0:0|3:0|0:0,0:0:0:0:
263,319,51642,2,0,P|265:245|320:196,1,152,0|0,3:0|3:0,0:0:0:0:
348,284,52070,2,0,L|192:212,1,152,8|0,0:0|3:0,0:0:0:0:
132,172,52499,1,0,3:0:0:0:
108,84,52642,6,0,P|144:72|216:76,1,76,8|0,0:0|0:0,0:0:0:0:
320,196,52928,2,0,P|284:208|212:204,1,76,0|0,3:0|3:0,0:0:0:0:
388,72,53213,2,0,P|416:97|448:161,1,76,8|0,0:0|0:0,0:0:0:0:
456,296,53499,70,0,B|448:336|424:364|424:364|348:356,1,152,0|8,3:0|0:0,0:0:0:0:
256,268,53928,2,0,L|256:116,1,152,0|0,3:0|3:0,0:0:0:0:
164,28,54356,2,0,B|88:20|88:20|64:48|56:88,1,152,8|4,0:0|3:2,0:0:0:0:
92,200,54785,69,0,3:0:0:0:
208,188,54928,2,0,P|212:140|192:100,1,95,8|0,0:0|3:0,0:0:0:0:
172,76,55142,1,0,3:0:0:0:
144,64,55213,2,0,L|48:68,1,95,8|8,0:0|0:0,0:0:0:0:
208,188,55499,2,0,L|304:184,1,95,8|8,0:0|0:0,0:0:0:0:
432,124,55785,6,0,P|476:208|472:300,1,190,6|8,3:2|0:0,0:0:0:0:
372,356,56213,2,0,P|288:308|196:316,1,190,0|2,3:0|3:2,0:0:0:0:
88,344,56642,2,0,B|68:300|68:300|72:252,1,95,8|0,0:0|0:0,0:0:0:0:
191,97,56928,6,0,B|211:141|211:141|208:188,1,95,0|2,3:0|3:2,0:0:0:0:
132,244,57213,1,8,0:0:0:0:
40,228,57356,1,0,0:0:0:0:
97,92,57499,2,0,L|192:96,1,95,0|2,3:0|3:2,0:0:0:0:
288,108,57785,1,8,0:0:0:0:
348,184,57928,1,0,0:0:0:0:
292,324,58070,70,0,P|380:352|456:300,1,190,2|8,3:2|0:0,0:0:0:0:
436,156,58499,2,0,P|348:128|272:180,1,190,0|2,3:0|3:2,0:0:0:0:
364,240,58928,2,0,L|336:40,1,190,8|0,0:0|3:0,0:0:0:0:
256,4,59356,1,2,3:2:0:0:
164,80,59499,6,0,L|72:60,1,95,8|0,0:0|0:0,0:0:0:0:
136,192,59785,2,0,L|40:192,1,95,0|2,3:0|3:2,0:0:0:0:
164,304,60070,2,0,L|72:324,1,95,8|0,0:0|0:0,0:0:0:0:
256,380,60356,6,0,L|444:352,1,190,2|8,3:2|0:0,0:0:0:0:
404,204,60785,2,0,P|312:196|244:260,1,190,0|2,3:0|3:2,0:0:0:0:
472,280,61213,2,0,B|512:244|504:196|504:196|456:144|480:84,1,190,8|0,0:0|3:0,0:0:0:0:
508,20,61642,1,2,3:2:0:0:
380,104,61785,6,0,L|284:96,1,95,8|0,0:0|0:0,0:0:0:0:
216,32,62070,1,0,3:0:0:0:
367,12,62213,2,0,P|383:57|380:104,1,95,2|8,3:2|0:0,0:0:0:0:
312,200,62499,1,0,0:0:0:0:
212,134,62642,70,0,P|289:83|380:104,1,190,2|8,3:2|0:0,0:0:0:0:
411,265,63070,2,0,P|334:316|244:296,1,190,0|2,3:0|3:2,0:0:0:0:
312,200,63499,1,8,0:0:0:0:
419,273,63642,5,0,0:0:0:0:
419,273,63713,1,0,0:0:0:0:
419,273,63785,2,0,L|412:368,1,95,0|2,3:0|3:2,0:0:0:0:
504,188,64070,2,0,L|511:93,1,95,8|0,0:0|0:0,0:0:0:0:
384,24,64356,5,8,0:0:0:0:
288,76,64499,1,0,3:0:0:0:
415,197,64642,1,0,3:0:0:0:
463,99,64785,1,8,0:0:0:0:
307,183,64928,6,0,P|324:272|404:320,1,190,2|8,3:2|0:0,0:0:0:0:
500,312,65356,2,0,P|408:288|324:324,1,190,0|2,3:0|3:2,0:0:0:0:
224,380,65785,2,0,P|132:360|88:280,1,190,8|0,0:0|3:0,0:0:0:0:
100,188,66213,1,2,3:2:0:0:
172,112,66356,70,0,L|264:136,1,95,8|0,0:0|0:0,0:0:0:0:
384,136,66642,2,0,P|412:96|400:16,1,95,0|2,3:0|3:2,0:0:0:0:
324,240,66928,2,0,P|344:284|419:313,1,95,8|0,0:0|0:0,0:0:0:0:
384,136,67213,6,0,P|284:124|204:208,1,190,2|8,3:2|0:0,0:0:0:0:
263,343,67642,2,0,P|363:355|443:271,1,190,0|2,3:0|3:2,0:0:0:0:
324,240,68070,2,0,L|140:284,1,190,8|0,0:0|3:0,0:0:0:0:
48,260,68499,1,2,3:2:0:0:
12,172,68642,6,0,P|16:124|40:84,1,95,8|0,0:0|0:0,0:0:0:0:
168,124,68928,2,0,P|164:172|140:212,1,95,0|2,3:0|3:2,0:0:0:0:
96,28,69213,2,0,L|192:32,1,95,8|0,0:0|0:0,0:0:0:0:
260,100,69499,6,0,P|252:192|304:272,1,190,2|8,3:2|0:0,0:0:0:0:
452,236,69928,2,0,P|460:144|408:64,1,190,0|2,3:0|3:2,0:0:0:0:
300,32,70356,2,0,P|216:76|124:68,1,190,8|0,0:0|3:0,0:0:0:0:
12,40,70785,1,2,3:2:0:0:
12,40,70928,70,0,P|16:88|44:124,1,95,8|0,0:0|0:0,0:0:0:0:
134,151,71213,2,0,L|221:109,1,95,0|2,3:0|3:2,0:0:0:0:
116,248,71499,2,0,L|108:344,1,95,8|0,0:0|0:0,0:0:0:0:
40,184,71785,69,4,3:0:0:0:
252,240,72213,1,4,3:0:0:0:
396,76,72642,1,4,3:0:0:0:
400,80,72928,6,0,L|484:72,1,56.9999982604981,2|2,0:0|0:0,0:0:0:0:
380,188,73213,2,0,L|464:180,1,56.9999982604981,2|2,0:0|0:0,0:0:0:0:
272,132,73499,2,0,L|356:124,1,56.9999982604981,2|2,0:0|0:0,0:0:0:0:
252,240,73785,2,0,L|336:232,1,56.9999982604981,2|2,0:0|0:0,0:0:0:0:
388,288,74070,70,2,P|296:264|220:312,1,190,4|8,0:0|0:0,0:0:0:0:
152,380,74499,2,2,B|100:384|64:352|64:352|92:312|80:260,1,190,2|2,0:2|0:2,0:0:0:0:
32,180,74928,2,2,P|151:218|170:93,1,285,8|2,0:0|0:2,0:0:0:0:
108,148,75499,69,8,0:0:0:0:
252,240,75642,1,0,0:0:0:0:
408,148,75785,2,0,P|424:100|416:48,1,95,2|2,0:2|0:2,0:0:0:0:
300,28,76070,2,0,P|284:76|292:128,1,95,8|0,0:0|0:0,0:0:0:0:
432,272,76356,6,0,L|344:316,1,95,2|0,0:2|0:0,0:0:0:0:
369,100,76642,2,0,L|451:154,1,95,8|0,0:0|0:0,0:0:0:0:
252,240,76928,2,0,L|257:141,1,95,2|2,0:2|0:2,0:0:0:0:
136,84,77213,2,0,L|120:316,1,190,8|2,0:0|0:2,0:0:0:0:
212,356,77642,1,2,0:2:0:0:
328,320,77785,6,0,P|376:320|432:352,1,95,8|0,0:0|0:0,0:0:0:0:
252,240,78070,2,0,P|293:216|358:215,1,95,2|2,0:2|0:2,0:0:0:0:
146,208,78356,2,0,P|170:166|225:133,1,95,8|0,0:0|0:0,0:0:0:0:
336,120,78642,6,2,P|420:160|452:288,1,190,4|8,0:0|0:0,0:0:0:0:
352,340,79070,2,2,P|268:300|236:172,1,190,2|2,0:2|0:2,0:0:0:0:
336,228,79499,2,2,B|324:288|272:332|192:316|192:316|148:264|64:272,1,285,8|2,0:0|0:2,0:0:0:0:
24,316,80070,70,0,P|4:272|0:224,1,95,8|0,0:0|0:0,0:0:0:0:
132,112,80356,2,0,P|152:156|156:204,1,95,2|2,0:2|0:2,0:0:0:0:
32,56,80642,1,8,0:0:0:0:
132,112,80785,1,0,0:0:0:0:
244,80,80928,6,0,L|356:48,1,95,2|0,0:2|0:0,0:0:0:0:
216,192,81213,2,0,L|299:272,1,95,8|0,0:0|0:0,0:0:0:0:
104,222,81499,2,0,L|75:334,1,95,2|2,0:2|0:2,0:0:0:0:
204,368,81785,2,0,P|240:272|216:192,2,190,8|2|8,0:0|0:2|0:0,0:0:0:0:
340,336,82499,1,0,0:0:0:0:
340,336,82642,6,0,P|348:280|336:224,1,95,2|2,0:2|0:2,0:0:0:0:
296,160,82928,2,0,P|290:113|298:66,1,95,8|0,0:0|0:0,0:0:0:0:
440,48,83213,6,2,P|456:144|420:248,1,190,4|8,0:0|0:0,0:0:0:0:
324,296,83642,2,2,L|132:284,1,190,2|2,0:2|0:2,0:0:0:0:
56,140,84070,2,2,P|148:132|216:196,1,190,12|2,0:0|0:2,0:0:0:0:
228,292,84499,1,2,0:2:0:0:
304,352,84642,70,0,L|400:344,1,95,8|0,0:0|0:0,0:0:0:0:
352,208,84928,2,0,L|424:269,1,95,2|2,0:2|0:2,0:0:0:0:
487,140,85213,2,0,L|495:235,1,95,8|0,0:0|0:0,0:0:0:0:
508,48,85499,6,2,P|424:92|332:88,1,190,4|8,0:0|0:0,0:0:0:0:
244,48,85928,2,2,P|152:28|64:84,1,190,2|2,0:2|0:2,0:0:0:0:
48,188,86356,2,2,P|148:176|116:140,1,190,12|2,0:0|0:2,0:0:0:0:
80,340,86785,1,2,0:2:0:0:
168,364,86928,6,0,L|264:356,1,95,8|0,0:0|0:0,0:0:0:0:
304,240,87213,1,2,0:2:0:0:
304,240,87356,2,0,L|208:248,1,95,2|8,0:2|0:0,0:0:0:0:
396,292,87642,6,0,P|392:180|312:132,1,190,4|2,0:0|0:2,0:0:0:0:
240,132,88070,2,0,P|148:156|64:100,1,190,8|2,0:0|0:2,0:0:0:0:
112,12,88499,2,0,L|208:16,1,95,2|8,0:2|0:0,0:0:0:0:
332,96,88785,70,0,B|348:144|324:188|324:188|300:232|316:280,1,190,4|2,0:0|0:2,0:0:0:0:
408,348,89213,2,0,P|320:312|228:324,1,190,8|2,0:0|0:2,0:0:0:0:
136,352,89642,1,2,0:2:0:0:
64,288,89785,1,8,0:0:0:0:
76,192,89928,1,0,0:0:0:0:
156,136,90070,70,0,L|252:140,1,95,2|0,0:2|3:0,0:0:0:0:
356,248,90356,2,0,L|260:244,1,95,8|2,3:1|0:2,0:0:0:0:
332,64,90642,2,0,L|328:160,1,95,8|0,3:1|3:0,0:0:0:0:
180,320,90928,2,0,L|184:224,1,95,2|8,0:2|3:1,0:0:0:0:
156,136,91213,5,2,3:2:0:0:
76,192,91356,1,2,3:2:0:0:
134,60,91499,1,8,3:1:0:0:
97,267,91642,1,2,3:2:0:0:
64,23,91785,6,0,P|48:68|52:116,1,95,8|8,0:0|0:0,0:0:0:0:
167,304,92070,2,0,L|264:292,1,95,8|8,0:0|0:0,0:0:0:0:
396,184,92356,6,2,P|320:132|232:156,1,190,4|8,0:0|0:0,0:0:0:0:
164,224,92785,2,2,B|136:264|148:316|148:316|112:344|60:336,1,190,2|2,0:2|0:2,0:0:0:0:
0,264,93213,2,2,B|56:224|132:248|148:316|148:316|188:352|240:348,1,285,8|2,0:0|0:2,0:0:0:0:
356,268,93785,6,0,L|360:172,1,95,8|0,0:0|0:0,0:0:0:0:
296,104,94070,1,2,0:2:0:0:
204,124,94213,1,2,0:2:0:0:
264,255,94356,2,0,P|309:271|356:268,1,95,8|0,0:0|0:0,0:0:0:0:
236,32,94642,6,0,P|191:15|144:19,1,95,2|0,0:2|0:0,0:0:0:0:
114,143,94928,2,0,P|156:123|204:124,1,95,8|0,0:0|0:0,0:0:0:0:
222,219,95213,2,0,P|176:234|143:267,1,95,2|2,0:2|0:2,0:0:0:0:
256,384,95499,2,0,P|324:324|304:208,1,190,8|2,0:0|0:2,0:0:0:0:
280,144,95928,1,2,0:2:0:0:
352,56,96070,6,0,L|448:48,1,95,8|0,0:0|0:0,0:0:0:0:
401,152,96356,2,0,L|496:160,1,95,2|2,0:2|0:2,0:0:0:0:
368,272,96642,2,0,L|464:264,1,95,8|0,0:0|0:0,0:0:0:0:
512,376,96928,70,2,L|320:360,1,190,4|8,0:0|0:0,0:0:0:0:
208,328,97356,2,2,P|160:244|176:156,1,190,2|2,0:2|0:2,0:0:0:0:
292,100,97785,2,2,P|248:224|96:236,1,285,8|2,0:0|0:2,0:0:0:0:
32,188,98356,6,0,L|36:92,1,95,8|0,0:0|0:0,0:0:0:0:
152,48,98642,2,0,L|148:144,1,95,2|2,0:2|0:2,0:0:0:0:
28,315,98928,6,0,P|119:295|208:328,1,190,8|4,0:0|0:0,0:0:0:0:
284,384,99356,1,2,0:2:0:0:
372,360,99499,2,0,P|416:276|404:184,2,190,8|2|8,0:0|0:2|0:0,0:0:0:0:
284,384,100213,1,0,0:0:0:0:
172,332,100356,6,0,P|124:328|80:344,1,95,2|2,0:2|0:2,0:0:0:0:
236,266,100642,2,0,L|193:150,1,95,8|8,0:0|0:0,0:0:0:0:
324,266,100928,2,0,P|355:229|397:209,2,95,2|2|8,0:2|0:2|0:0,0:0:0:0:
260,88,101499,70,2,P|196:152|104:132,1,190,4|8,0:0|0:0,0:0:0:0:
40,64,101928,2,2,B|0:100|12:152|12:152|44:188|36:240,1,190,2|2,0:2|0:2,0:0:0:0:
8,328,102356,2,2,P|100:352|196:344,1,190,12|2,0:0|0:2,0:0:0:0:
264,260,102785,1,2,0:2:0:0:
220,160,102928,2,0,L|124:164,1,95,8|0,0:0|0:0,0:0:0:0:
280,68,103213,5,2,0:2:0:0:
388,84,103356,1,2,0:2:0:0:
440,180,103499,1,8,0:0:0:0:
424,288,103642,1,0,0:0:0:0:
336,352,103785,6,2,L|241:348,1,95,2|0,0:2|0:2,0:0:0:0:
312,224,104070,2,2,L|227:267,1,95,2|0,0:2|0:2,0:0:0:0:
227,125,104356,2,2,L|175:204,1,95,2|0,0:2|0:2,0:0:0:0:
104,80,104642,2,2,L|100:174,1,95,2|0,0:2|0:2,0:0:0:0:
92,341,104928,69,2,0:2:0:0:
92,344,109785,5,0,0:0:0:0:
96,348,110070,1,0,0:0:0:0:
100,352,110356,1,0,0:0:0:0:
104,356,110642,70,0,P|180:360|248:328,1,152,0|8,3:0|0:0,0:0:0:0:
280,244,111070,2,0,B|288:208|264:172|264:172|288:140|328:136,1,152,0|0,3:0|3:0,0:0:0:0:
416,160,111499,2,0,P|348:128|340:56,1,152,8|0,0:0|0:0,0:0:0:0:
440,12,111928,1,0,3:2:0:0:
440,12,112070,6,0,P|440:52|420:80,1,76,8|0,0:0|0:0,0:0:0:0:
256,120,112356,2,0,L|180:116,1,76,0|0,3:0|3:2,0:0:0:0:
128,260,112642,2,0,L|204:264,1,76,8|0,0:0|0:0,0:0:0:0:
284,216,112928,6,0,P|331:274|343:348,1,152,0|8,3:0|0:0,0:0:0:0:
272,324,113356,2,0,P|330:276|404:264,1,152,0|0,3:0|3:0,0:0:0:0:
476,316,113785,2,0,P|508:248|492:176,1,152,8|0,0:0|0:0,0:0:0:0:
412,124,114213,1,0,3:2:0:0:
308,160,114356,70,0,P|268:156|240:136,1,76,8|0,0:0|0:0,0:0:0:0:
280,32,114642,2,0,P|320:36|348:56,1,76,0|0,3:0|3:2,0:0:0:0:
380,204,114928,2,0,L|376:280,1,76,8|0,0:0|0:0,0:0:0:0:
288,352,115213,6,0,P|216:376|140:368,1,152,0|8,3:0|0:0,0:0:0:0:
120,192,115642,2,0,P|192:168|268:176,1,152,0|0,3:0|3:0,0:0:0:0:
204,272,116070,2,0,L|184:88,1,152,8|0,0:0|0:0,0:0:0:0:
276,48,116499,1,0,3:2:0:0:
276,48,116642,6,0,L|265:140,1,76,8|0,0:0|0:0,0:0:0:0:
120,192,116928,2,0,L|109:100,1,76,0|0,3:0|3:2,0:0:0:0:
256,208,117214,1,8,3:1:0:0:
244,302,117356,1,0,0:0:0:0:
340,364,117499,6,0,P|416:328|500:340,2,170.999994781494,2|2|2,0:0|0:0|0:0,0:0:0:0:
256,192,118642,12,8,119499,0:0:0:0:
48,152,119785,6,0,B|72:196|56:244|56:244|40:292|64:336,1,190,6|8,3:2|0:0,0:0:0:0:
144,284,120213,2,0,P|232:248|324:256,1,190,0|2,3:0|3:2,0:0:0:0:
416,284,120642,2,0,B|472:280|492:236|492:236|496:140,1,190,8|0,0:0|0:0,0:0:0:0:
452,52,121070,1,2,3:2:0:0:
358,27,121213,6,0,L|262:23,1,95,8|0,0:0|0:0,0:0:0:0:
404,112,121499,2,0,L|333:177,1,95,0|2,3:0|3:2,0:0:0:0:
496,140,121785,2,0,L|492:236,1,95,8|0,0:0|0:0,0:0:0:0:
416,320,122070,6,0,P|336:272|240:280,1,190,2|8,3:2|0:0,0:0:0:0:
151,304,122499,2,0,P|67:267|35:180,1,190,0|2,3:0|3:2,0:0:0:0:
40,84,122928,2,0,B|88:84|120:132|120:132|168:140|212:120,1,190,8|0,0:0|0:0,0:0:0:0:
292,72,123356,1,2,3:2:0:0:
373,139,123499,6,0,P|389:183|385:231,1,95,8|0,0:0|0:0,0:0:0:0:
300,156,123785,2,0,P|280:198|243:229,1,95,0|2,3:0|3:2,0:0:0:0:
236,116,124070,2,12,P|192:132|144:128,1,95,8|0,0:0|0:0,0:0:0:0:
40,84,124356,70,0,B|16:120|36:160|36:160|52:184|52:184|72:224|48:260,1,190,2|8,3:2|0:0,0:0:0:0:
8,348,124785,2,0,P|100:368|180:324,1,190,0|2,3:0|3:2,0:0:0:0:
268,360,125213,2,0,P|352:320|444:336,1,190,8|0,0:0|0:0,0:0:0:0:
488,208,125642,1,2,3:2:0:0:
488,208,125785,6,0,L|392:204,1,95,8|0,0:0|0:0,0:0:0:0:
309,159,126070,1,0,0:0:0:0:
205,256,126213,1,2,3:2:0:0:
292,246,126356,1,8,3:1:0:0:
236,116,126499,1,0,0:0:0:0:
168,176,126642,69,4,3:0:0:0:
292,246,127070,1,4,3:0:0:0:
431,220,127499,1,4,3:0:0:0:
431,220,128070,70,0,L|515:277,1,95,8|0,0:0|0:0,0:0:0:0:
367,262,128356,2,0,L|385:362,1,95,8|0,0:0|0:0,0:0:0:0:
292,246,128642,2,0,L|234:330,1,95,8|0,0:0|0:0,0:0:0:0:
348,164,128928,5,2,0:2:0:0:
188,220,129356,1,2,0:2:0:0:
60,108,129785,2,0,P|124:76|192:84,1,142.5,2|0,3:2|0:0,0:0:0:0:
216,100,130070,6,2,P|256:112|296:100,1,85.4999973907472,2|0,1:0|0:0,0:0:0:0:
312,160,130356,6,2,P|256:176|200:160,1,114,2|0,1:0|0:0,0:0:0:0:
188,220,130642,70,2,P|256:240|324:220,1,142.5,2|0,1:0|0:0,0:0:0:0:
340,284,130928,70,2,P|256:304|172:284,1,170.999994781494,2|0,1:0|0:0,0:0:0:0:
148,239,131213,6,2,P|255:208|363:239,1,227.999993041992,4|8,0:0|0:0,0:0:0:0:
432,308,131642,1,2,0:2:0:0:
504,220,131785,2,0,L|508:124,1,95,0|2,0:0|0:2,0:0:0:0:
371,50,132070,2,2,L|364:240,1,190,8|0,0:0|0:0,0:0:0:0:
432,308,132499,1,2,0:2:0:0:
504,220,132642,6,0,L|507:122,1,95,8|0,0:0|0:0,0:0:0:0:
371,50,132928,2,0,L|368:148,1,95,2|2,0:2|0:2,0:0:0:0:
232,216,133213,2,0,L|236:120,1,95,8|0,0:0|0:0,0:0:0:0:
108,32,133499,6,0,P|96:76|100:128,1,95,2|0,0:2|0:0,0:0:0:0:
137,219,133785,2,0,L|232:216,1,95,8|0,0:0|0:0,0:0:0:0:
364,180,134070,2,0,P|284:224|272:316,1,190,2|8,0:2|0:0,0:0:0:0:
352,368,134499,1,0,0:0:0:0:
448,304,134642,70,0,L|452:208,1,95,2|2,0:2|0:2,0:0:0:0:
269,176,134928,2,0,L|364:180,1,95,8|0,0:0|0:0,0:0:0:0:
184,51,135213,2,0,L|180:145,1,95,2|2,0:2|0:2,0:0:0:0:
324,96,135499,2,0,L|327:1,1,95,8|0,0:0|0:0,0:0:0:0:
108,24,135785,6,2,P|64:108|72:200,1,190,4|8,0:0|0:0,0:0:0:0:
204,280,136213,2,2,P|248:196|240:104,1,190,2|2,0:2|0:2,0:0:0:0:
112,296,136642,2,2,B|184:276|248:320|248:320|312:364|384:344,1,285,8|2,0:0|0:2,0:0:0:0:
460,288,137213,1,8,0:0:0:0:
348,160,137356,6,0,P|328:204|332:252,1,95,0|2,0:0|0:2,0:0:0:0:
448,96,137642,1,2,0:2:0:0:
448,96,137785,2,0,P|419:56|376:36,1,95,8|0,0:0|0:0,0:0:0:0:
212,84,138070,6,0,B|232:96|256:100|256:100|280:96|300:84,1,95,2|0,0:2|0:0,0:0:0:0:
133,36,138356,2,0,P|91:57|64:96,1,95,8|0,0:0|0:0,0:0:0:0:
228,173,138642,2,0,P|231:126|212:84,1,95,2|2,0:2|0:2,0:0:0:0:
61,187,138928,2,0,P|101:213|148:218,1,95,8|0,0:0|0:0,0:0:0:0:
140,132,139213,69,2,0:2:0:0:
92,244,139356,1,2,0:2:0:0:
176,332,139499,2,0,L|273:328,1,95,8|0,0:0|0:0,0:0:0:0:
140,132,139785,2,0,L|43:136,1,95,2|2,0:2|0:2,0:0:0:0:
268,208,140070,2,0,L|365:204,1,95,8|0,0:0|0:0,0:0:0:0:
464,76,140356,6,2,B|440:120|456:168|456:168|472:216|448:260,1,190,4|8,0:0|0:0,0:0:0:0:
336,332,140785,2,2,B|308:296|256:284|256:284|204:296|176:332,1,190,2|2,0:2|0:2,0:0:0:0:
64,260,141213,2,2,B|40:216|56:168|56:168|72:120|48:76,1,190,12|2,0:0|0:2,0:0:0:0:
152,16,141642,1,2,0:2:0:0:
220,172,141785,6,0,P|180:196|88:192,1,95,8|0,0:0|0:0,0:0:0:0:
100,184,141999,1,0,0:0:0:0:
80,152,142070,1,2,0:2:0:0:
152,16,142213,1,2,0:2:0:0:
300,60,142356,2,0,P|348:64|392:48,1,95,8|0,0:0|0:0,0:0:0:0:
496,132,142642,6,2,P|404:148|360:228,1,190,4|8,0:0|0:0,0:0:0:0:
444,304,143070,2,2,B|356:268|356:268|260:276,1,190,2|2,0:2|0:2,0:0:0:0:
152,312,143499,2,2,B|56:304|56:304|16:272|12:216|28:164|80:152,1,285,12|2,0:0|0:2,0:0:0:0:
196,164,144070,70,0,L|292:180,1,95,8|0,0:0|0:0,0:0:0:0:
336,64,144356,1,2,0:2:0:0:
336,64,144499,2,0,L|240:48,1,95,2|8,0:2|0:0,0:0:0:0:
419,151,144785,6,0,P|467:231|443:321,1,190,4|2,0:0|0:2,0:0:0:0:
268,344,145213,2,0,P|220:264|244:174,1,190,8|2,0:0|0:2,0:0:0:0:
344,248,145642,1,2,0:2:0:0:
344,248,145785,1,8,0:0:0:0:
344,248,145928,6,0,L|155:272,1,190,4|2,0:0|0:2,0:0:0:0:
108,88,146356,2,0,L|296:63,1,190,8|2,0:0|0:2,0:0:0:0:
392,108,146785,1,2,0:2:0:0:
436,204,146928,1,8,0:0:0:0:
404,304,147070,1,0,0:0:0:0:
308,348,147213,70,0,L|216:328,1,95,2|0,3:2|3:0,0:0:0:0:
236,152,147499,2,0,L|264:241,1,95,8|2,3:1|3:2,0:0:0:0:
102,312,147785,2,0,L|165:242,1,95,8|0,3:1|3:0,0:0:0:0:
308,348,148070,2,0,L|216:328,1,95,2|8,3:2|3:1,0:0:0:0:
88,188,148356,69,4,3:0:0:0:
56,88,148499,1,2,3:2:0:0:
236,152,148642,1,8,3:1:0:0:
268,52,148785,1,0,3:0:0:0:
400,216,148928,6,0,L|388:112,1,95,8|8,0:0|0:0,0:0:0:0:
500,276,149213,2,0,L|512:172,1,95,8|8,0:0|0:0,0:0:0:0:
424,352,149499,70,2,P|340:308|248:312,1,190,4|8,0:0|0:0,0:0:0:0:
136,340,149928,2,2,P|48:320|20:232,1,190,2|2,0:2|0:2,0:0:0:0:
104,128,150356,2,2,B|264:96|216:208|376:176,1,285,8|2,0:0|0:2,0:0:0:0:
324,0,150928,6,0,P|308:44|312:92,1,95,8|0,0:0|0:0,0:0:0:0:
424,352,151213,2,0,P|440:308|436:260,1,95,2|2,0:2|0:2,0:0:0:0:
376,176,151499,2,0,L|280:184,1,95,8|0,0:0|0:0,0:0:0:0:
192,132,151785,70,0,P|176:87|180:40,1,95,2|0,0:2|0:0,0:0:0:0:
124,192,152070,2,0,L|28:192,1,95,8|0,0:0|0:0,0:0:0:0:
192,252,152356,2,0,P|176:296|180:343,1,95,2|2,0:2|0:2,0:0:0:0:
256,192,152642,2,0,B|348:160|348:224|444:192,1,190,8|2,0:0|0:2,0:0:0:0:
396,100,153070,1,2,0:2:0:0:
396,100,153213,6,0,L|412:4,1,95,8|0,0:0|0:0,0:0:0:0:
304,116,153499,2,0,L|247:36,1,95,2|2,0:2|0:2,0:0:0:0:
256,192,153785,2,0,L|160:176,1,95,8|0,0:0|0:0,0:0:0:0:
84,312,154070,6,2,L|276:344,1,190,4|8,0:0|0:0,0:0:0:0:
376,328,154499,2,2,P|432:252|416:164,1,190,2|2,0:2|0:2,0:0:0:0:
320,100,154928,2,2,P|184:140|72:64,1,285,8|2,0:0|0:2,0:0:0:0:
192,0,155499,6,0,P|208:44|204:92,1,95,8|0,0:0|0:0,0:0:0:0:
104,232,155785,2,0,P|88:188|92:140,1,95,2|2,0:2|0:2,0:0:0:0:
288,44,156070,2,0,L|384:52,1,95,8|0,0:0|0:0,0:0:0:0:
472,156,156356,70,0,L|464:252,1,95,2|0,0:2|0:0,0:0:0:0:
320,278,156642,2,0,L|328:184,1,95,8|0,0:0|0:0,0:0:0:0:
182,210,156928,2,0,L|175:305,1,95,2|2,0:2|0:2,0:0:0:0:
80,168,157213,6,0,P|172:164|228:92,1,190,8|2,0:0|0:2,0:0:0:0:
120,0,157642,1,2,0:2:0:0:
120,0,157785,2,0,B|116:52|116:52|132:92,1,95,8|0,0:0|0:0,0:0:0:0:
224,236,158070,2,0,L|320:228,1,95,2|2,0:2|0:2,0:0:0:0:
352,40,158356,2,0,L|256:48,1,95,8|0,0:0|0:0,0:0:0:0:
104,256,158642,6,2,P|160:340|252:352,1,190,4|8,0:0|0:0,0:0:0:0:
332,300,159070,2,2,B|376:276|424:288|424:288|456:252|448:200,1,190,2|2,0:2|0:2,0:0:0:0:
352,124,159499,2,2,B|284:168|216:120|208:60|208:60|156:76|148:128,1,285,8|2,0:0|0:2,0:0:0:0:
64,108,160070,6,0,P|66:160|92:193,1,95,8|0,0:0|0:0,0:0:0:0:
32,255,160356,2,0,P|73:279|120:274,1,95,2|2,0:2|0:2,0:0:0:0:
144,355,160642,2,0,P|187:327|204:287,1,95,8|0,0:0|0:0,0:0:0:0:
180,196,160928,70,0,P|204:108|292:72,1,190,2|8,0:2|0:0,0:0:0:0:
376,136,161356,1,0,0:2:0:0:
376,244,161499,2,0,L|360:340,1,95,2|2,0:2|0:2,0:0:0:0:
232,268,161785,2,0,L|248:364,1,95,8|0,0:0|0:2,0:0:0:0:
115,208,162070,69,2,0:2:0:0:
95,96,162213,1,2,0:2:0:0:
189,152,162356,1,8,0:0:0:0:
207,52,162499,1,8,0:0:0:0:
280,126,162642,1,8,0:0:0:0:
327,48,162785,1,8,0:0:0:0:
376,136,162928,1,8,0:0:0:0:
441,85,163070,1,8,0:0:0:0:
452,166,163213,1,4,0:0:0:0:
256,192,163356,12,4,167785,0:1:0:0:
416,112,180356,6,0,L|408:208,1,76,8|8,0:0|0:0,0:0:0:0:
432,180,180785,70,0,L|424:276,1,95,8|8,0:0|0:0,0:0:0:0:
356,340,181070,1,8,0:0:0:0:
244,360,181213,1,8,0:0:0:0:
132,288,181356,1,8,0:0:0:0:
120,136,181499,70,0,P|212:144|272:216,2,190,6|8|0,3:2|0:0|3:0,0:0:0:0:
60,40,182213,2,0,L|156:36,1,95,2|8,3:2|0:0,0:0:0:0:
360,92,182499,6,0,B|336:136|352:184|352:184|368:232|344:276,1,190,2|2,3:2|3:2,0:0:0:0:
260,320,182928,2,0,L|164:312,1,95,8|8,0:0|0:0,0:0:0:0:
120,136,183213,2,0,L|216:144,1,95,0|2,3:0|3:2,0:0:0:0:
328,232,183499,6,0,P|388:164|376:72,2,190,8|2|8,0:0|3:2|0:0,0:0:0:0:
216,192,184213,1,0,0:0:0:0:
116,264,184356,2,0,P|112:312|132:352,2,95,0|2|8,3:0|3:2|0:0,0:0:0:0:
148,144,184785,6,0,P|116:72|64:136,1,190,2|2,3:2|3:2,0:0:0:0:
116,264,185213,2,0,L|256:260,1,95,8|8,0:0|0:0,0:0:0:0:
328,232,185499,1,0,3:0:0:0:
296,348,185642,1,2,3:2:0:0:
412,317,185785,2,0,P|448:252|436:196,1,95,8|0,0:0|0:0,0:0:0:0:
384,132,186070,70,0,P|296:148|228:84,1,190,6|8,3:2|0:0,0:0:0:0:
324,48,186499,1,0,0:0:0:0:
472,112,186642,2,0,L|464:208,1,95,0|2,3:0|3:2,0:0:0:0:
376,288,186928,1,8,0:0:0:0:
256,252,187071,6,0,P|164:244|96:308,1,190,2|2,3:2|3:2,0:0:0:0:
196,332,187499,2,0,P|164:245|77:210,1,190,8|0,0:0|3:0,0:0:0:0:
4,136,187928,1,2,3:2:0:0:
124,4,188070,2,0,L|116:100,1,95,8|0,0:0|0:0,0:0:0:0:
96,308,188356,6,0,P|40:316|-1:355,1,95,2|0,3:2|0:0,0:0:0:0:
208,372,188642,2,0,P|263:363|305:324,1,95,8|0,0:0|0:0,0:0:0:0:
312,240,188928,1,0,3:0:0:0:
312,240,189070,1,2,3:2:0:0:
236,180,189213,6,0,P|216:232|228:288,1,95,8|0,0:0|0:0,0:0:0:0:
388,300,189499,2,0,P|408:248|396:192,1,95,0|0,3:0|3:2,0:0:0:0:
339,112,189785,6,0,L|329:158,2,28.4999991302491,2|2|2,3:2|3:2|3:2,0:0:0:0:
276,62,190070,2,0,L|208:97,1,76,8|8,0:0|0:0,0:0:0:0:
416,95,190356,2,0,L|462:155,1,76,8|8,0:0|0:0,0:0:0:0:
360,20,190642,5,2,0:2:0:0:
136,80,190928,1,2,0:2:0:0:
340,160,191213,1,2,0:2:0:0:
156,220,191499,1,2,0:2:0:0:
256,252,191642,5,0,0:0:0:0:
256,252,191713,1,0,0:0:0:0:
256,252,191785,2,0,L|264:348,1,95,8|8,0:0|0:0,0:0:0:0:
340,160,192070,2,0,L|332:64,1,95,8|8,0:0|0:0,0:0:0:0:
216,16,192356,69,8,0:0:0:0:
185,26,192428,1,0,0:0:0:0:
158,44,192499,1,8,0:0:0:0:
137,69,192570,1,0,0:0:0:0:
123,99,192642,1,8,0:0:0:0:
119,131,192713,1,0,0:0:0:0:
122,163,192785,1,8,0:0:0:0:
135,194,192856,1,0,0:0:0:0:
156,220,192928,70,2,P|244:196|324:244,1,190,4|8,0:0|0:0,0:0:0:0:
372,348,193356,2,2,P|436:280|420:180,1,190,2|2,0:2|0:2,0:0:0:0:
276,140,193785,2,2,P|212:208|228:308,1,190,8|0,0:0|0:0,0:0:0:0:
320,244,194213,1,2,0:2:0:0:
356,156,194356,6,0,L|396:56,1,95,8|0,0:0|0:0,0:0:0:0:
291,10,194642,2,0,L|279:109,1,95,2|2,0:2|0:2,0:0:0:0:
193,144,194928,2,0,L|180:50,1,95,8|0,0:0|0:0,0:0:0:0:
76,148,195213,6,0,B|80:196|120:232|120:232|96:248|88:272,1,142.5,2|0,0:2|2:0,0:0:0:0:
96,312,195499,2,0,L|188:292,1,95,8|0,0:0|0:0,0:0:0:0:
284,228,195785,2,0,P|288:180|264:140,1,95,2|2,0:2|0:2,0:0:0:0:
296,336,196070,2,0,P|389:330|453:262,1,190,8|0,0:0|0:0,0:0:0:0:
456,172,196499,1,2,0:2:0:0:
376,108,196642,6,0,P|368:60|384:16,1,95,8|0,0:0|0:0,0:0:0:0:
456,172,196928,2,0,P|418:202|372:211,1,95,2|2,0:2|0:2,0:0:0:0:
280,188,197213,1,8,0:0:0:0:
232,104,197356,1,0,0:0:0:0:
376,108,197499,70,2,L|368:300,1,190,4|8,0:0|0:0,0:0:0:0:
276,352,197928,2,2,P|208:288|116:292,1,190,2|2,0:2|0:2,0:0:0:0:
60,184,198356,2,2,P|232:104|228:36,1,285,8|2,0:0|0:2,0:0:0:0:
148,96,198928,6,0,L|156:192,1,95,8|0,0:0|0:0,0:0:0:0:
287,282,199213,2,0,L|280:188,1,95,2|2,0:2|0:2,0:0:0:0:
228,352,199499,2,0,P|292:320|360:328,1,142.5,8|0,0:0|2:0,0:0:0:0:
404,348,199785,6,0,B|452:344|452:344|492:316,1,95,2|0,0:2|0:0,0:0:0:0:
456,200,200070,2,0,B|408:204|408:204|368:232,1,95,8|0,0:0|0:0,0:0:0:0:
287,282,200356,2,0,L|191:278,1,95,2|2,0:2|0:2,0:0:0:0:
184,144,200642,2,0,L|280:148,1,95,8|0,0:0|0:0,0:0:0:0:
316,140,200856,1,2,0:2:0:0:
352,108,200928,6,0,P|368:64|364:16,1,95,2|2,0:2|0:2,0:0:0:0:
196,52,201213,2,0,P|180:97|184:144,1,95,8|0,0:0|0:0,0:0:0:0:
287,282,201499,2,0,P|303:238|299:190,1,95,2|2,0:2|0:2,0:0:0:0:
131,226,201785,2,0,P|114:270|118:317,1,95,8|0,0:0|0:0,0:0:0:0:
260,372,202070,70,2,L|480:344,1,190,4|8,0:0|0:0,0:0:0:0:
492,252,202499,2,2,P|424:188|328:192,1,190,2|2,0:2|0:2,0:0:0:0:
222,224,202928,2,2,P|132:228|68:68,1,285,12|2,0:0|0:2,0:0:0:0:
160,16,203499,2,0,L|256:20,1,95,8|0,0:0|0:0,0:0:0:0:
340,96,203785,5,2,0:2:0:0:
340,96,203856,1,2,0:2:0:0:
340,96,203928,1,2,0:2:0:0:
456,56,204070,1,8,0:0:0:0:
432,176,204213,1,0,0:0:0:0:
316,215,204356,6,2,P|224:196|148:248,1,190,4|8,0:0|0:0,0:0:0:0:
376,337,204785,2,2,P|438:268|432:176,1,190,2|2,0:2|0:2,0:0:0:0:
340,96,205213,2,2,L|148:104,1,190,12|0,0:0|0:0,0:0:0:0:
52,180,205642,1,2,0:2:0:0:
176,316,205785,6,0,P|184:268|166:226,1,95,8|0,0:0|0:0,0:0:0:0:
8,284,206070,1,2,0:2:0:0:
8,284,206142,1,2,0:2:0:0:
8,284,206213,2,0,L|102:280,1,95,2|8,0:2|0:0,0:0:0:0:
304,264,206499,70,0,P|356:187|340:96,1,190,4|0,0:0|0:0,0:0:0:0:
192,64,206928,2,0,P|139:140|155:231,1,190,8|0,0:0|0:0,0:0:0:0:
248,164,207356,1,2,0:2:0:0:
248,164,207499,1,8,0:0:0:0:
248,164,207642,6,0,L|464:212,1,190,4|0,0:0|0:0,0:0:0:0:
472,52,208070,2,0,L|256:4,1,190,8|0,0:0|0:0,0:0:0:0:
192,64,208499,1,2,0:2:0:0:
248,164,208642,2,0,P|260:208|256:256,1,95,8|0,0:0|0:0,0:0:0:0:
180,316,208928,70,0,L|88:296,1,95,2|0,0:2|3:0,0:0:0:0:
332,316,209213,2,0,L|424:296,1,95,8|2,3:1|3:2,0:0:0:0:
188,264,209499,2,0,L|96:244,1,95,8|0,3:1|3:0,0:0:0:0:
324,264,209785,2,0,L|416:244,1,95,2|8,3:2|3:1,0:0:0:0:
176,104,210070,6,0,P|160:148|164:196,1,95,4|2,3:0|3:2,0:0:0:0:
348,195,210356,2,0,P|352:148|336:104,1,95,8|2,3:1|3:2,0:0:0:0:
256,160,210642,6,0,L|256:256,1,95,8|8,0:0|0:0,0:0:0:0:
428,172,210928,2,0,L|428:76,1,95,8|8,0:0|0:0,0:0:0:0:
176,104,211213,6,2,P|124:184|132:276,1,190,4|8,0:0|0:0,0:0:0:0:
196,344,211642,2,2,L|388:336,1,190,2|2,0:2|0:2,0:0:0:0:
480,328,212070,2,2,P|485:232|432:157,1,190,8|0,0:0|0:0,0:0:0:0:
332,124,212499,1,2,0:2:0:0:
260,200,212642,6,0,P|212:204|168:192,1,95,8|0,0:0|0:0,0:0:0:0:
184,16,212928,2,0,P|211:55|223:99,1,95,2|2,0:2|0:2,0:0:0:0:
62,173,213213,2,0,P|82:129|114:97,1,95,8|0,0:0|0:0,0:0:0:0:
292,24,213499,6,0,L|388:28,1,95,2|0,0:2|0:0,0:0:0:0:
464,136,213785,2,0,L|368:140,1,95,8|0,0:0|0:0,0:0:0:0:
288,256,214070,2,0,L|384:260,1,95,2|2,0:2|0:2,0:0:0:0:
476,380,214356,2,0,L|380:384,1,95,8|0,0:0|0:0,0:0:0:0:
256,340,214642,69,2,0:2:0:0:
256,340,214713,1,2,0:2:0:0:
256,340,214785,1,0,0:0:0:0:
188,228,214928,2,0,P|216:176|260:156,1,95,8|0,0:0|0:0,0:0:0:0:
125,342,215213,2,0,P|65:343|26:315,1,95,2|2,0:2|0:2,0:0:0:0:
104,156,215499,2,0,L|96:252,1,95,8|0,0:0|0:0,0:0:0:0:
76,68,215785,6,2,B|100:56|136:60|164:84|164:84|192:108|228:112|252:100,1,190,4|8,0:0|0:0,0:0:0:0:
336,56,216213,2,2,P|316:148|384:144,1,190,2|2,0:2|0:2,0:0:0:0:
464,92,216642,2,2,L|472:284,1,190,8|0,0:0|0:0,0:0:0:0:
376,344,217070,1,2,0:2:0:0:
276,292,217213,6,0,P|280:244|304:204,1,95,8|0,0:0|0:0,0:0:0:0:
188,332,217499,2,0,P|144:352|97:351,1,95,2|2,0:2|0:2,0:0:0:0:
132,164,217785,2,0,L|128:260,1,95,8|0,0:0|0:0,0:0:0:0:
44,88,218070,5,4,0:0:0:0:
124,140,218213,1,0,0:0:0:0:
224,104,218356,2,0,L|316:84,1,95,8|0,0:0|0:0,0:0:0:0:
320,228,218642,2,0,L|370:148,1,95,2|2,0:2|0:2,0:0:0:0:
475,247,218928,2,0,L|455:155,1,95,8|0,0:0|0:0,0:0:0:0:
484,40,219213,70,0,P|432:88|364:84,1,142.5,2|0,0:2|2:0,0:0:0:0:
332,64,219499,2,0,B|288:48|288:48|240:52,1,95,8|0,0:0|0:0,0:0:0:0:
164,156,219785,2,0,B|209:143|209:143|256:152,1,95,2|2,0:2|0:2,0:0:0:0:
348,248,220070,2,0,B|301:239|301:239|255:252,1,95,8|0,0:0|0:0,0:0:0:0:
152,312,220356,6,2,P|64:292|44:204,1,190,4|8,0:0|0:0,0:0:0:0:
100,128,220785,2,2,B|196:132|196:132|276:84,1,190,2|2,0:2|0:2,0:0:0:0:
180,44,221213,2,2,B|160:88|196:132|196:132|232:176|212:220,1,190,12|0,0:0|0:0,0:0:0:0:
152,312,221642,1,2,0:2:0:0:
288,356,221785,6,0,P|336:348|372:320,1,95,8|0,0:0|0:0,0:0:0:0:
308,172,222070,2,0,P|290:217|297:262,1,95,2|2,0:2|0:2,0:0:0:0:
457,281,222356,2,0,P|426:243|383:226,1,95,8|0,0:0|0:0,0:0:0:0:
208,204,222642,6,2,B|184:160|184:160|188:116,1,95,4|0,0:0|0:0,0:0:0:0:
332,4,222928,2,2,B|356:48|356:48|352:92,1,95,4|0,0:0|0:0,0:0:0:0:
336,292,223213,2,2,B|312:248|312:248|316:204,1,95,4|0,0:0|0:0,0:0:0:0:
460,92,223499,2,2,B|484:136|484:136|480:180,1,95,4|0,0:0|0:0,0:0:0:0:
432,336,223785,5,4,0:0:0:0:
432,336,224070,6,0,L|356:340,1,76,0|8,0:0|0:3,0:0:0:0:
375,185,224356,6,0,L|312:256,1,95,0|4,0:0|0:3,0:0:0:0:
214,113,224642,6,0,L|219:226,1,113.999996520996,0|0,0:0|3:0,0:0:0:0:
228,348,224928,6,0,B|328:312|312:384|412:348,2,190,6|8|0,1:2|0:0|3:0,0:0:0:0:
136,372,225642,2,0,P|112:332|108:284,1,95,2|8,3:2|0:0,0:0:0:0:
156,192,225928,6,0,B|252:184|252:184|296:156|292:96,1,190,0|2,3:0|3:2,0:0:0:0:
184,28,226356,2,0,P|188:76|216:112,1,95,8|0,0:0|0:0,0:0:0:0:
376,184,226642,2,0,L|472:180,1,95,0|2,3:0|3:2,0:0:0:0:
304,284,226928,2,0,L|160:276,1,142.5,8|0,0:0|0:0,0:0:0:0:
128,260,227213,6,0,L|116:164,1,95,2|0,3:2|0:0,0:0:0:0:
232,12,227499,2,0,L|216:204,1,190,8|0,0:0|3:0,0:0:0:0:
136,372,227928,1,2,3:2:0:0:
232,360,228070,1,8,0:0:0:0:
328,348,228213,6,0,P|380:272|356:184,1,190,0|2,3:0|3:2,0:0:0:0:
288,116,228642,2,0,B|268:72|268:72|272:24,1,95,8|0,0:0|0:0,0:0:0:0:
392,84,228928,1,0,3:0:0:0:
276,144,229070,1,2,3:2:0:0:
152,96,229213,2,0,P|104:100|64:128,1,95,8|0,0:0|0:0,0:0:0:0:
124,280,229499,70,0,P|144:236|140:187,1,95,2|0,3:2|0:0,0:0:0:0:
64,24,229785,2,0,P|144:76|236:72,1,190,8|0,0:0|3:0,0:0:0:0:
316,24,230213,1,2,3:2:0:0:
408,52,230356,1,8,0:0:0:0:
456,192,230499,6,0,L|463:334,1,142.5,0|0,3:0|0:0,0:0:0:0:
444,368,230785,1,2,3:2:0:0:
344,296,230928,2,0,L|352:200,1,95,8|0,0:0|0:0,0:0:0:0:
448,97,231213,2,0,L|456:192,1,95,0|2,3:0|3:2,0:0:0:0:
256,212,231499,2,0,L|264:116,1,95,8|0,0:0|0:0,0:0:0:0:
344,296,231785,6,0,P|284:264|212:284,1,142.5,4|0,3:2|0:0,0:0:0:0:
184,304,232070,2,0,B|140:320|140:320|92:316,1,95,8|0,0:0|0:0,0:0:0:0:
76,180,232356,2,0,B|120:164|120:164|168:168,1,95,0|2,3:0|3:2,0:0:0:0:
256,212,232642,1,8,0:0:0:0:
352,192,232785,6,0,P|440:172|464:84,1,190,0|2,3:0|3:2,0:0:0:0:
372,0,233213,2,0,L|376:96,1,95,8|0,0:0|0:0,0:0:0:0:
352,192,233499,2,0,L|356:288,1,95,0|2,3:0|3:2,0:0:0:0:
420,372,233785,1,12,3:2:0:0:
184,304,234070,70,0,P|136:224|148:132,1,190,4|8,3:2|0:0,0:0:0:0:
200,52,234499,1,0,0:0:0:0:
292,32,234642,6,0,L|388:48,1,95,0|2,3:0|3:2,0:0:0:0:
480,28,234928,1,8,0:0:0:0:
480,28,235070,1,0,0:0:0:0:
424,128,235213,6,0,L|328:144,1,95,0|2,3:0|3:2,0:0:0:0:
236,124,235499,1,8,0:0:0:0:
236,124,235642,1,0,0:0:0:0:
276,236,235785,6,0,L|372:252,1,95,0|2,3:0|3:2,0:0:0:0:
464,232,236070,1,8,0:0:0:0:
464,232,236213,1,0,0:0:0:0:
428,360,236356,70,0,P|344:320|252:344,1,190,2|8,3:2|0:0,0:0:0:0:
152,372,236785,1,0,0:0:0:0:
72,304,236928,2,0,P|52:260|60:212,1,95,0|2,3:0|3:2,0:0:0:0:
240,116,237213,1,8,0:0:0:0:
240,116,237356,6,0,P|220:208|140:248,1,190,0|2,3:0|3:2,0:0:0:0:
145,119,237785,2,0,L|240:116,1,95,8|0,0:0|0:0,0:0:0:0:
296,8,238070,2,0,L|201:11,1,95,0|2,3:0|3:2,0:0:0:0:
304,204,238356,2,0,L|398:200,1,95,8|0,0:0|0:0,0:0:0:0:
488,296,238642,6,0,P|416:284|360:320,1,142.5,2|0,3:2|0:0,0:0:0:0:
340,352,238928,2,0,L|244:344,1,95,8|0,0:0|0:0,0:0:0:0:
209,196,239213,2,0,L|304:204,1,95,0|2,3:0|3:2,0:0:0:0:
404,264,239499,1,8,0:0:0:0:
404,264,239642,6,0,P|444:180|416:92,1,190,0|2,3:0|3:2,0:0:0:0:
336,40,240070,2,0,L|240:44,1,95,8|0,0:0|0:0,0:0:0:0:
136,92,240356,1,0,3:0:0:0:
208,196,240499,1,2,3:2:0:0:
348,176,240642,2,0,P|420:172|476:216,1,142.5,8|0,0:0|0:0,0:0:0:0:
484,260,240928,70,0,L|476:356,1,95,12|0,3:2|0:0,0:0:0:0:
348,176,241213,2,0,L|356:272,1,95,12|0,3:2|0:0,0:0:0:0:
476,76,241499,2,0,L|468:172,1,95,12|0,3:2|0:0,0:0:0:0:
352,0,241785,2,0,L|360:96,1,95,0|12,3:0|3:2,0:0:0:0:
392,240,242070,5,0,0:0:0:0:
308,196,242213,1,2,3:2:0:0:
216,220,242356,1,8,3:2:0:0:
180,308,242499,1,8,0:0:0:0:
180,308,242570,1,8,0:0:0:0:
180,308,242642,6,0,P|136:328|88:324,1,95,8|8,0:0|0:0,0:0:0:0:
240,128,242928,2,0,P|284:108|332:112,1,95,8|2,3:0|3:2,0:0:0:0:
480,228,243213,1,4,3:2:0:0:
256,192,243356,12,0,247642,0:0:0:0:
