osu file format v13

[General]
AudioFilename: 02. 192.mp3
AudioLeadIn: 1083
PreviewTime: 73142
Countdown: 0
SampleSet: Normal
StackLeniency: 0.7
Mode: 0
LetterboxInBreaks: 1
EpilepsyWarning: 1
WidescreenStoryboard: 1

[Editor]
DistanceSpacing: 1
BeatDivisor: 4
GridSize: 4
TimelineZoom: 2.28

[Metadata]
Title:Hysteria
TitleUnicode:ヒステリ
Artist:nano
ArtistUnicode:ナノ
Creator:theramdans
Version:Normal
Source:
Tags:nanoir kuwagataP guineaQ Fort wendao2000 Harez Remember your color.
BeatmapID:409179
BeatmapSetID:168662

[Difficulty]
HPDrainRate:4
CircleSize:3
OverallDifficulty:3.5
ApproachRate:5
SliderMultiplier:1
SliderTickRate:1

[Events]
//Background and Video events
0,0,"hysteriabg.jpg",0,0
//Break Periods
2,19499,35442
2,110642,117727
2,168213,179156
2,226070,232870
//Storyboard Layer 0 (Background)
//Storyboard Layer 1 (Fail)
//Storyboard Layer 2 (Pass)
//Storyboard Layer 3 (Foreground)
//Storyboard Sound Samples
//Background Colour Transformations
3,100,163,162,255

[TimingPoints]
642,285.714285714286,4,3,1,70,1,0
928,285.714285714286,4,3,1,70,1,0
19213,-100,4,1,1,70,0,0
36642,-100,4,1,1,60,0,0
37499,-100,4,2,1,50,0,0
55785,-100,4,2,1,60,0,0
74070,-100,4,1,1,70,0,1
90070,-100,4,1,1,65,0,1
90285,-100,4,1,1,55,0,1
91928,-100,4,1,1,65,0,1
92356,-100,4,1,1,70,0,1
104928,-100,4,2,1,40,0,1
106070,-100,4,2,1,50,0,0
119785,-100,4,2,1,60,0,0
131213,-100,4,1,1,70,0,1
147213,-100,4,1,1,65,0,1
147356,-100,4,1,1,55,0,1
149070,-100,4,1,1,65,0,1
149499,-100,4,1,1,70,0,1
163213,-100,4,1,1,40,0,1
167785,-100,4,1,1,60,0,0
181499,-100,4,2,1,60,0,0
190642,-100,4,1,1,5,0,0
192928,-100,4,1,1,70,0,1
208928,-100,4,1,1,65,0,1
209070,-100,4,1,1,55,0,1
210785,-100,4,1,1,65,0,1
211213,-100,4,1,1,70,0,1
224928,-100,4,2,1,60,0,0
225070,-100,4,2,1,30,0,0
233785,-100,4,2,1,60,0,0
244356,-100,4,2,1,45,0,0
245499,-100,4,2,1,30,0,0
246642,-100,4,2,1,15,0,0
247499,-100,4,2,1,5,0,0

[Colours]
Combo1 : 255,34,34
Combo2 : 0,255,0
Combo3 : 192,192,192
Combo4 : 0,0,255

[HitObjects]
104,96,642,5,2,0:0:0:0:
196,60,927,2,0,P|218:49|243:48,2,50,4|0|8,0:0|0:0|0:0,0:0:0:0:
296,232,1784,5,2,0:0:0:0:
452,108,2356,1,2,0:0:0:0:
480,304,2927,1,2,0:0:0:0:
380,292,3213,6,0,P|380:316|387:352,2,50,4|0|8,0:0|0:0|0:0,0:0:0:0:
248,144,4070,2,0,P|164:97|80:143,2,200,2|2|2,0:0|0:0|0:0,0:0:0:0:
324,80,5499,6,0,L|340:32,2,50,4|0|8,0:0|0:0|0:0,0:0:0:0:
200,236,6356,1,2,0:0:0:0:
0,256,6927,1,2,0:0:0:0:
83,73,7499,1,2,0:0:0:0:
180,96,7784,6,0,L|168:40,2,50,4|0|8,0:0|0:0|0:0,0:0:0:0:
168,296,8642,2,0,B|136:235|41:251|16:174,2,200,2|2|2,0:0|0:0|0:0,0:0:0:0:
263,325,10070,6,0,L|299:369,2,50,4|0|8,0:0|0:0|0:0,0:0:0:0:
284,124,10928,2,0,B|355:161|427:101|479:133,2,200,2|2|2,0:0|0:0|0:0,0:0:0:0:
301,222,12356,6,0,L|286:278,2,50,4|0|8,0:0|0:0|0:0,0:0:0:0:
376,36,13213,2,0,B|308:55|248:1|248:1|204:45,2,200,2|2|2,0:0|0:0|0:0,0:0:0:0:
463,84,14642,6,0,L|511:96,2,50,4|0|8,0:0|0:0|0:0,0:0:0:0:
376,264,15499,2,0,B|349:309|349:309|267:293|215:349,2,200,2|2|2,0:0|0:0|0:0,0:0:0:0:
464,216,16927,6,0,L|525:246,2,50,4|0|8,0:0|0:0|0:0,0:0:0:0:
420,190,17356,2,0,P|377:164|356:120,1,100
318,87,17785,2,0,P|269:75|220:84,1,100
137,266,18642,6,0,L|88:278,2,50,2|2|8,0:2|0:2|0:1,0:0:0:0:
185,253,19070,2,0,P|217:241|237:221,1,50,4|4,0:3|0:0,0:0:0:0:
300,144,36642,5,0,0:0:0:0:
244,228,36927,1,0,0:0:0:0:
160,172,37213,1,0,0:0:0:0:
168,72,37499,6,0,P|233:39|306:52,2,150,6|2|8,0:0|0:0|0:0,0:0:0:0:
160,172,38642,2,0,L|126:266,2,100,2|8|2,0:0|0:0|0:0,0:0:0:0:
244,228,39499,1,8,0:0:0:0:
332,180,39784,2,0,B|392:197|427:152|479:177,2,150,2|2|8,0:0|0:0|0:0,0:0:0:0:
244,228,40927,2,0,L|229:120,2,100,2|8|2,0:0|0:0|0:0,0:0:0:0:
149,261,41784,1,8,0:0:0:0:
224,326,42070,6,0,P|291:354|358:325,2,150,2|2|8,0:0|0:0|0:0,0:0:0:0:
136,280,43213,1,2,0:0:0:0:
100,188,43499,1,8,0:0:0:0:
22,125,43784,2,0,P|59:95|112:91,1,100,2|8,0:0|0:0,0:0:0:0:
209,83,44356,6,0,L|353:36,2,150,2|2|8,0:0|0:0|0:0,0:0:0:0:
230,181,45499,2,0,P|268:208|320:201,1,100,2|8,0:0|0:0,0:0:0:0:
414,230,46070,1,2,0:0:0:0:
480,304,46356,1,2,0:0:0:0:
382,326,46642,6,0,B|338:310|338:310|290:330|237:311,2,150,2|2|8,0:0|0:0|0:0,0:0:0:0:
414,230,47784,2,0,L|319:196,1,100,2|8,0:0|0:0,0:0:0:0:
305,96,48356,1,2,0:0:0:0:
232,28,48642,1,8,0:0:0:0:
153,89,48927,6,0,B|112:69|112:69|62:78|10:51,2,150,2|2|8,0:0|0:0|0:0,0:0:0:0:
97,172,50070,2,0,L|55:263,1,100,2|8,0:0|0:0,0:0:0:0:
111,347,50642,1,2,0:0:0:0:
195,295,50927,1,8,0:0:0:0:
192,196,51213,6,2,B|216:132|172:92|190:48,2,150,2|2|8,0:0|0:0|0:0,0:0:0:0:
291,208,52356,1,2,0:0:0:0:
390,211,52642,2,0,L|450:219,2,50,2|2|2,0:0|0:0|0:0,0:0:0:0:
328,132,53213,1,8,0:0:0:0:
248,71,53499,6,0,P|310:32|382:45,2,150,2|2|8,0:0|0:0|0:0,0:0:0:0:
148,75,54642,2,0,P|100:87|73:128,1,100,6|8,0:0|0:0,0:0:0:0:
72,228,55213,2,0,L|12:228,2,50,6|2|8,0:0|0:0|0:0,0:0:0:0:
108,264,55642,1,2,0:0:0:0:
144,300,55784,6,0,P|177:335|226:342,1,100,6|8,0:0|0:0,0:0:0:0:
276,332,56213,2,0,L|333:250,1,100,2|2,0:0|0:0,0:0:0:0:
333,250,56642,1,8,0:0:0:0:
409,184,56927,2,0,L|509:184,2,100,2|8|2,0:0|0:0|0:0,0:0:0:0:
364,96,57784,1,8,0:0:0:0:
276,48,58070,6,0,B|244:68|244:68|176:68,1,100,2|8,0:0|0:0,0:0:0:0:
136,88,58499,2,0,P|118:134|133:181,1,100,2|2,0:0|0:0,0:0:0:0:
180,196,58927,2,0,L|278:214,1,100,8|2,0:0|0:0,0:0:0:0:
346,288,59499,1,8,0:0:0:0:
435,244,59784,2,0,L|455:140,1,100,2|8,0:0|0:0,0:0:0:0:
416,54,60356,6,0,B|376:30|376:30|322:30,1,100,2|8,0:0|0:0,0:0:0:0:
273,35,60784,2,0,P|226:66|209:155,1,150,2|8,0:0|0:0,0:0:0:0:
136,222,61499,2,0,L|233:242,2,100,2|8|2,0:0|0:0|0:0,0:0:0:0:
49,274,62356,1,8,0:0:0:0:
27,176,62642,2,0,P|42:102|28:29,2,150,2|2|8,0:0|0:0|0:0,0:0:0:0:
224,138,64070,2,0,P|256:100|303:86,2,100,8|2|2,0:0|0:0|0:0,0:0:0:0:
152,209,64927,6,0,B|184:233|184:233|244:233,1,100,2|8,0:0|0:0,0:0:0:0:
294,233,65356,2,0,P|348:214|380:165,1,100,2|2,0:0|0:0,0:0:0:0:
380,132,65784,1,8,0:0:0:0:
183,163,66356,2,0,P|134:153|102:116,2,100,8|2|8,0:0|0:0|0:0,0:0:0:0:
188,63,67213,6,0,P|236:74|272:108,1,100,2|8,0:0|0:0,0:0:0:0:
296,152,67642,2,0,B|320:196|320:196|298:240,1,100,2|2,0:0|0:0,0:0:0:0:
269,281,68070,1,8,0:0:0:0:
71,245,68642,2,0,B|61:199|61:199|84:137,2,100,8|2|8,0:0|0:0|0:0,0:0:0:0:
150,306,69499,6,0,B|168:262|168:262|159:210,1,100,2|8,0:0|0:0,0:0:0:0:
192,172,69927,2,0,P|251:129|319:152,1,150,2|8,0:0|0:0,0:0:0:0:
481,35,70927,1,8,0:0:0:0:
426,119,71213,2,0,B|410:155|446:175|425:216,1,100,2|8,0:0|0:0,0:0:0:0:
338,265,71784,2,0,P|266:283|199:252,2,150,2|2|2,0:0|0:0|0:0,0:0:0:0:
201,116,73213,6,0,P|250:106|299:114,2,100,0|0|0,0:0|0:0|0:0,0:0:0:0:
159,206,74070,6,2,P|84:212|9:204,2,150,4|2|8,0:0|0:2|0:0,0:0:0:0:
296,352,75499,1,8,0:0:0:0:
360,276,75784,2,0,P|386:235|433:225,1,100,2|8,0:2|0:0,0:0:0:0:
428,124,76356,2,0,P|476:126|508:161,2,100,2|8|0,0:2|0:0|0:0,0:0:0:0:
328,108,77213,2,2,B|297:84|297:84|227:113|134:83,1,200,8|8,0:0|0:0,0:0:0:0:
51,134,78070,1,2,0:2:0:0:
132,192,78356,1,8,0:0:0:0:
58,259,78642,6,0,B|113:289|113:289|213:287,1,150,2|2,0:2|0:2,0:0:0:0:
216,136,79499,2,2,P|294:78|392:79,1,200,8|8,0:0|0:0,0:0:0:0:
422,176,80356,1,2,0:2:0:0:
422,176,80642,1,8,0:0:0:0:
392,272,80927,6,0,P|428:326|480:337,2,100,4|8|2,0:0|0:0|0:2,0:0:0:0:
344,184,81784,2,2,B|310:220|310:220|234:199|160:225,1,200,8|8,0:0|0:0,0:0:0:0:
120,316,82642,1,2,0:2:0:0:
120,316,82927,1,8,0:0:0:0:
56,240,83213,6,0,P|45:166|76:99,1,150,4|2,0:0|0:2,0:0:0:0:
208,28,84070,2,2,P|218:101|187:168,1,150,8|8,0:0|0:0,0:0:0:0:
240,308,84927,1,2,0:2:0:0:
285,218,85213,1,8,0:0:0:0:
384,203,85499,6,0,B|423:231|423:231|398:281|424:341,1,150,2|2,0:2|0:2,0:0:0:0:
273,341,86356,2,2,P|182:376|91:341,1,200,8|8,0:0|0:0,0:0:0:0:
15,274,87213,1,2,0:2:0:0:
40,176,87499,1,8,0:0:0:0:
40,176,87642,6,0,B|92:125|199:140|199:140|267:84|371:107,1,350,2|8,0:2|0:0,0:0:0:0:
413,133,88785,2,0,B|447:184|447:184|382:307|299:180|175:248,1,350,2|8,0:2|0:0,0:0:0:0:
211,338,90070,6,0,B|239:355|239:355|292:337|354:354,2,150,6|2|2,0:0|0:0|0:0,0:0:0:0:
135,274,91213,1,0,0:0:0:0:
67,199,91499,1,8,0:0:0:0:
77,99,91784,2,0,L|22:80,2,50,2|2|8,0:2|0:2|0:0,0:0:0:0:
125,115,92213,1,2,0:2:0:0:
173,131,92356,6,0,P|220:118|321:127,1,150,4|8,0:0|0:0,0:0:0:0:
422,239,93213,2,2,P|397:287|261:302,1,200,8|8,0:0|0:0,0:0:0:0:
164,300,94070,1,2,0:2:0:0:
76,252,94356,1,8,0:0:0:0:
156,192,94642,6,0,P|167:144|157:96,2,100,2|8|2,0:2|0:0|0:2,0:0:0:0:
242,244,95499,2,2,B|315:220|372:275|439:247,1,200,8|8,0:0|0:0,0:0:0:0:
443,147,96356,1,2,0:2:0:0:
443,147,96642,1,8,0:0:0:0:
480,54,96927,6,0,P|415:36|328:49,1,150,2|8,0:2|0:0,0:0:0:0:
185,44,97785,2,2,B|91:76|91:76|20:160,1,200,2|8,0:2|0:0,0:0:0:0:
80,236,98642,1,2,0:2:0:0:
162,177,98927,1,8,0:0:0:0:
261,190,99213,6,0,L|365:184,2,100,4|8|2,0:0|0:0|0:2,0:0:0:0:
196,268,100070,2,2,P|117:322|25:292,1,200,8|8,0:0|0:0,0:0:0:0:
52,196,100927,1,2,0:2:0:0:
52,196,101213,1,8,0:0:0:0:
116,119,101499,6,0,B|146:98|146:98|196:111|269:97,1,150,4|8,0:0|0:0,0:0:0:0:
405,130,102356,2,2,B|380:174|432:208|394:275,1,150,2|8,0:2|0:0,0:0:0:0:
245,287,103213,1,2,0:2:0:0:
163,230,103499,1,8,0:0:0:0:
144,328,103784,6,0,B|119:340|119:340|41:340,2,100,2|8|2,0:2|0:0|0:2,0:0:0:0:
164,229,104642,1,8,0:0:0:0:
244,168,104928,2,0,L|285:73,1,100,2|0,0:2|0:0,0:0:0:0:
371,122,105499,2,0,L|330:217,1,100,0|0,0:2|0:0,0:0:0:0:
368,308,106070,1,6,0:0:0:0:
256,192,106213,12,2,108356,0:0:0:0:
126,136,118927,6,0,L|91:42,2,100,0|0|0,0:0|0:0|0:0,0:0:0:0:
132,236,119784,2,0,B|106:276|56:266|56:266|15:331,2,150,2|2|8,0:0|0:0|0:0,0:0:0:0:
312,324,121213,1,8,0:0:0:0:
388,260,121499,2,0,P|430:233|443:186,1,100,2|8,0:0|0:0,0:0:0:0:
376,112,122070,6,0,B|421:50|421:50|489:22,2,150,2|2|8,0:0|0:0|0:0,0:0:0:0:
176,125,123499,1,8,0:0:0:0:
268,88,123784,1,2,0:0:0:0:
190,26,124070,1,8,0:0:0:0:
176,125,124356,6,0,L|122:265,2,150,2|2|8,0:0|0:0|0:0,0:0:0:0:
353,217,125784,2,0,P|402:202|432:160,2,100,8|2|8,0:0|0:0|0:0,0:0:0:0:
332,120,126642,5,2,0:0:0:0:
200,52,127070,1,2,0:0:0:0:
72,128,127499,1,2,0:0:0:0:
156,308,128070,5,12,0:2:0:0:
156,308,128356,2,0,L|131:361,2,50,2|2|8,0:0|0:0|0:3,0:0:0:0:
152,208,128927,2,0,B|185:179|185:179|241:179,1,100,2|0,0:0|0:0,0:0:0:0:
276,215,129356,2,0,P|310:280|286:349,1,150,2|2,0:0|0:0,0:0:0:0:
440,224,130356,6,0,L|484:314,2,100,0|0|0,0:0|0:0|0:0,0:0:0:0:
364,158,131213,6,0,P|405:129|463:127,2,100,4|8|2,0:0|0:0|0:2,0:0:0:0:
264,170,132070,2,2,P|183:184|147:288,1,200,10|10,0:0|0:0,0:0:0:0:
214,359,132927,1,2,0:2:0:0:
240,262,133213,1,8,0:0:0:0:
336,292,133499,6,0,P|382:308|429:294,2,100,2|8|2,0:2|0:0|0:2,0:0:0:0:
240,262,134356,2,2,B|215:182|278:121|240:67,1,200,8|8,0:0|0:0,0:0:0:0:
145,35,135213,1,2,0:2:0:0:
77,108,135499,1,8,0:0:0:0:
44,204,135785,6,0,P|29:251|44:297,2,100,4|8|2,0:2|0:0|0:2,0:0:0:0:
136,245,136642,2,2,B|201:210|264:245|264:245|319:201,1,200,8|8,0:0|0:0,0:0:0:0:
412,176,137499,1,2,0:2:0:0:
412,176,137784,1,8,0:0:0:0:
364,88,138070,6,0,B|393:60|393:60|452:60,2,100,4|8|2,0:0|0:0|0:2,0:0:0:0:
268,56,138927,2,2,P|176:39|127:119,1,200,8|8,0:0|0:0,0:0:0:0:
192,195,139784,1,2,0:2:0:0:
192,195,140070,1,8,0:0:0:0:
156,288,140356,6,0,P|209:309|316:323,1,150,4|8,0:0|0:0,0:0:0:0:
273,176,141213,2,2,B|310:195|310:195|325:167|325:167|388:192|448:160,1,200,2|8,0:2|0:0,0:0:0:0:
440,60,142070,1,2,0:2:0:0:
344,36,142356,1,8,0:0:0:0:
248,68,142642,6,0,P|174:53|104:72,1,150,2|8,0:2|0:0,0:0:0:0:
56,216,143499,2,2,B|112:262|112:262|178:234|236:258,1,200,2|8,0:2|0:0,0:0:0:0:
335,275,144356,1,2,0:2:0:0:
417,217,144642,1,8,0:0:0:0:
417,217,144784,6,0,B|396:131|288:146|288:146|237:53|129:93,1,350,2|8,0:2|0:0,0:0:0:0:
40,136,146070,2,0,L|-1:41,2,100,2|8|2,0:2|0:0|0:2,0:0:0:0:
68,232,146927,1,8,0:0:0:0:
169,238,147213,6,0,P|184:309|141:368,2,150,6|2|2,0:0|0:0|0:0,0:0:0:0:
114,154,148356,1,2,0:2:0:0:
200,102,148642,1,8,0:0:0:0:
299,97,148927,2,0,L|304:38,2,50,2|2|8,0:2|0:2|0:0,0:0:0:0:
334,132,149356,1,2,0:2:0:0:
370,166,149499,6,0,B|396:192|396:192|371:241|395:303,1,150,4|8,0:0|0:0,0:0:0:0:
272,216,150356,2,2,B|235:195|235:195|176:228|81:210,1,200,2|8,0:2|0:0,0:0:0:0:
68,111,151213,1,2,0:2:0:0:
152,56,151499,1,8,0:0:0:0:
251,68,151784,6,0,L|348:88,1,100,2|8,0:2|0:0,0:0:0:0:
420,160,152356,1,2,0:2:0:0:
420,160,152642,2,2,P|427:255|352:316,1,200,8|8,0:0|0:0,0:0:0:0:
252,300,153499,2,0,L|146:301,1,100,2|8,0:2|0:0,0:0:0:0:
126,205,154070,6,0,B|96:135|96:135|27:95,1,150,2|8,0:2|0:0,0:0:0:0:
184,92,154927,2,2,B|214:162|214:162|330:219,1,200,2|8,0:2|0:0,0:0:0:0:
408,160,155784,1,2,0:2:0:0:
369,67,156070,1,8,0:0:0:0:
369,67,156356,6,0,P|322:49|274:55,2,100,4|8|2,0:0|0:0|0:2,0:0:0:0:
468,88,157213,2,2,B|461:152|514:195|514:195|476:263,1,200,8|8,0:0|0:0,0:0:0:0:
376,280,158070,1,2,0:2:0:0:
302,213,158356,1,8,0:0:0:0:
204,232,158642,6,0,P|160:265|96:256,1,100,4|8,0:0|0:0,0:0:0:0:
80,232,159070,2,2,B|39:198|39:198|56:143|25:102,1,150,2|8,0:2|0:0,0:0:0:0:
224,60,160070,1,8,0:0:0:0:
224,60,160356,2,0,L|328:54,1,100,2|8,0:2|0:0,0:0:0:0:
400,120,160927,1,2,0:2:0:0:
400,120,161213,6,0,B|370:193|442:236|403:314,1,200,10|8,0:0|0:0,0:0:0:0:
304,304,162070,1,2,0:2:0:0:
215,259,162356,2,0,L|168:276,1,50,8|4,0:0|0:3,0:0:0:0:
117,277,162642,2,0,L|70:259,2,50,8|4|4,0:3|0:3|0:3,0:0:0:0:
142,180,163213,1,6,0:0:0:0:
256,192,163356,12,4,167785,0:0:0:0:
168,112,180356,5,8,0:0:0:0:
168,112,180499,1,2,0:2:0:0:
260,152,180784,2,0,L|320:152,3,50,2|8|2|8,0:2|0:0|0:2|0:0,0:0:0:0:
304,252,181499,6,0,L|220:316,1,100,6|8,0:0|0:0,0:0:0:0:
126,291,182070,2,0,L|82:325,2,50,2|2|8,0:0|0:0|0:0,0:0:0:0:
107,192,182642,2,0,B|145:177|164:202|212:189,2,100,2|8|2,0:0|0:0|0:0,0:0:0:0:
72,98,183499,1,8,0:0:0:0:
164,59,183784,6,0,P|212:47|261:54,2,100,2|8|2,0:0|0:0|0:0,0:0:0:0:
172,160,184642,1,8,0:0:0:0:
268,184,184927,2,0,B|300:168|300:168|368:168,2,100,2|8|2,0:0|0:0|0:0,0:0:0:0:
237,224,185642,2,0,L|197:254,1,50,2|8,0:0|0:0,0:0:0:0:
272,320,186070,6,0,L|368:360,1,100,6|8,0:0|0:0,0:0:0:0:
440,292,186642,2,0,L|344:252,1,100,2|8,0:0|0:0,0:0:0:0:
342,154,187213,1,2,0:0:0:0:
280,76,187499,2,0,P|190:54|141:133,1,200,8|8,0:0|0:0,0:0:0:0:
148,236,188356,6,0,B|112:260|112:260|52:260,2,100,6|8|2,0:0|0:0|0:0,0:0:0:0:
240,276,189213,1,8,0:0:0:0:
308,204,189499,1,6,0:0:0:0:
344,112,189785,6,0,L|396:128,1,50,2|8,0:0|0:0,0:0:0:0:
412,172,190070,2,0,L|448:225,3,50,2|8|2|8,0:0|0:0|0:0|0:0,0:0:0:0:
256,192,190642,12,2,192356,0:0:0:0:
128,184,192927,6,2,P|107:247|127:330,2,150,4|2|8,0:0|0:2|0:0,0:0:0:0:
326,211,194356,1,8,0:0:0:0:
404,148,194642,2,0,L|353:55,1,100,2|8,0:2|0:0,0:0:0:0:
256,48,195213,5,2,0:2:0:0:
156,36,195499,1,8,0:0:0:0:
101,120,195785,1,2,0:2:0:0:
101,120,196070,2,2,P|141:206|236:216,1,200,8|8,0:0|0:0,0:0:0:0:
272,308,196927,2,0,L|180:356,1,100,2|8,0:2|0:0,0:0:0:0:
84,356,197499,6,0,P|69:292|80:209,1,150,2|8,0:2|0:0,0:0:0:0:
228,179,198356,2,2,P|322:169|379:246,1,200,8|8,0:0|0:0,0:0:0:0:
280,260,199213,1,2,0:2:0:0:
280,260,199499,1,8,0:0:0:0:
192,304,199784,6,0,B|152:328|152:328|92:328,2,100,4|8|2,0:0|0:0|0:2,0:0:0:0:
124,231,200642,2,2,B|168:205|168:205|140:123|207:61,1,200,8|8,0:0|0:0,0:0:0:0:
299,65,201499,1,2,0:2:0:0:
299,65,201785,1,8,0:0:0:0:
398,77,202070,6,0,B|414:153|414:153|472:196,1,150,4|2,0:0|0:2,0:0:0:0:
411,331,202927,2,2,B|337:320|267:359|267:359|222:336,1,200,2|8,0:2|0:0,0:0:0:0:
248,240,203784,1,2,0:2:0:0:
208,148,204070,1,8,0:0:0:0:
136,216,204356,6,0,B|116:256|172:292|128:360,1,150,2|2,0:2|0:2,0:0:0:0:
256,284,205213,2,2,P|350:312|444:283,1,200,2|8,0:2|0:0,0:0:0:0:
497,197,206070,1,2,0:2:0:0:
512,97,206356,1,8,0:0:0:0:
512,97,206499,6,0,B|452:101|426:52|426:52|380:89|324:77|324:77|276:145|202:111,1,350,2|8,0:2|0:0,0:0:0:0:
158,91,207642,2,0,B|65:139|114:244|114:244|75:255|75:255|119:315|89:376,1,350,2|8,0:2|0:0,0:0:0:0:
188,362,208928,22,0,L|292:338,1,100,6|8,0:0|0:0,0:0:0:0:
322,306,209356,2,0,L|351:265,1,50,2|8,0:2|0:0,0:0:0:0:
388,172,209784,2,0,L|438:172,2,50,2|8|2,0:2|0:0|0:2,0:0:0:0:
288,160,210356,5,4,0:2:0:0:
320,64,210642,2,0,L|368:76,2,50,2|2|8,0:2|0:2|0:0,0:0:0:0:
272,48,211070,1,2,0:2:0:0:
224,32,211213,6,2,P|153:54|81:36,2,150,4|2|8,0:0|0:2|0:0,0:0:0:0:
416,93,212642,1,8,0:0:0:0:
400,192,212927,2,0,L|331:264,1,100,2|8,0:2|0:0,0:0:0:0:
244,216,213499,2,0,L|312:143,2,100,2|8|2,0:2|0:0|0:2,0:0:0:0:
204,308,214356,6,2,B|140:280|76:312|76:312|30:259,1,200,8|8,0:0|0:0,0:0:0:0:
104,191,215213,1,2,0:2:0:0:
104,191,215499,1,8,0:0:0:0:
120,92,215784,6,2,B|76:32|76:32|1:21,2,150,4|2|8,0:0|0:2|0:0,0:0:0:0:
232,260,217213,2,0,P|208:296|148:304,2,100,8|2|8,0:0|0:2|0:0,0:0:0:0:
272,168,218070,2,0,P|296:132|356:124,2,100,4|8|2,0:0|0:0|0:2,0:0:0:0:
172,180,218927,6,0,B|132:128|52:144|52:144|18:85,1,200,10|10,0:0|0:0,0:0:0:0:
92,16,219784,1,4,0:0:0:0:
184,56,220070,1,8,0:0:0:0:
283,67,220356,6,0,P|352:78|414:142,1,150,6|8,0:0|0:0,0:0:0:0:
382,279,221213,2,2,P|333:304|188:286,1,200,2|8,0:2|0:0,0:0:0:0:
116,225,222070,2,0,L|156:133,1,100,2|8,0:2|0:0,0:0:0:0:
233,68,222642,37,4,0:0:0:0:
288,150,222927,2,0,B|324:126|324:126|388:126,2,100,8|2|8,0:0|0:2|0:0,0:0:0:0:
236,235,223784,2,0,L|236:335,2,100,4|8|2,0:0|0:0|0:2,0:0:0:0:
142,197,224642,1,8,0:0:0:0:
164,99,224927,6,0,B|188:83|188:83|208:103|208:103|304:71|340:175|437:152,1,300,6|2,0:0|0:0,0:0:0:0:
324,296,234070,6,0,L|212:320,1,100,6|8,0:0|0:0,0:0:0:0:
128,292,234642,2,0,L|92:336,2,50,2|2|8,0:0|0:0|0:0,0:0:0:0:
151,248,235070,2,0,P|194:189|266:185,1,150,2|8,0:0|0:0,0:0:0:0:
320,100,235784,2,0,L|368:136,2,50,2|2|8,0:0|0:0|0:0,0:0:0:0:
228,60,236356,6,0,B|192:88|192:88|120:88,1,100,2|8,0:0|0:0,0:0:0:0:
56,144,236927,2,0,P|44:191|56:240,1,100,2|8,0:0|0:0,0:0:0:0:
100,264,237356,2,0,L|230:337,1,150,2|8,0:0|0:0,0:0:0:0:
328,316,238070,2,0,L|377:341,2,50,2|2|8,0:0|0:0|0:0,0:0:0:0:
376,228,238642,6,0,L|432:140,1,100,2|8,0:0|0:0,0:0:0:0:
332,120,239213,2,0,P|292:96|232:92,1,100,2|8,0:0|0:0,0:0:0:0:
192,108,239642,2,0,L|100:226,1,150,2|8,0:0|0:0,0:0:0:0:
155,309,240356,2,0,L|120:352,2,50,2|2|8,0:0|0:0|0:0,0:0:0:0:
248,344,240927,6,0,L|360:344,2,100,6|8|6,0:0|0:0|0:0,0:0:0:0:
212,252,241784,1,8,0:0:0:0:
188,208,241927,2,0,P|123:172|52:187,1,150,6|8,0:0|0:0,0:0:0:0:
64,88,242642,2,0,L|36:45,2,50,8|4|8,0:3|0:3|0:3,0:0:0:0:
164,96,243213,1,6,0:0:0:0:
256,192,243356,12,2,247642,0:0:0:0:
