osu file format v14

[General]
AudioFilename: 03. GALLOWS BELL192.mp3
AudioLeadIn: 678
PreviewTime: 89571
Countdown: 0
SampleSet: Soft
StackLeniency: 0.7
Mode: 0
LetterboxInBreaks: 0
EpilepsyWarning: 1
WidescreenStoryboard: 1

[Editor]
Bookmarks: 14536,54260,63984
DistanceSpacing: 1.1
BeatDivisor: 4
GridSize: 4
TimelineZoom: 1.5

[Metadata]
Title:GALLOWS BELL
TitleUnicode:GALLOWS BELL
Artist:nano
ArtistUnicode:ナノ
Creator:theramdans
Version:Normal
Source:
Tags:nanoir buzzG Remember your color. vocaloid Hatsune Miku A_Mystery -Bakari-
BeatmapID:413701
BeatmapSetID:170942

[Difficulty]
HPDrainRate:4
CircleSize:3
OverallDifficulty:4
ApproachRate:5
SliderMultiplier:1.15
SliderTickRate:1

[Events]
//Background and Video events
0,0,"bggb.jpg",0,0
//Break Periods
2,54288,62811
2,117192,128397
2,143874,149087
//Storyboard Layer 0 (Background)
//Storyboard Layer 1 (Fail)
//Storyboard Layer 2 (Pass)
//Storyboard Layer 3 (Foreground)
//Storyboard Sound Samples

[TimingPoints]
1330,413.793103448276,4,2,0,30,1,0
14571,-100,4,2,1,50,0,0
27605,-100,4,2,1,75,0,1
40226,-100,4,2,1,65,0,0
40847,-100,4,2,1,75,0,1
54088,-100,4,2,1,65,0,0
64019,-100,4,2,1,50,0,0
77467,-100,4,2,1,65,0,0
90502,-100,4,2,1,75,0,1
103123,-100,4,2,1,65,0,0
103743,-100,4,2,1,75,0,1
117192,-100,4,2,1,65,0,0
130226,-100,4,2,1,75,0,0
143674,-100,4,2,1,50,0,0
150295,-100,4,2,1,55,0,0
153605,-100,4,2,1,65,0,0
156709,-100,4,2,1,75,0,1
169330,-100,4,2,1,65,0,0
169950,-100,4,2,1,75,0,1
182571,-100,4,2,1,45,0,0
183192,-100,4,2,1,75,0,1
183605,-100,4,2,1,65,0,0

[Colours]
Combo1 : 64,128,128
Combo2 : 135,132,24
Combo3 : 192,192,192

[HitObjects]
105,102,1330,6,0,P|154:75|211:78,2,115
107,227,2571,1,0,0:0:0:0:
107,227,2778,2,0,B|110:303|191:324|191:324|246:262|352:309,1,287.5
474,178,4433,1,0,0:0:0:0:
474,178,4640,6,0,L|468:61,1,115,2|0,0:0|0:0,0:0:0:0:
357,6,5467,2,0,L|362:120,1,115
355,184,6088,2,0,P|285:231|203:215,1,172.5
149,180,6916,1,0,0:0:0:0:
149,116,7123,2,0,P|197:89|259:97,1,115
316,108,7743,1,0,0:0:0:0:
373,135,7950,6,0,B|427:152|427:152|475:194,1,115,2|0,0:0|0:0,0:0:0:0:
401,296,8778,2,0,L|272:324,1,115
227,336,9398,2,0,P|143:332|90:267,1,172.5
71,206,10226,1,0,0:0:0:0:
81,143,10433,2,0,P|130:74|211:50,1,172.5
274,50,11261,6,0,B|322:28|380:82|449:55,1,172.5,2|0,0:0|0:0,0:0:0:0:
455,246,12502,1,0,0:0:0:0:
455,246,12709,1,0,0:0:0:0:
375,335,14571,5,6,0:0:0:0:
325,296,14778,1,0,0:0:0:0:
262,286,14985,2,0,P|227:286|150:325,1,115,8|2,0:0|0:0,0:0:0:0:
42,263,15812,1,8,0:0:0:0:
42,263,16019,6,0,B|75:218|75:218|84:150,1,115,2|2,0:0|0:0,0:0:0:0:
111,103,16640,2,0,P|132:84|160:76,1,57.5,8|0,0:0|0:0,0:0:0:0:
223,66,17054,2,0,P|278:65|337:80,1,115,2|8,0:0|0:0,0:0:0:0:
396,97,17674,1,0,0:0:0:0:
442,140,17881,6,0,P|447:190|441:221,1,57.5,2|0,0:0|0:0,0:0:0:0:
437,259,18295,1,8,0:0:0:0:
395,307,18502,1,2,0:0:0:0:
338,334,18709,2,0,B|285:350|285:350|207:339,1,115,2|8,0:0|0:0,0:0:0:0:
162,334,19330,6,0,B|119:321|90:332|90:332|55:305,1,115,2|2,0:0|0:0,0:0:0:0:
25,252,19950,1,8,0:0:0:0:
38,190,20157,1,2,0:0:0:0:
84,147,20364,2,0,B|160:155|160:155|215:138,1,115,2|8,0:0|0:0,0:0:0:0:
256,122,20985,1,0,0:0:0:0:
308,85,21192,6,0,P|340:71|379:77,1,57.5,6|0,0:0|0:0,0:0:0:0:
415,106,21605,2,0,L|449:157,1,57.5,8|0,0:0|0:0,0:0:0:0:
479,208,22019,2,0,P|485:262|451:324,1,115,2|8,0:0|0:0,0:0:0:0:
404,347,22640,2,0,P|321:364|251:317,1,172.5,2|8,0:0|0:0,0:0:0:0:
198,283,23467,1,0,0:0:0:0:
136,270,23674,2,0,L|58:282,2,57.5,2|2|8,0:0|0:0|0:0,0:0:0:0:
61,167,24502,6,0,P|56:132|58:109,1,57.5,6|8,0:0|0:0,0:0:0:0:
88,54,24916,2,0,P|119:39|152:39,1,57.5,8|0,0:0|0:0,0:0:0:0:
205,37,25330,2,0,P|237:39|274:47,1,57.5,8|8,0:0|0:0,0:0:0:0:
323,63,25743,1,8,0:0:0:0:
355,117,25950,2,0,P|364:202|342:285,1,172.5,6|8,0:0|0:3,0:0:0:0:
223,331,26985,2,0,P|189:336|155:331,2,57.5,8|8|2,0:0|0:0|0:0,0:0:0:0:
284,315,27605,6,0,B|342:291|342:291|384:244,1,115,6|2,0:0|0:0,0:0:0:0:
406,195,28226,1,8,0:0:0:0:
353,79,28640,2,0,P|396:60|416:60,2,57.5,2|0|8,0:0|0:0|0:0,0:0:0:0:
300,115,29261,2,0,P|260:129|186:125,1,115,2|2,0:0|0:0,0:0:0:0:
126,112,29881,1,8,0:0:0:0:
72,226,30295,2,0,L|5:233,2,57.5,2|0|8,0:0|0:0|0:0,0:0:0:0:
135,223,30916,6,0,P|199:226|251:245,1,115,2|2,0:0|0:0,0:0:0:0:
304,268,31536,1,8,0:0:0:0:
419,319,31950,2,0,B|429:259|429:259|419:202,1,115,2|8,0:0|0:0,0:0:0:0:
407,143,32571,2,0,P|366:97|293:93,1,115,2|2,0:0|0:0,0:0:0:0:
253,98,33192,1,8,0:0:0:0:
129,73,33605,2,0,L|121:11,2,57.5,2|0|8,0:0|0:0|0:0,0:0:0:0:
99,130,34226,6,0,P|92:186|105:242,1,115,6|2,0:0|0:0,0:0:0:0:
149,288,34847,1,8,0:0:0:0:
262,344,35261,2,0,L|381:332,1,115,2|8,0:0|0:0,0:0:0:0:
437,316,35881,2,0,P|473:266|461:204,1,115,2|2,0:0|0:0,0:0:0:0:
442,158,36502,1,8,0:0:0:0:
405,106,36709,2,0,P|352:83|295:84,1,115,2|2,0:0|0:0,0:0:0:0:
237,109,37330,1,8,0:0:0:0:
139,189,37743,6,0,P|123:243|144:295,2,115,8|8|8,0:0|0:0|0:0,0:0:0:0:
178,67,38985,1,8,0:0:0:0:
233,36,39192,2,0,P|287:20|344:33,1,115,6|8,0:0|0:3,0:0:0:0:
388,77,39812,1,8,0:3:0:0:
400,202,40226,2,0,L|475:193,2,57.5,8|2|8,0:3|0:0|0:3,0:0:0:0:
338,218,40847,6,0,L|222:233,1,115,6|2,0:0|0:0,0:0:0:0:
161,242,41467,1,8,0:0:0:0:
100,130,41881,2,0,P|158:111|194:72,1,115,2|8,0:0|0:0,0:0:0:0:
249,42,42502,2,0,B|305:51|305:51|365:44,1,115,2|2,0:0|0:0,0:0:0:0:
426,37,43123,1,8,0:0:0:0:
408,162,43536,2,0,L|476:156,2,57.5,2|0|8,0:0|0:0|0:0,0:0:0:0:
345,152,44157,6,0,P|289:141|234:158,1,115,2|2,0:0|0:0,0:0:0:0:
181,191,44778,1,8,0:0:0:0:
59,157,45192,2,0,B|85:106|85:106|137:69,1,115,2|8,0:0|0:0,0:0:0:0:
191,49,45812,2,0,P|246:39|299:60,1,115,2|2,0:0|0:0,0:0:0:0:
345,104,46433,1,8,0:0:0:0:
420,205,46847,1,2,0:0:0:0:
420,205,47054,2,0,P|365:217|309:206,1,115,2|8,0:0|0:0,0:0:0:0:
252,176,47674,1,6,0:0:0:0:
169,80,48088,5,8,0:0:0:0:
80,170,48502,2,0,P|88:227|121:273,1,115,8|8,0:0|0:0,0:0:0:0:
241,313,49330,2,0,L|351:285,1,115,8|8,0:0|0:0,0:0:0:0:
431,106,50778,5,6,0:0:0:0:
256,192,50985,12,0,54088,0:0:0:0:
65,45,64019,6,0,B|101:89|101:89|108:146,1,115,6|2,0:0|0:3,0:0:0:0:
118,209,64640,1,2,0:0:0:0:
100,334,65054,2,0,P|152:311|208:320,1,115,2|2,0:0|0:3,0:0:0:0:
267,341,65674,2,0,P|323:329|367:229,1,172.5,2|2,0:0|0:0,0:0:0:0:
360,168,66502,1,0,0:0:0:0:
352,105,66709,1,0,0:0:0:0:
170,50,67330,1,2,0:3:0:0:
170,50,67536,6,0,P|115:39|61:57,2,115,2|2|2,0:0|0:3|0:0,0:0:0:0:
295,69,68778,1,2,0:3:0:0:
353,94,68985,2,0,P|405:122|429:230,1,172.5,2|2,0:0|0:3,0:0:0:0:
401,282,69812,1,2,0:0:0:0:
347,315,70019,2,0,L|233:331,1,115,2|2,0:0|0:3,0:0:0:0:
172,349,70640,1,0,0:0:0:0:
110,333,70847,6,0,P|82:321|62:285,1,57.5,2|0,0:0|0:0,0:0:0:0:
38,242,71261,2,0,L|34:178,1,57.5,2|0,0:3|0:0,0:0:0:0:
52,124,71674,2,0,P|95:89|152:86,1,115,2|2,0:0|0:3,0:0:0:0:
214,102,72295,2,0,B|290:126|290:126|382:106,1,172.5,2|2,0:0|0:3,0:0:0:0:
442,91,73123,1,0,0:0:0:0:
442,91,73330,1,0,0:0:0:0:
256,192,74157,12,8,75812,0:0:0:0:
208,307,76847,6,0,L|172:367,2,57.5,8|8|8,0:0|0:0|0:0,0:0:0:0:
236,250,77467,6,0,P|241:196|207:140,1,115,6|8,0:0|0:0,0:0:0:0:
97,88,78295,2,0,L|198:34,1,115,2|8,0:0|0:0,0:0:0:0:
261,24,78916,2,0,B|321:72|392:45|392:45|480:85|451:162,1,287.5,2|2,0:0|0:0,0:0:0:0:
392,274,80364,1,8,0:0:0:0:
270,305,80778,6,0,L|265:375,2,57.5,2|0|8,0:0|0:0|0:0,0:0:0:0:
237,250,81398,1,0,0:0:0:0:
178,226,81605,2,0,P|126:245|73:226,1,115,2|8,0:0|0:0,0:0:0:0:
37,172,82226,2,0,P|12:142|27:65,1,115,2|2,0:0|0:0,0:0:0:0:
77,40,82847,1,8,0:0:0:0:
139,27,83054,2,0,B|210:-10|221:64|309:30,1,172.5,2|8,0:0|0:0,0:0:0:0:
366,47,83881,1,8,0:0:0:0:
406,95,84088,6,0,L|433:152,1,57.5,6|0,0:0|0:0,0:0:0:0:
431,210,84502,2,0,P|412:245|375:262,1,57.5,8|0,0:0|0:0,0:0:0:0:
338,276,84916,2,0,P|283:265|230:285,1,115,2|8,0:0|0:0,0:0:0:0:
192,337,85536,2,0,P|156:360|74:358,1,115,2|2,0:0|0:0,0:0:0:0:
48,310,86157,1,8,0:0:0:0:
39,247,86364,2,0,B|60:189|60:189|117:196|159:150,1,172.5,2|8,0:0|0:0,0:0:0:0:
216,37,87398,5,6,0:0:0:0:
326,99,87812,2,0,P|408:107|451:178,1,172.5,2|8,0:0|0:0,0:0:0:0:
367,274,88847,2,0,L|181:252,1,172.5,6|8,0:0|0:3,0:0:0:0:
76,296,89881,2,0,P|67:268|70:240,2,57.5,8|8|8,0:3|0:3|0:3,0:0:0:0:
130,328,90502,6,0,L|251:341,1,115,6|2,0:0|0:0,0:0:0:0:
307,344,91123,1,8,0:0:0:0:
425,301,91536,2,0,P|406:249|427:196,1,115,2|8,0:0|0:0,0:0:0:0:
431,132,92157,2,0,P|391:83|342:76,1,115,2|2,0:0|0:0,0:0:0:0:
280,88,92778,1,8,0:0:0:0:
153,79,93192,2,0,L|124:27,2,57.5,2|0|8,0:0|0:0|0:0,0:0:0:0:
182,134,93812,6,0,B|206:180|160:207|182:250,1,115,2|2,0:0|0:0,0:0:0:0:
199,306,94433,1,8,0:0:0:0:
316,353,94847,2,0,P|359:315|375:261,1,115,2|8,0:0|0:0,0:0:0:0:
369,198,95467,2,0,L|255:178,1,115,2|2,0:0|0:0,0:0:0:0:
193,165,96088,1,8,0:0:0:0:
79,109,96502,2,0,P|113:63|168:53,1,115,2|8,0:0|0:0,0:0:0:0:
230,48,97123,6,0,B|278:42|278:42|324:84|394:70,1,172.5,6|8,0:0|0:0,0:0:0:0:
381,195,98157,2,0,L|454:186,2,57.5,2|0|8,0:0|0:0|0:0,0:0:0:0:
318,206,98778,2,0,P|246:249|231:331,1,172.5,2|8,0:0|0:0,0:0:0:0:
285,363,99605,2,0,L|463:376,1,172.5,2|8,0:0|0:0,0:0:0:0:
467,250,100640,6,0,L|432:135,1,115,8|8,0:0|0:0,0:0:0:0:
341,52,101467,2,0,P|288:30|235:49,1,115,8|8,0:0|0:0,0:0:0:0:
194,96,102088,2,0,B|161:137|226:190|190:263,1,172.5,6|8,0:0|0:0,0:0:0:0:
68,300,103123,2,0,L|55:364,2,57.5,8|8|8,0:3|0:3|0:3,0:0:0:0:
85,239,103743,6,0,P|90:174|76:118,1,115,6|2,0:0|0:0,0:0:0:0:
47,70,104364,1,8,0:0:0:0:
168,33,104778,2,0,P|220:55|277:51,1,115,2|8,0:0|0:0,0:0:0:0:
340,45,105398,2,0,B|398:57|398:57|440:92,1,115,2|2,0:0|0:0,0:0:0:0:
465,151,106019,1,8,0:0:0:0:
338,160,106433,2,0,L|280:153,2,57.5,2|0|8,0:0|0:0|0:0,0:0:0:0:
391,194,107054,6,0,P|408:243|377:316,1,115,2|2,0:0|0:0,0:0:0:0:
343,344,107674,1,8,0:0:0:0:
216,333,108088,2,0,L|100:347,1,115,2|8,0:0|0:0,0:0:0:0:
46,316,108709,2,0,B|-21:262|94:190|15:143,1,172.5,2|8,0:0|0:0,0:0:0:0:
95,47,109743,1,2,0:0:0:0:
95,47,109950,2,0,B|141:14|180:111|255:61,1,172.5,2|6,0:0|0:0,0:0:0:0:
377,92,110985,6,0,P|430:110|466:154,2,115,8|8|8,0:0|0:0|0:0,0:0:0:0:
295,188,112226,2,0,L|271:302,1,115,8|8,0:0|0:0,0:0:0:0:
147,271,113054,2,0,L|170:158,1,115,8|8,0:0|0:0,0:0:0:0:
70,80,113881,5,8,0:0:0:0:
70,80,114295,2,0,P|43:130|50:187,2,115,8|8|8,0:0|0:0|0:0,0:0:0:0:
189,37,115536,2,0,P|300:47|380:127,1,230,8|8,0:0|0:0,0:0:0:0:
163,106,129605,6,0,L|247:91,1,86.25,8|8,0:0|0:0,0:0:0:0:
312,19,130226,6,0,P|279:94|330:158,1,172.5,6|8,0:0|0:0,0:0:0:0:
426,241,131261,2,0,L|487:224,2,57.5,2|0|8,0:0|0:0|0:0,0:0:0:0:
376,281,131881,2,0,P|328:310|271:309,1,115,2|2,0:0|0:0,0:0:0:0:
210,291,132502,1,8,0:0:0:0:
120,201,132916,2,0,L|62:207,2,57.5,2|0|8,0:0|0:0|0:0,0:0:0:0:
154,147,133536,2,0,P|199:112|255:110,1,115,2|2,0:0|0:0,0:0:0:0:
318,118,134157,1,8,0:0:0:0:
442,93,134571,6,0,B|467:144|467:144|442:199,1,115,2|8,0:0|0:0,0:0:0:0:
406,248,135192,2,0,P|359:281|300:275,1,115,2|2,0:0|0:0,0:0:0:0:
242,262,135812,1,8,0:0:0:0:
157,355,136226,2,0,P|110:323|93:269,1,115,8|8,0:0|0:0,0:0:0:0:
80,207,136847,6,0,P|93:149|80:96,1,115,6|2,0:0|0:0,0:0:0:0:
64,34,137467,1,8,0:0:0:0:
192,29,137881,2,0,B|243:18|243:18|306:28,1,115,2|8,0:0|0:0,0:0:0:0:
367,42,138502,2,0,P|392:92|376:157,1,115,2|2,0:0|0:0,0:0:0:0:
351,203,139123,1,8,0:0:0:0:
334,329,139536,2,0,L|397:335,2,57.5,2|0|8,0:0|0:0|0:0,0:0:0:0:
272,315,140157,6,0,P|220:291|202:238,1,115,6|2,0:0|0:0,0:0:0:0:
211,176,140778,2,0,P|219:137|216:111,1,57.5,8|0,0:0|0:0,0:0:0:0:
187,63,141192,2,0,P|131:61|72:94,1,115,8|8,0:0|0:0,0:0:0:0:
48,209,142019,1,6,0:0:0:0:
256,192,142226,12,6,143674,0:0:0:0:
306,79,150295,6,0,L|426:64,2,115,6|2|2,0:0|0:3|0:0,0:0:0:0:
189,127,151536,1,2,0:3:0:0:
84,198,151950,2,0,P|49:237|49:308,1,115,2|2,0:0|0:3,0:0:0:0:
163,342,152778,2,0,P|198:303|198:232,1,115,2|2,0:0|0:3,0:0:0:0:
256,192,153605,12,6,155054,0:0:0:0:
199,47,156088,5,8,0:0:0:0:
199,47,156295,1,8,0:0:0:0:
88,108,156709,6,0,P|113:158|109:215,1,115,6|2,0:0|0:0,0:0:0:0:
84,273,157330,1,8,0:0:0:0:
173,362,157743,2,0,L|287:373,1,115,2|8,0:0|0:0,0:0:0:0:
345,346,158364,2,0,P|362:292|362:235,1,115,2|2,0:0|0:0,0:0:0:0:
336,177,158985,1,8,0:0:0:0:
258,76,159398,2,0,L|321:51,2,57.5,2|0|8,0:0|0:0|0:0,0:0:0:0:
207,115,160019,6,0,P|185:167|202:221,1,115,2|2,0:0|0:0,0:0:0:0:
232,276,160640,1,8,0:0:0:0:
326,363,161054,2,0,L|443:331,1,115,2|8,0:0|0:0,0:0:0:0:
472,280,161674,2,0,P|473:226|450:164,1,115,2|2,0:0|0:0,0:0:0:0:
417,116,162295,1,8,0:0:0:0:
303,174,162709,2,0,L|309:242,2,57.5,2|0|8,0:0|0:0|0:0,0:0:0:0:
257,129,163330,6,0,B|204:169|140:142,1,115,6|2,0:0|0:0,0:0:0:0:
89,123,163950,1,8,0:0:0:0:
59,246,164364,2,0,L|-9:235,2,57.5,2|0|8,0:0|0:0|0:0,0:0:0:0:
121,254,164985,2,0,P|170:260|226:301,1,115,2|2,0:0|0:0,0:0:0:0:
260,348,165605,1,8,0:0:0:0:
383,321,166019,2,0,L|417:196,1,115,2|8,0:0|0:0,0:0:0:0:
348,100,166847,6,0,P|298:72|243:82,1,115,12|8,0:0|0:0,0:0:0:0:
136,150,167674,2,0,L|166:265,1,115,8|8,0:0|0:0,0:0:0:0:
200,314,168295,2,0,P|279:341|358:310,1,172.5,6|8,0:0|0:0,0:0:0:0:
425,201,169330,2,0,L|507:205,2,57.5,8|8|8,0:3|0:3|0:3,0:0:0:0:
362,212,169950,6,0,B|320:211|298:159|298:159|259:188|211:167,1,172.5,6|8,0:0|0:0,0:0:0:0:
91,164,170985,2,0,L|136:57,1,115,2|8,0:0|0:0,0:0:0:0:
191,27,171605,2,0,P|246:14|301:29,1,115,2|2,0:0|0:0,0:0:0:0:
357,59,172226,1,8,0:0:0:0:
394,179,172640,2,0,L|462:167,2,57.5,2|0|8,0:0|0:0|0:0,0:0:0:0:
331,189,173261,6,0,B|273:176|273:176|212:188,1,115,2|2,0:0|0:0,0:0:0:0:
156,200,173881,1,8,0:0:0:0:
88,306,174295,2,0,P|133:340|189:342,1,115,2|8,0:0|0:0,0:0:0:0:
249,321,174916,2,0,P|300:295|357:301,1,115,2|2,0:0|0:0,0:0:0:0:
416,322,175536,1,8,0:0:0:0:
444,198,175950,1,2,0:0:0:0:
444,198,176157,2,0,B|406:171|406:171|337:171,1,115,2|8,0:0|0:0,0:0:0:0:
274,172,176778,1,6,0:0:0:0:
165,106,177192,6,0,P|108:100|60:129,2,115,8|8|8,0:0|0:0|0:0,0:0:0:0:
212,223,178433,2,0,L|238:344,1,115,8|8,0:0|0:0,0:0:0:0:
354,290,179261,2,0,L|329:177,1,115,8|8,0:0|0:0,0:0:0:0:
400,73,180088,5,8,0:0:0:0:
284,25,180502,2,0,P|228:12|174:28,1,115,8|8,0:0|0:0,0:0:0:0:
89,122,181330,1,8,0:0:0:0:
77,247,181743,2,0,P|129:274|186:277,1,115,8|8,0:0|0:0,0:0:0:0:
310,264,182571,6,0,B|372:258|372:258|417:219,1,115,8|2,0:3|0:0,0:0:0:0:
458,180,183192,1,6,0:0:0:0:
256,192,183398,12,0,185881,0:0:0:0:
312,96,187123,6,0,P|360:104|428:64,2,115,8|2|8,0:0|0:0|0:0,0:0:0:0:
193,51,188364,2,0,P|157:59|129:75,1,57.5,2|2,0:0|0:0,0:0:0:0:
97,116,188778,2,0,L|77:172,1,57.5,8|2,0:0|0:0,0:0:0:0:
69,233,189192,2,0,P|88:267|165:293,1,115,8|8,0:0|0:0,0:0:0:0:
218,286,189812,6,0,P|268:263|334:276,1,115,6|2,0:0|0:0,0:0:0:0:
387,286,190433,1,8,0:0:0:0:
455,179,190847,2,0,B|487:186|526:181,2,57.5,2|2|8,0:0|0:0|0:0,0:0:0:0:
352,104,191674,2,0,P|304:75|248:78,1,115,2|8,0:0|0:0,0:0:0:0:
121,98,192502,2,0,P|112:61|120:39,2,57.5,2|2|8,0:0|0:0|0:0,0:0:0:0:
136,150,193123,6,0,P|150:206|136:261,1,115,2|2,0:0|0:0,0:0:0:0:
112,320,193743,1,8,0:0:0:0:
233,354,194157,2,0,B|270:358|300:345|300:345|345:371,1,115,2|8,0:0|0:0,0:0:0:0:
363,243,194985,2,0,L|304:210,2,57.5,2|2|8,0:0|0:0|0:0,0:0:0:0:
483,204,195812,2,0,B|495:164|495:164|475:91,1,115,8|8,0:0|0:0,0:0:0:0:
426,53,196433,6,0,B|399:29|399:29|366:42|316:28,1,115,6|2,0:0|0:0,0:0:0:0:
257,31,197054,1,8,0:0:0:0:
156,107,197467,2,0,L|75:129,2,57.5,2|2|8,0:0|0:0|0:0,0:0:0:0:
270,159,198295,2,0,B|297:209|297:209|350:242,1,115,2|8,0:0|0:0,0:0:0:0:
408,350,199123,2,0,P|438:346|480:349,2,57.5,2|2|8,0:0|0:0|0:0,0:0:0:0:
346,336,199743,6,0,P|291:328|229:334,1,115,2|2,0:0|0:0,0:0:0:0:
168,341,200364,1,8,0:0:0:0:
82,247,200778,2,0,P|53:203|65:138,1,115,2|8,0:0|0:0,0:0:0:0:
159,64,201605,2,0,L|204:22,2,57.5,2|2|8,0:0|0:0|0:0,0:0:0:0:
249,153,202433,2,0,B|275:205|236:230|248:267,1,115,8|8,0:0|0:0,0:0:0:0:
264,326,203054,6,0,B|306:358|306:358|368:358,1,115,6|2,0:0|0:0,0:0:0:0:
425,331,203674,1,8,0:0:0:0:
472,213,204088,2,0,L|478:96,1,115,2|8,0:0|0:0,0:0:0:0:
438,48,204709,2,0,P|395:26|329:31,1,115,2|2,0:0|0:0,0:0:0:0:
278,68,205330,1,8,0:0:0:0:
244,189,205743,2,0,L|254:255,2,57.5,2|2|8,0:0|0:0|0:0,0:0:0:0:
214,132,206364,1,2,0:0:0:0:
182,77,206571,6,0,B|160:47|160:47|123:56|78:49,1,115,8|8,0:0|0:0,0:0:0:0:
27,163,207398,2,0,P|43:235|36:277,1,115,8|8,0:0|0:0,0:0:0:0:
162,287,208226,2,0,P|203:269|279:276,1,115,8|8,0:0|0:0,0:0:0:0:
428,107,209674,5,6,0:0:0:0:
