osu file format v14

[General]
AudioFilename: 03. GALLOWS BELL192.mp3
AudioLeadIn: 678
PreviewTime: 89571
Countdown: 0
SampleSet: Soft
StackLeniency: 0.7
Mode: 0
LetterboxInBreaks: 0
EpilepsyWarning: 1
WidescreenStoryboard: 1

[Editor]
Bookmarks: 14536,54260,63984
DistanceSpacing: 1.2
BeatDivisor: 4
GridSize: 4
TimelineZoom: 1.5

[Metadata]
Title:GALLOWS BELL
TitleUnicode:GALLOWS BELL
Artist:nano
ArtistUnicode:ナノ
Creator:theramdans
Version:Hard
Source:
Tags:nanoir buzzG Remember your color. vocaloid Hatsune Miku A_Mystery -Bakari-
BeatmapID:563691
BeatmapSetID:170942

[Difficulty]
HPDrainRate:6
CircleSize:4
OverallDifficulty:6
ApproachRate:7.5
SliderMultiplier:1.45
SliderTickRate:1

[Events]
//Background and Video events
0,0,"bggb.jpg",0,0
//Break Periods
2,54288,63194
2,143874,149263
//Storyboard Layer 0 (Background)
//Storyboard Layer 1 (Fail)
//Storyboard Layer 2 (Pass)
//Storyboard Layer 3 (Foreground)
//Storyboard Sound Samples

[TimingPoints]
1330,413.793103448276,4,2,0,30,1,0
1330,-133.333333333333,4,2,0,30,0,0
14571,-100,4,2,1,50,0,0
27605,-100,4,2,1,75,0,1
40226,-100,4,2,1,65,0,0
40847,-100,4,2,1,75,0,1
54088,-100,4,2,1,65,0,0
64019,-100,4,2,1,50,0,0
77467,-100,4,2,1,65,0,0
90502,-100,4,2,1,75,0,1
103123,-100,4,2,1,65,0,0
103743,-100,4,2,1,75,0,1
117192,-100,4,2,1,65,0,0
130226,-100,4,2,1,75,0,0
143674,-100,4,2,1,50,0,0
150295,-100,4,2,1,55,0,0
153605,-100,4,2,1,65,0,0
156709,-100,4,2,1,75,0,1
169330,-100,4,2,1,65,0,0
169950,-100,4,2,1,75,0,1
182571,-100,4,2,1,45,0,0
183192,-100,4,2,1,75,0,1
183605,-100,4,2,1,65,0,0

[Colours]
Combo1 : 64,128,128
Combo2 : 135,132,24
Combo3 : 192,192,192

[HitObjects]
72,200,1330,6,0,L|120:84,1,108.750004148483
231,47,2157,2,0,P|276:77|330:79,1,108.750004148483
402,103,2778,1,0,0:0:0:0:
471,275,3192,2,0,P|395:254|333:302,1,163.125006222725
275,224,4433,1,0,0:0:0:0:
334,303,4640,6,0,B|287:332|287:332|233:338,1,108.750004148483,2|0,0:0|0:0,0:0:0:0:
114,284,5467,2,0,B|161:255|161:255|214:248,1,108.750004148483
275,224,6088,2,0,P|338:210|375:183,1,108.750004148483
404,126,6709,1,0,0:0:0:0:
375,67,6916,1,0,0:0:0:0:
317,36,7123,2,0,P|264:43|221:81,1,108.750004148483
179,127,7743,1,0,0:0:0:0:
125,163,7950,6,0,P|75:184|24:169,2,108.750004148483,2|0|0,0:0|0:0|0:0,0:0:0:0:
300,304,9192,1,0,0:0:0:0:
300,304,9398,2,0,L|455:240,1,163.125006222725
458,129,10226,1,0,0:0:0:0:
458,129,10433,2,0,L|348:172,1,108.750004148483
308,212,11054,1,0,0:0:0:0:
243,206,11261,6,0,P|165:187|127:118,1,163.125006222725,2|0,0:0|0:0,0:0:0:0:
314,62,12502,1,0,0:0:0:0:
314,62,12709,1,0,0:0:0:0:
256,192,12916,12,0,14157,0:0:0:0:
258,187,14571,5,6,0:0:0:0:
188,134,14778,1,0,0:0:0:0:
100,138,14985,1,8,0:0:0:0:
100,138,15398,2,0,B|69:186|132:234|94:276,1,145,2|8,0:0|0:0,0:0:0:0:
20,317,16019,2,0,P|84:359|153:338,1,145,2|2,0:0|0:0,0:0:0:0:
215,289,16640,2,0,P|247:269|281:269,1,72.5,8|0,0:0|0:0,0:0:0:0:
353,318,17054,2,0,P|312:260|332:193,1,145,2|8,0:0|0:0,0:0:0:0:
385,124,17674,1,2,0:0:0:0:
321,64,17881,6,0,P|288:39|257:39,1,72.5,2|0,0:0|0:0,0:0:0:0:
239,124,18295,2,0,P|272:149|303:149,1,72.5,8|0,0:0|0:0,0:0:0:0:
385,124,18709,2,0,P|432:176|434:247,1,145,2|8,0:0|0:0,0:0:0:0:
369,306,19330,2,0,L|225:344,1,145,2|2,0:0|0:0,0:0:0:0:
146,315,19950,1,8,0:0:0:0:
89,248,20157,1,0,0:0:0:0:
108,162,20364,2,0,P|146:104|216:96,1,145,2|8,0:0|0:0,0:0:0:0:
301,115,20985,1,0,0:0:0:0:
384,140,21192,6,0,P|419:148|447:170,2,72.5,6|0|8,0:0|0:0|0:0,0:0:0:0:
320,198,21812,1,0,0:0:0:0:
320,198,22019,2,0,P|286:260|320:320,1,145,2|8,0:0|0:0,0:0:0:0:
176,320,22640,2,0,P|209:259|176:198,1,145,2|2,0:0|0:0,0:0:0:0:
105,147,23261,1,8,0:0:0:0:
21,122,23467,1,0,0:0:0:0:
87,65,23674,2,0,B|127:46|127:46|227:46,1,145,2|8,0:0|0:0,0:0:0:0:
256,218,24502,6,0,L|255:292,1,72.5,6|8,0:0|0:0,0:0:0:0:
350,358,24916,2,0,L|350:285,1,72.5,8|0,0:0|0:0,0:0:0:0:
346,198,25330,1,8,0:0:0:0:
264,134,25536,1,8,0:0:0:0:
162,157,25743,1,8,0:0:0:0:
136,248,25950,2,0,P|156:276|195:287,1,72.5,6|2,0:0|0:0,0:0:0:0:
284,251,26364,2,0,P|264:223|225:212,1,72.5,8|8,0:3|0:3,0:0:0:0:
373,178,26778,5,0,0:0:0:0:
425,108,26985,2,0,L|468:36,2,72.5,8|8|0,0:0|0:0|0:0,0:0:0:0:
338,98,27605,6,0,B|286:75|263:127|196:98,1,145,6|2,0:0|0:0,0:0:0:0:
127,46,28226,2,0,L|101:113,1,72.5,8|0,0:0|0:0,0:0:0:0:
103,200,28640,1,2,0:0:0:0:
113,287,28847,1,2,0:0:0:0:
187,331,29054,1,8,0:0:0:0:
263,289,29261,2,0,P|327:318|393:292,1,145,2|2,0:0|0:0,0:0:0:0:
330,231,29881,2,0,L|331:151,1,72.5,8|0,0:0|0:0,0:0:0:0:
357,74,30295,2,0,P|391:63|427:65,2,72.5,2|2|8,0:0|0:0|0:0,0:0:0:0:
274,104,30916,6,0,P|209:134|172:195,1,145,2|2,0:0|0:0,0:0:0:0:
186,281,31536,1,8,0:0:0:0:
112,327,31743,2,0,P|73:304|42:203,1,145,2|2,0:0|0:0,0:0:0:0:
47,126,32364,1,8,0:0:0:0:
47,126,32571,2,0,B|84:103|84:103|129:121|183:103,1,145,2|2,0:0|0:0,0:0:0:0:
263,66,33192,2,0,P|296:54|331:59,1,72.5,8|0,0:0|0:0,0:0:0:0:
396,118,33605,1,2,0:0:0:0:
418,202,33812,1,2,0:0:0:0:
384,282,34019,1,8,0:0:0:0:
304,322,34226,6,0,B|237:362|218:292|166:320,1,145,6|2,0:0|0:0,0:0:0:0:
80,340,34847,2,0,P|51:320|37:287,1,72.5,8|0,0:0|0:0,0:0:0:0:
35,200,35261,1,2,0:0:0:0:
88,131,35467,1,2,0:0:0:0:
164,87,35674,1,8,0:0:0:0:
164,87,35881,2,0,P|232:107|300:87,1,145,2|2,0:0|0:0,0:0:0:0:
386,67,36502,1,8,0:0:0:0:
468,91,36709,2,0,B|434:145|434:145|495:191|449:283,1,217.5,2|8,0:0|0:0,0:0:0:0:
365,307,37536,1,2,0:0:0:0:
278,307,37743,6,0,L|205:309,1,72.5,8|2,0:0|0:0,0:0:0:0:
147,227,38157,2,0,L|220:225,1,72.5,8|2,0:0|0:0,0:0:0:0:
278,143,38571,2,0,L|205:145,2,72.5,8|2|8,0:0|0:0|0:0,0:0:0:0:
322,58,39192,2,0,P|372:145|304:233,1,217.5,6|8,0:0|0:0,0:0:0:0:
261,302,40019,6,0,L|271:341,2,36.25,8|8|8,0:3|0:3|0:3,0:0:0:0:
240,216,40433,2,0,P|209:195|175:185,1,72.5,8|8,0:3|0:3,0:0:0:0:
170,272,40847,6,0,P|100:264|49:313,1,145,6|2,0:0|0:0,0:0:0:0:
129,348,41467,1,8,0:0:0:0:
129,348,41674,1,0,0:0:0:0:
215,341,41881,2,0,P|250:334|285:341,1,72.5,2|2,0:0|0:0,0:0:0:0:
371,358,42295,1,8,0:0:0:0:
427,291,42502,2,0,B|461:256|461:256|439:202|458:138|458:138|412:107,1,217.5,2|8,0:0|0:0,0:0:0:0:
337,76,43330,1,0,0:0:0:0:
257,109,43536,2,0,P|221:113|189:97,2,72.5,2|2|8,0:0|0:0|0:0,0:0:0:0:
337,76,44157,6,0,B|387:138|266:212|323:279,1,217.5,2|8,0:0|0:0,0:0:0:0:
386,339,44985,2,0,P|310:311|254:341,1,145,2|2,0:0|0:0,0:0:0:0:
196,275,45605,1,8,0:0:0:0:
196,275,45812,2,0,P|259:240|329:226,1,145,2|2,0:0|0:0,0:0:0:0:
413,200,46433,2,0,P|439:165|436:135,1,72.5,8|0,0:0|0:0,0:0:0:0:
382,69,46847,1,2,0:0:0:0:
302,37,47054,2,0,L|228:49,1,72.5,2|8,0:0|0:0,0:0:0:0:
152,87,47467,1,8,0:0:0:0:
152,87,47571,1,8,0:0:0:0:
152,87,47674,1,6,0:0:0:0:
182,245,48088,6,0,L|227:305,1,72.5,8|2,0:0|0:0,0:0:0:0:
277,172,48502,2,0,L|291:245,1,72.5,8|2,0:0|0:0,0:0:0:0:
376,130,48916,2,0,L|373:204,1,72.5,8|2,0:0|0:0,0:0:0:0:
475,107,49330,2,0,L|455:178,1,72.5,8|2,0:0|0:0,0:0:0:0:
397,333,49743,1,8,0:0:0:0:
77,255,50778,1,6,0:0:0:0:
256,192,50985,12,0,54088,0:0:0:0:
69,68,64019,6,0,P|94:133|67:199,1,145,6|2,0:0|0:3,0:0:0:0:
139,249,64640,1,2,0:0:0:0:
139,249,64847,1,0,0:0:0:0:
181,324,65054,2,0,L|325:351,1,145,2|2,0:0|0:3,0:0:0:0:
362,273,65674,2,0,L|219:246,1,145,2|2,0:0|0:0,0:0:0:0:
178,165,66295,6,0,P|147:150|106:147,1,72.5,2|0,0:3|0:0,0:0:0:0:
95,60,66709,1,2,0:0:0:0:
177,33,66916,1,2,0:0:0:0:
262,51,67123,2,0,L|272:11,2,36.25,2|0|2,0:3|0:0|0:3,0:0:0:0:
208,119,67536,6,0,B|277:156|326:106|326:106|423:87|478:148,1,290,2|2,0:0|0:0,0:0:0:0:
427,312,68778,1,2,0:3:0:0:
427,312,68985,2,0,P|363:341|298:315,1,145,2|2,0:0|0:0,0:0:0:0:
200,361,69605,2,0,L|210:290,1,72.5,2|0,0:3|0:0,0:0:0:0:
137,240,70019,2,0,P|43:244|65:153,1,217.5,2|2,0:0|0:3,0:0:0:0:
78,24,70847,6,0,L|124:81,1,72.5,6|0,0:0|0:0,0:0:0:0:
196,128,71261,1,2,0:3:0:0:
196,128,71467,1,0,0:0:0:0:
264,74,71674,2,0,B|297:43|297:43|338:69|393:46,1,145,2|2,0:0|0:3,0:0:0:0:
400,133,72295,2,0,B|367:164|367:164|326:138|270:160,1,145,2|2,0:0|0:0,0:0:0:0:
203,215,72916,1,2,0:3:0:0:
179,298,73123,1,0,0:0:0:0:
250,348,73330,2,0,L|399:359,1,145,2|2,0:0|0:3,0:0:0:0:
432,188,74157,6,0,B|396:161|396:161|297:160,1,145,2|2,0:0|0:3,0:0:0:0:
201,107,74778,2,0,P|286:158|250:251,1,217.5,2|2,0:0|0:0,0:0:0:0:
189,315,75605,1,2,0:0:0:0:
50,191,75812,1,8,0:0:0:0:
50,191,76847,5,8,0:0:0:0:
177,152,77054,1,8,0:0:0:0:
221,277,77261,1,8,0:0:0:0:
65,224,77467,6,0,L|90:156,1,72.5,6|0,0:0|0:0,0:0:0:0:
136,247,77881,2,0,L|112:316,1,72.5,8|0,0:0|0:0,0:0:0:0:
177,152,78295,2,0,P|228:104|299:110,1,145,2|8,0:0|0:0,0:0:0:0:
336,189,78916,2,0,L|374:336,2,145,2|2|2,0:0|0:0|0:0,0:0:0:0:
381,115,79950,2,0,P|418:98|464:105,1,72.5,2|0,0:0|0:0,0:0:0:0:
486,178,80364,1,8,0:0:0:0:
482,264,80571,1,0,0:0:0:0:
420,325,80778,6,0,P|457:350|493:349,2,72.5,2|0|8,0:0|0:0|0:0,0:0:0:0:
347,276,81398,1,0,0:0:0:0:
347,276,81605,2,0,B|313:245|313:245|270:276|219:256,1,145,2|8,0:0|0:0,0:0:0:0:
259,177,82226,2,0,P|199:138|129:149,2,145,2|2|8,0:0|0:0|0:0,0:0:0:0:
334,133,83261,2,0,L|407:99,2,72.5,2|2|8,0:0|0:0|0:0,0:0:0:0:
259,177,83881,1,8,0:0:0:0:
180,215,84088,6,0,P|171:176|181:141,2,72.5,6|2|8,0:0|0:0|0:0,0:0:0:0:
223,290,84709,1,2,0:0:0:0:
136,311,84916,2,0,P|170:364|245:375,1,145,2|8,0:0|0:0,0:0:0:0:
323,333,85536,2,0,B|368:329|396:361|396:361|423:372|461:354,2,145,2|2|8,0:0|0:0|0:0,0:0:0:0:
261,271,86571,1,2,0:0:0:0:
267,184,86778,1,2,0:0:0:0:
320,114,86985,2,0,P|353:100|389:102,1,72.5,8|8,0:0|0:0,0:0:0:0:
418,184,87398,6,0,L|427:283,1,72.5,6|8,0:0|0:0,0:0:0:0:
348,322,87812,2,0,L|341:249,1,72.5,8|8,0:0|0:0,0:0:0:0:
256,196,88226,2,0,L|262:268,2,72.5,8|8|8,0:0|0:0|0:0,0:0:0:0:
213,117,88847,2,0,P|107:88|3:121,1,217.5,6|8,0:0|0:3,0:0:0:0:
14,204,89674,6,0,L|3:243,2,36.25,8|8|8,0:3|0:3|0:3,0:0:0:0:
95,171,90088,2,0,L|85:205,3,36.25,8|8|8|8,0:3|0:3|0:3|0:3,0:0:0:0:
95,171,90502,6,0,P|165:181|210:236,1,145,6|2,0:0|0:0,0:0:0:0:
198,322,91123,1,8,0:0:0:0:
277,358,91330,1,0,0:0:0:0:
277,271,91536,2,0,P|311:253|364:249,1,72.5,2|2,0:0|0:0,0:0:0:0:
401,313,91950,1,8,0:0:0:0:
401,313,92157,2,0,L|375:163,1,145,2|2,0:0|0:0,0:0:0:0:
312,110,92778,2,0,P|279:124|239:112,1,72.5,8|0,0:0|0:0,0:0:0:0:
207,36,93192,2,0,P|241:27|274:41,2,72.5,2|2|8,0:0|0:0|0:0,0:0:0:0:
134,84,93812,6,0,B|113:154|113:154|126:226,1,145,2|2,0:0|0:0,0:0:0:0:
64,285,94433,1,8,0:0:0:0:
64,285,94640,2,0,P|124:258|200:289,1,145,2|2,0:0|0:0,0:0:0:0:
273,322,95261,1,8,0:0:0:0:
273,322,95467,2,0,B|350:310|350:310|395:249,1,145,2|2,0:0|0:0,0:0:0:0:
473,150,96088,2,0,L|403:169,1,72.5,8|0,0:0|0:0,0:0:0:0:
420,80,96502,2,0,L|498:59,2,72.5,2|2|8,0:0|0:0|0:0,0:0:0:0:
341,38,97123,6,0,P|271:27|208:60,1,145,6|2,0:0|0:0,0:0:0:0:
176,141,97743,2,0,L|155:212,1,72.5,8|0,0:0|0:0,0:0:0:0:
167,297,98157,1,2,0:0:0:0:
248,326,98364,1,2,0:0:0:0:
323,282,98571,1,8,0:0:0:0:
364,205,98778,2,0,P|340:140|271:129,1,145,2|2,0:0|0:0,0:0:0:0:
190,161,99398,1,8,0:0:0:0:
190,161,99605,2,0,P|112:226|26:171,1,217.5,2|8,0:0|0:0,0:0:0:0:
37,84,100433,1,2,0:0:0:0:
116,49,100640,6,0,L|217:70,1,72.5,8|2,0:0|0:0,0:0:0:0:
208,164,101054,2,0,L|137:149,1,72.5,8|2,0:0|0:0,0:0:0:0:
64,220,101467,2,0,L|135:234,2,72.5,8|2|8,0:0|0:0|0:0,0:0:0:0:
0,291,102088,2,0,P|57:202|24:103,1,217.5,6|8,0:0|0:0,0:0:0:0:
100,60,102916,6,0,L|95:14,2,36.25,8|8|8,0:3|0:3|0:3,0:0:0:0:
125,143,103330,2,0,P|147:171|177:190,1,72.5,8|8,0:3|0:3,0:0:0:0:
204,114,103743,6,0,P|266:147|332:124,1,145,6|2,0:0|0:0,0:0:0:0:
383,195,104364,2,0,L|389:288,1,72.5,8|0,0:0|0:0,0:0:0:0:
322,324,104778,1,2,0:0:0:0:
238,342,104985,1,2,0:0:0:0:
159,305,105192,1,8,0:0:0:0:
84,265,105398,2,0,P|146:222|215:241,1,145,2|2,0:0|0:0,0:0:0:0:
297,230,106019,2,0,P|316:191|309:160,1,72.5,8|0,0:0|0:0,0:0:0:0:
262,91,106433,2,0,L|184:104,1,72.5,2|2,0:0|0:0,0:0:0:0:
106,84,106847,1,8,0:0:0:0:
32,129,107054,6,0,L|64:271,1,145,2|2,0:0|0:0,0:0:0:0:
143,307,107674,1,8,0:0:0:0:
232,319,107881,2,0,B|312:284|351:386|442:323,1,217.5,2|8,0:0|0:0,0:0:0:0:
382,258,108709,2,0,B|396:203|396:203|366:117,1,145,2|2,0:0|0:0,0:0:0:0:
297,66,109330,2,8,P|227:51|159:71,1,145,8|2,0:0|0:0,0:0:0:0:
78,40,109950,2,0,P|133:83|134:153,1,145,8|8,0:0|0:0,0:0:0:0:
81,222,110571,6,0,L|167:245,1,72.5,6|2,0:0|0:0,0:0:0:0:
259,328,110985,2,0,L|189:309,2,72.5,8|2|8,0:0|0:0|0:0,0:0:0:0:
346,332,111605,1,2,0:0:0:0:
414,276,111812,2,0,P|427:239|421:206,1,72.5,8|2,0:0|0:0,0:0:0:0:
423,119,112226,6,0,L|350:95,1,72.5,8|2,0:0|0:0,0:0:0:0:
277,56,112640,1,8,0:0:0:0:
191,66,112847,1,2,0:0:0:0:
121,117,113054,2,0,P|94:143|87:178,1,72.5,8|2,0:0|0:0,0:0:0:0:
166,212,113467,2,0,P|193:186|200:151,1,72.5,8|2,0:0|0:0,0:0:0:0:
191,66,113881,6,0,L|136:13,1,72.5,8|2,0:0|0:0,0:0:0:0:
69,67,114295,2,0,L|122:117,1,72.5,8|2,0:0|0:0,0:0:0:0:
199,157,114709,1,8,0:0:0:0:
199,157,114916,1,2,0:0:0:0:
284,176,115123,1,8,0:0:0:0:
284,176,115330,1,2,0:0:0:0:
343,112,115536,6,0,P|377:90|414:89,1,72.5,8|2,0:0|0:0,0:0:0:0:
459,158,115950,2,0,L|424:224,1,72.5,8|2,0:0|0:0,0:0:0:0:
366,287,116364,2,0,P|322:321|254:318,1,108.75,8|8,0:0|0:0,0:0:0:0:
114,279,116985,1,8,0:0:0:0:
114,279,117088,1,8,0:0:0:0:
114,279,117192,6,0,P|156:225|130:161,1,145,6|8,0:0|0:0,0:0:0:0:
141,74,117812,2,0,L|292:36,1,145,2|2,0:0|0:0,0:0:0:0:
366,53,118433,2,0,P|413:72|426:110,1,72.5,8|0,0:0|0:0,0:0:0:0:
404,178,118847,2,0,B|380:234|430:266|409:320,1,145,2|8,0:0|0:0,0:0:0:0:
310,343,119467,2,0,P|240:328|170:343,1,145,2|2,0:0|0:0,0:0:0:0:
114,276,120088,2,0,L|91:202,1,72.5,8|0,0:0|0:0,0:0:0:0:
146,135,120502,6,0,P|211:110|272:144,1,145,2|8,0:0|0:0,0:0:0:0:
333,207,121123,2,0,B|396:247|396:247|476:243,1,145,2|2,0:0|0:0,0:0:0:0:
469,156,121743,2,0,P|440:126|404:118,1,72.5,8|0,0:0|0:0,0:0:0:0:
335,75,122157,2,0,B|269:55|269:55|190:75,1,145,2|8,0:0|0:0,0:0:0:0:
114,46,122778,2,0,P|170:87|173:157,1,145,2|2,0:0|0:0,0:0:0:0:
146,240,123398,1,8,0:0:0:0:
146,240,123812,6,0,B|213:265|213:265|292:249,1,145,6|8,0:0|0:0,0:0:0:0:
361,294,124433,2,0,P|313:242|321:172,1,145,2|2,0:0|0:0,0:0:0:0:
344,88,125054,2,0,P|333:48|300:30,1,72.5,8|0,0:0|0:0,0:0:0:0:
221,35,125467,2,0,P|150:57|80:34,1,145,2|8,0:0|0:0,0:0:0:0:
29,103,126088,2,0,L|17:258,1,145,2|2,0:0|0:0,0:0:0:0:
9,334,126709,1,8,0:0:0:0:
275,331,127123,6,0,P|318:269|400:263,1,145,6|8,0:0|0:0,0:0:0:0:
406,341,127743,2,0,L|448:186,1,145,2|2,0:0|0:0,0:0:0:0:
472,118,128364,1,8,0:0:0:0:
314,49,128778,2,0,P|347:109|314:174,1,145,2|8,0:0|0:0,0:0:0:0:
240,214,129398,1,2,0:0:0:0:
163,171,129605,2,0,L|56:150,1,108.75,8|8,0:0|0:0,0:0:0:0:
144,279,130226,6,0,B|184:305|184:305|284:305,1,145,6|2,0:0|0:0,0:0:0:0:
341,241,130847,1,8,0:0:0:0:
363,156,131054,1,0,0:0:0:0:
390,73,131261,2,0,P|356:64|320:78,2,72.5,2|2|8,0:0|0:0|0:0,0:0:0:0:
469,108,131881,6,0,L|475:252,1,145,2|2,0:0|0:0,0:0:0:0:
445,335,132502,2,0,P|406:349|373:349,1,72.5,8|0,0:0|0:0,0:0:0:0:
290,335,132916,1,2,0:0:0:0:
204,326,133123,1,2,0:0:0:0:
133,276,133330,1,8,0:0:0:0:
133,276,133536,6,0,P|91:220|99:149,1,145,2|2,0:0|0:0,0:0:0:0:
149,77,134157,1,8,0:0:0:0:
149,77,134364,1,0,0:0:0:0:
230,44,134571,2,0,L|307:31,2,72.5,2|2|8,0:0|0:0|0:0,0:0:0:0:
149,77,135192,2,0,B|190:137|190:137|274:155,1,145,2|2,0:0|0:0,0:0:0:0:
315,220,135812,2,0,P|355:231|400:222,1,72.5,8|0,0:0|0:0,0:0:0:0:
456,175,136226,2,0,L|439:104,2,72.5,8|2|8,0:0|0:0|0:0,0:0:0:0:
473,260,136847,6,0,P|431:316|361:315,1,145,6|2,0:0|0:0,0:0:0:0:
275,327,137467,2,0,L|198:356,1,72.5,8|0,0:0|0:0,0:0:0:0:
179,270,137881,2,0,L|102:299,2,72.5,2|2|8,0:0|0:0|0:0,0:0:0:0:
257,226,138502,2,0,P|281:159|262:91,1,145,2|2,0:0|0:0,0:0:0:0:
184,50,139123,1,8,0:0:0:0:
98,53,139330,1,0,0:0:0:0:
47,123,139536,2,0,L|19:191,2,72.5,2|2|8,0:0|0:0|0:0,0:0:0:0:
98,53,140157,6,0,P|166:78|235:61,1,145,6|2,0:0|0:0,0:0:0:0:
319,36,140778,2,0,P|368:31|402:45,1,72.5,8|2,0:0|0:0,0:0:0:0:
444,106,141192,1,8,0:0:0:0:
444,106,141398,1,2,0:0:0:0:
473,203,141605,1,8,0:0:0:0:
473,203,141812,1,2,0:0:0:0:
427,302,142019,1,6,0:0:0:0:
256,192,142226,12,6,143674,0:0:0:0:
61,124,150088,5,8,0:0:0:0:
61,124,150192,1,8,0:0:0:0:
61,124,150295,2,0,L|95:273,1,145,6|2,0:0|0:3,0:0:0:0:
229,374,151123,2,0,L|196:232,1,145,2|2,0:0|0:3,0:0:0:0:
181,191,151640,2,0,P|172:172|170:157,1,36.25,0|2,0:3|0:3,0:0:0:0:
153,71,151950,6,0,P|189:74|223:87,1,72.5,2|0,0:0|0:0,0:0:0:0:
292,139,152364,1,2,0:3:0:0:
350,302,152778,2,0,B|325:340|325:340|267:364|228:343,1,145,2|2,0:0|0:3,0:0:0:0:
190,322,153295,2,0,P|174:313|156:309,1,36.25,0|2,0:0|0:3,0:0:0:0:
256,192,153605,12,6,155054,0:0:0:0:
258,75,155674,5,8,0:3:0:0:
107,316,156088,1,8,0:0:0:0:
107,316,156295,1,8,0:0:0:0:
80,143,156709,6,0,B|132:159|175:138|175:138|213:167,1,145,6|2,0:0|0:0,0:0:0:0:
260,240,157330,1,8,0:0:0:0:
338,276,157536,1,0,0:0:0:0:
421,250,157743,2,0,L|492:239,2,72.5,2|2|8,0:0|0:0|0:0,0:0:0:0:
338,276,158364,2,0,P|298:316|207:304,1,145,2|2,0:0|0:0,0:0:0:0:
140,263,158985,2,0,P|106:245|64:244,1,72.5,8|0,0:0|0:0,0:0:0:0:
30,94,159398,2,0,P|23:130|32:165,1,72.5,2|2,0:0|0:0,0:0:0:0:
119,156,159812,1,8,0:0:0:0:
119,156,160019,6,0,P|188:139|256:162,1,145,2|2,0:0|0:0,0:0:0:0:
323,218,160640,1,8,0:0:0:0:
323,218,160847,2,0,B|392:242|392:242|458:213,1,145,2|2,0:0|0:0,0:0:0:0:
459,56,161467,1,8,0:0:0:0:
459,56,161674,2,0,B|390:32|390:32|319:62,1,145,2|2,0:0|0:0,0:0:0:0:
256,115,162295,2,0,L|203:205,1,72.5,8|2,0:0|0:0,0:0:0:0:
181,256,162709,2,0,P|212:282|261:279,2,72.5,2|2|8,0:0|0:0|0:0,0:0:0:0:
96,234,163330,6,0,L|127:84,1,145,6|2,0:0|0:0,0:0:0:0:
203,52,163950,1,8,0:0:0:0:
288,37,164157,1,0,0:0:0:0:
373,55,164364,2,0,L|448:47,2,72.5,2|2|8,0:0|0:0|0:0,0:0:0:0:
312,118,164985,2,0,P|285:183|311:248,1,145,2|2,0:0|0:0,0:0:0:0:
373,186,165605,1,8,0:0:0:0:
373,186,165812,2,0,L|228:195,1,145,2|2,0:0|0:0,0:0:0:0:
147,230,166433,1,8,0:0:0:0:
157,143,166640,1,2,0:0:0:0:
157,143,166847,6,0,B|107:127|107:127|69:157|16:138,2,145,8|8|8,0:0|0:0|0:0,0:0:0:0:
106,354,168088,1,8,0:0:0:0:
106,354,168295,2,0,P|164:315|233:328,1,145,6|2,0:0|0:0,0:0:0:0:
319,307,168916,1,8,0:0:0:0:
386,251,169123,6,0,L|424:253,2,36.25,8|8|8,0:3|0:3|0:3,0:0:0:0:
339,177,169536,2,0,P|343:141|336:105,1,72.5,8|8,0:3|0:3,0:0:0:0:
253,77,169950,6,0,P|185:98|115:84,1,145,6|2,0:0|0:0,0:0:0:0:
39,128,170571,2,0,P|19:164|28:212,1,72.5,8|0,0:0|0:0,0:0:0:0:
91,245,170985,1,2,0:0:0:0:
173,272,171192,1,2,0:0:0:0:
250,233,171398,1,8,0:0:0:0:
250,144,171605,2,0,P|305:105|360:144,1,145,2|2,0:0|0:0,0:0:0:0:
445,220,172226,2,0,L|374:231,1,72.5,8|0,0:0|0:0,0:0:0:0:
438,307,172640,2,0,L|513:296,2,72.5,2|2|8,0:0|0:0|0:0,0:0:0:0:
357,343,173261,6,0,P|306:295|235:292,1,145,2|2,0:0|0:0,0:0:0:0:
171,233,173881,1,8,0:0:0:0:
223,163,174088,2,0,P|293:160|345:111,1,145,2|2,0:0|0:0,0:0:0:0:
305,33,174709,1,8,0:0:0:0:
305,33,174916,2,0,L|160:35,1,145,2|2,0:0|0:0,0:0:0:0:
90,88,175536,1,8,0:0:0:0:
90,88,175743,2,0,L|101:176,1,72.5,2|8,0:0|0:0,0:0:0:0:
39,225,176157,2,0,P|99:188|166:211,1,145,8|8,0:0|0:0,0:0:0:0:
224,276,176778,6,0,L|270:337,1,72.5,6|2,0:0|0:0,0:0:0:0:
347,298,177192,2,0,P|413:275|489:297,2,145,8|8|8,0:0|0:0|0:0,0:0:0:0:
297,226,178226,1,2,0:0:0:0:
295,138,178433,2,0,L|295:61,1,72.5,8|2,0:0|0:0,0:0:0:0:
363,11,178847,2,0,P|296:33|220:11,2,145,8|8|8,0:0|0:0|0:0,0:0:0:0:
437,56,179881,1,2,0:0:0:0:
461,139,180088,6,0,L|481:218,1,72.5,8|2,0:0|0:0,0:0:0:0:
419,273,180502,1,8,0:0:0:0:
419,273,180709,1,2,0:0:0:0:
350,326,180916,2,0,P|297:280|225:277,1,145,8|8,0:0|0:0,0:0:0:0:
145,309,181536,1,2,0:0:0:0:
57,310,181743,2,0,P|31:276|19:243,1,72.5,8|2,0:0|0:0,0:0:0:0:
14,161,182157,2,0,P|48:135|81:123,1,72.5,8|2,0:0|0:0,0:0:0:0:
140,183,182571,6,0,P|190:202|275:163,1,145,8|2,0:3|0:0,0:0:0:0:
199,109,183192,1,6,0:0:0:0:
256,192,183398,12,2,186502,0:0:0:0:
354,141,187123,6,0,P|319:107|283:98,1,72.5,8|0,0:0|0:0,0:0:0:0:
211,84,187536,1,2,0:0:0:0:
132,122,187743,1,2,0:0:0:0:
112,206,187950,2,0,L|138:285,1,72.5,8|0,0:0|0:0,0:0:0:0:
207,323,188364,5,2,0:0:0:0:
231,239,188571,1,2,0:0:0:0:
331,273,188778,1,8,0:0:0:0:
231,239,188985,1,2,0:0:0:0:
316,148,189192,1,8,0:0:0:0:
316,148,189398,2,0,P|339:106|338:70,1,72.5,2|8,0:0|0:0,0:0:0:0:
470,41,189812,6,0,B|452:88|452:88|476:141|440:189,1,145,6|2,0:0|0:0,0:0:0:0:
371,223,190433,2,0,P|336:232|306:277,1,72.5,8|0,0:0|0:0,0:0:0:0:
292,343,190847,1,2,0:0:0:0:
205,348,191054,1,2,0:0:0:0:
130,302,191261,2,0,L|45:307,1,72.5,8|0,0:0|0:0,0:0:0:0:
28,193,191674,6,0,L|100:188,1,72.5,2|2,0:0|0:0,0:0:0:0:
176,145,192088,1,8,0:0:0:0:
216,67,192295,1,0,0:0:0:0:
298,40,192502,2,0,P|328:44|374:64,1,72.5,2|2,0:0|0:0,0:0:0:0:
413,133,192916,1,8,0:0:0:0:
442,216,193123,6,0,B|416:225|397:218|397:218|367:269|316:279,1,145,2|2,0:0|0:0,0:0:0:0:
254,223,193743,2,0,P|211:203|171:206,1,72.5,8|0,0:0|0:0,0:0:0:0:
104,230,194157,1,2,0:0:0:0:
53,300,194364,1,2,0:0:0:0:
114,361,194571,2,0,B|149:356|149:356|194:364,1,72.5,8|0,0:0|0:0,0:0:0:0:
254,223,194985,6,0,L|244:149,2,72.5,2|2|8,0:0|0:0|0:0,0:0:0:0:
321,279,195605,1,2,0:0:0:0:
407,273,195812,1,8,0:0:0:0:
434,190,196019,1,2,0:0:0:0:
434,190,196123,1,8,0:0:0:0:
434,190,196226,1,2,0:0:0:0:
363,65,196433,6,0,B|333:95|246:78|246:78|221:101,1,145,6|2,0:0|0:0,0:0:0:0:
198,175,197054,2,0,P|187:209|164:237,1,72.5,8|0,0:0|0:0,0:0:0:0:
84,272,197467,1,2,0:0:0:0:
28,205,197674,1,2,0:0:0:0:
66,126,197881,1,8,0:0:0:0:
127,63,198088,6,0,P|196:47|260:78,1,145,2|2,0:0|0:0,0:0:0:0:
326,135,198709,2,0,P|365:140|405:138,1,72.5,8|0,0:0|0:0,0:0:0:0:
461,197,199123,1,2,0:0:0:0:
459,285,199330,2,0,L|510:299,2,36.25,2|8|2,0:0|0:0|0:0,0:0:0:0:
373,302,199743,6,0,P|303:314|234:293,1,145,2|2,0:0|0:0,0:0:0:0:
176,228,200364,2,0,B|152:186|152:186|150:143,1,72.5,8|0,0:0|0:0,0:0:0:0:
210,53,200778,2,0,B|234:95|234:95|236:138,1,72.5,2|2,0:0|0:0,0:0:0:0:
267,200,201192,1,8,0:0:0:0:
346,166,201398,2,0,P|412:188|441:252,1,145,2|2,0:0|0:0,0:0:0:0:
385,320,202019,5,8,0:0:0:0:
300,340,202226,1,2,0:0:0:0:
218,309,202433,2,0,B|186:294|186:294|144:305,1,72.5,8|2,0:0|0:0,0:0:0:0:
106,309,202743,2,0,P|88:306|71:299,1,36.25,8|2,0:0|0:0,0:0:0:0:
80,192,203054,6,0,B|121:164|121:164|215:175,1,145,6|2,0:0|0:0,0:0:0:0:
301,159,203674,1,8,0:0:0:0:
365,100,203881,1,0,0:0:0:0:
306,35,204088,2,0,P|257:21|217:22,1,72.5,2|2,0:0|0:0,0:0:0:0:
169,77,204502,1,8,0:0:0:0:
301,159,204709,6,0,P|316:214|273:310,1,145,2|2,0:0|0:0,0:0:0:0:
213,340,205330,2,0,L|123:330,1,72.5,8|0,0:0|0:0,0:0:0:0:
72,278,205743,1,2,0:0:0:0:
59,191,205950,1,2,0:0:0:0:
94,111,206157,1,8,0:0:0:0:
154,47,206364,1,2,0:0:0:0:
232,84,206571,6,0,L|302:66,1,72.5,8|2,0:0|0:0,0:0:0:0:
253,164,206985,2,0,L|183:182,1,72.5,8|2,0:0|0:0,0:0:0:0:
258,261,207398,2,0,L|328:243,1,72.5,8|2,0:0|0:0,0:0:0:0:
373,317,207812,1,8,0:0:0:0:
447,272,208019,1,2,0:0:0:0:
459,185,208226,1,8,0:0:0:0:
419,107,208433,1,2,0:0:0:0:
339,71,208640,1,8,0:0:0:0:
339,71,209674,5,6,0:0:0:0:
