osu file format v14

[General]
AudioFilename: 03. GALLOWS BELL192.mp3
AudioLeadIn: 678
PreviewTime: 89571
Countdown: 0
SampleSet: Soft
StackLeniency: 0.7
Mode: 0
LetterboxInBreaks: 0
EpilepsyWarning: 1
WidescreenStoryboard: 1

[Editor]
Bookmarks: 14536,54260,63984
DistanceSpacing: 1
BeatDivisor: 4
GridSize: 4
TimelineZoom: 2.000002

[Metadata]
Title:GALLOWS BELL
TitleUnicode:GALLOWS BELL
Artist:nano
ArtistUnicode:ナノ
Creator:theramdans
Version:Easy
Source:
Tags:nanoir buzzG Remember your color. vocaloid Hatsune Miku A_Mystery -Bakari-
BeatmapID:413664
BeatmapSetID:170942

[Difficulty]
HPDrainRate:2
CircleSize:3
OverallDifficulty:2
ApproachRate:3
SliderMultiplier:0.9
SliderTickRate:1

[Events]
//Background and Video events
0,0,"bggb.jpg",0,0
//Break Periods
2,54288,62579
2,117192,128786
2,143874,148855
//Storyboard Layer 0 (Background)
//Storyboard Layer 1 (Fail)
//Storyboard Layer 2 (Pass)
//Storyboard Layer 3 (Foreground)
//Storyboard Sound Samples

[TimingPoints]
1330,413.793103448276,4,2,0,30,1,0
14571,-100,4,2,1,50,0,0
27605,-100,4,2,1,75,0,1
40226,-100,4,2,1,65,0,0
40847,-100,4,2,1,75,0,1
54088,-100,4,2,1,65,0,0
64019,-100,4,2,1,50,0,0
77467,-100,4,2,1,65,0,0
90502,-100,4,2,1,75,0,1
103123,-100,4,2,1,65,0,0
103743,-100,4,2,1,75,0,1
117192,-100,4,2,1,65,0,0
130226,-100,4,2,1,75,0,0
143674,-100,4,2,1,50,0,0
150295,-100,4,2,1,55,0,0
153605,-100,4,2,1,65,0,0
156709,-100,4,2,1,75,0,1
169330,-100,4,2,1,65,0,0
169950,-100,4,2,1,75,0,1
182571,-100,4,2,1,45,0,0
183192,-100,4,2,1,75,0,1
183605,-100,4,2,1,65,0,0

[Colours]
Combo1 : 64,128,128
Combo2 : 135,132,24
Combo3 : 192,192,192

[HitObjects]
144,128,1330,6,0,L|312:56,1,180
404,208,2985,2,0,L|238:278,1,180,2|0,0:0|0:0,0:0:0:0:
58,282,4640,6,0,P|19:205|66:133,1,180
232,59,6295,2,0,P|271:135|224:207,1,180,2|0,0:0|0:0,0:0:0:0:
155,265,7536,1,0,0:0:0:0:
223,322,7950,6,0,B|253:346|253:346|394:345,1,180
445,172,9605,2,0,B|415:148|415:148|274:149,1,180,2|0,0:0|0:0,0:0:0:0:
184,135,10847,1,0,0:0:0:0:
105,180,11261,2,0,P|51:246|77:329,2,180,0|0|2,0:0|0:0|0:0,0:0:0:0:
279,217,14571,6,0,B|340:188|390:248|458:216,2,180,6|2|2,0:0|0:0|0:0,0:0:0:0:
193,244,16640,1,8,0:0:0:0:
125,182,17054,2,0,P|109:142|120:99,1,90,2|8,0:0|0:0,0:0:0:0:
187,39,17881,6,0,L|283:18,2,90,2|8|2,0:0|0:0|0:0,0:0:0:0:
119,99,19123,1,8,0:0:0:0:
191,151,19536,2,0,B|277:180|353:150|353:150|401:169|393:248,1,270,2|8,0:0|0:0,0:0:0:0:
310,273,21192,6,0,L|316:369,2,90,6|8|2,0:0|0:0|0:0,0:0:0:0:
235,222,22433,1,8,0:0:0:0:
145,234,22847,2,0,P|60:217|35:135,1,180,2|2,0:0|0:0,0:0:0:0:
62,49,24088,1,8,0:0:0:0:
256,192,24502,12,6,25950,0:0:0:0:
292,284,27605,6,0,L|304:149,1,135,6|8,0:0|0:0,0:0:0:0:
227,105,28640,1,2,0:0:0:0:
138,87,29054,2,0,P|53:91|27:172,1,180,8|8,0:0|0:0,0:0:0:0:
81,244,30295,6,0,L|169:307,1,90,2|8,0:0|0:0,0:0:0:0:
241,319,31123,1,2,0:0:0:0:
308,258,31536,2,0,B|345:213|265:152|301:85,1,180,8|8,0:0|0:0,0:0:0:0:
381,45,32778,1,2,0:0:0:0:
460,86,33192,2,0,B|496:131|416:192|452:258,1,180,8|8,0:0|0:0,0:0:0:0:
379,311,34433,5,2,0:0:0:0:
291,334,34847,2,0,B|248:356|200:333|200:333|166:362|119:354,1,180,8|8,0:0|0:0,0:0:0:0:
48,300,36088,2,0,P|78:271|129:268,1,90,2|8,0:0|0:0,0:0:0:0:
210,239,36916,2,0,L|248:139,1,90,2|8,0:0|0:0,0:0:0:0:
312,98,37743,6,0,P|275:72|231:66,1,90,8|8,0:0|0:0,0:0:0:0:
162,125,38571,2,0,L|116:259,1,135,8|6,0:0|0:0,0:0:0:0:
230,328,39812,1,8,0:0:0:0:
319,336,40226,2,0,P|363:334|403:314,1,90,8|8,0:3|0:3,0:0:0:0:
434,282,40847,6,0,P|452:217|436:152,1,135,6|8,0:0|0:0,0:0:0:0:
376,85,41881,1,2,0:0:0:0:
286,78,42295,2,0,L|200:50,2,90,8|2|8,0:0|0:0|0:0,0:0:0:0:
324,159,43536,1,2,0:0:0:0:
238,187,43950,1,8,0:0:0:0:
159,143,44364,6,0,P|81:179|68:264,1,180,2|2,0:0|0:0,0:0:0:0:
125,334,45605,1,8,0:0:0:0:
214,319,46019,2,0,P|253:298|281:264,1,90,2|8,0:0|0:0,0:0:0:0:
360,219,46847,2,0,B|409:202|450:216|450:216|495:196|501:165|493:144,1,180,2|6,0:0|0:0,0:0:0:0:
445,72,48088,5,8,0:0:0:0:
362,35,48502,2,0,P|317:30|275:46,2,90,2|8|2,0:0|0:0|0:0,0:0:0:0:
374,124,49743,1,8,0:0:0:0:
184,242,50778,5,6,0:0:0:0:
256,192,50985,12,0,54088,0:0:0:0:
382,137,64019,6,0,P|324:169|264:144,1,135,6|2,0:0|0:3,0:0:0:0:
190,91,65054,1,2,0:0:0:0:
122,150,65467,2,0,L|85:247,1,90,2|2,0:3|0:0,0:0:0:0:
101,323,66295,1,2,0:3:0:0:
188,345,66709,2,0,P|231:352|272:335,1,90,2|2,0:0|0:3,0:0:0:0:
346,282,67536,6,0,B|367:260|409:262|409:262|452:204|409:159|409:159|382:133|324:147,1,270,2|2,0:0|0:3,0:0:0:0:
237,169,69192,2,0,P|190:162|143:185,1,90,2|2,0:0|0:3,0:0:0:0:
164,268,70019,2,0,P|210:274|257:251,1,90,2|2,0:0|0:3,0:0:0:0:
331,217,70847,6,0,B|372:196|372:196|428:195,2,90,6|2|2,0:0|0:3|0:0,0:0:0:0:
269,150,72088,1,2,0:3:0:0:
338,94,72502,2,0,P|257:62|187:112,1,180,2|2,0:0|0:0,0:0:0:0:
160,198,73743,1,2,0:3:0:0:
247,223,74157,2,0,P|187:284|101:269,2,180,2|2|8,0:0|0:0|0:0,0:0:0:0:
362,274,76847,6,0,L|412:310,2,45,8|8|8,0:0|0:0|0:0,0:0:0:0:
326,246,77467,6,0,P|289:221|244:220,1,90,6|8,0:0|0:0,0:0:0:0:
155,230,78295,2,0,P|122:200|120:156,1,90,2|8,0:0|0:0,0:0:0:0:
169,80,79123,2,0,B|204:62|240:83|240:83|286:51|341:71,1,180,2|2,0:0|0:0,0:0:0:0:
427,94,80364,1,8,0:0:0:0:
488,160,80778,6,0,P|494:204|483:252,1,90,2|8,0:0|0:0,0:0:0:0:
432,321,81605,2,0,P|383:333|343:328,1,90,2|8,0:0|0:0,0:0:0:0:
274,270,82433,2,0,B|209:309|148:239|99:266,1,180,2|2,0:0|0:0,0:0:0:0:
27,320,83674,1,8,0:0:0:0:
18,230,84088,6,0,B|-10:185|-10:185|51:74,1,180,6|2,0:0|0:0,0:0:0:0:
138,96,85330,1,8,0:0:0:0:
225,74,85743,2,0,B|286:184|286:184|258:229,1,180,2|2,0:0|0:0,0:0:0:0:
210,307,86985,1,8,0:0:0:0:
256,192,87398,12,6,88847,0:0:0:0:
153,82,90502,6,0,P|88:80|51:133,1,135,6|8,0:0|0:0,0:0:0:0:
72,221,91536,1,2,0:0:0:0:
123,294,91950,2,0,B|174:325|228:268|299:301,1,180,8|8,0:0|0:0,0:0:0:0:
386,280,93192,2,0,L|444:202,1,90,2|8,0:0|0:0,0:0:0:0:
370,150,94019,6,0,L|316:222,2,90,2|8|2,0:0|0:0|0:0,0:0:0:0:
456,122,95261,1,8,0:0:0:0:
386,62,95674,2,0,P|260:74|224:196,1,270,2|8,0:0|0:0,0:0:0:0:
168,267,97330,6,0,P|125:279|81:276,1,90,2|8,0:0|0:0,0:0:0:0:
18,211,98157,2,0,P|11:166|20:122,1,90,2|8,0:0|0:0,0:0:0:0:
77,52,98985,2,0,B|108:25|108:25|165:59|242:28,1,180,2|2,0:0|0:0,0:0:0:0:
322,69,100226,1,8,0:0:0:0:
365,147,100640,6,0,L|405:227,1,90,8|8,0:0|0:0,0:0:0:0:
377,311,101467,2,0,P|325:352|258:350,1,135,8|6,0:0|0:0,0:0:0:0:
137,289,102709,1,8,0:0:0:0:
69,229,103123,2,0,L|46:135,1,90,8|8,0:3|0:3,0:0:0:0:
39,97,103743,6,0,P|75:43|140:40,1,135,6|8,0:0|0:0,0:0:0:0:
213,93,104778,1,2,0:0:0:0:
289,48,105192,2,0,P|288:135|215:181,1,180,8|8,0:0|0:0,0:0:0:0:
135,218,106433,1,2,0:0:0:0:
45,232,106847,6,0,P|99:300|185:291,1,180,8|8,0:0|0:0,0:0:0:0:
275,288,108088,2,0,L|348:339,2,90,2|8|2,0:0|0:0|0:0,0:0:0:0:
230,209,109330,1,8,0:0:0:0:
146,173,109743,2,0,P|213:120|296:146,1,180,2|6,0:0|0:0,0:0:0:0:
367,202,110985,6,0,L|445:257,2,90,8|8|8,0:0|0:0|0:0,0:0:0:0:
285,239,112226,1,8,0:0:0:0:
238,315,112640,2,0,P|149:310|79:363,1,180,8|8,0:0|0:0,0:0:0:0:
21,294,113881,6,0,L|0:202,1,90,8|8,0:0|0:0,0:0:0:0:
87,180,114709,2,0,L|84:90,1,90,8|8,0:0|0:0,0:0:0:0:
152,31,115536,2,0,P|238:29|287:101,1,180,2|8,0:0|0:0,0:0:0:0:
182,288,130226,6,0,P|242:317|305:297,1,135,6|8,0:0|0:0,0:0:0:0:
376,242,131261,1,2,0:0:0:0:
425,166,131674,1,8,0:0:0:0:
384,85,132088,2,0,P|310:36|224:53,1,180,2|2,0:0|0:0,0:0:0:0:
158,115,133330,1,8,0:0:0:0:
109,190,133743,6,0,L|9:193,2,90,2|8|2,0:0|0:0|0:0,0:0:0:0:
188,233,134985,1,8,0:0:0:0:
256,290,135398,2,0,L|345:287,1,90,2|8,0:0|0:0,0:0:0:0:
411,226,136226,2,0,P|403:159|367:103,1,135,8|6,0:0|0:0,0:0:0:0:
238,65,137467,6,0,L|137:69,1,90,8|2,0:0|0:0,0:0:0:0:
124,156,138295,2,0,P|181:222|267:212,2,180,8|8|8,0:0|0:0|0:0,0:0:0:0:
36,176,140364,5,2,0:0:0:0:
72,260,140778,2,0,P|100:294|140:314,1,90,8|8,0:0|0:0,0:0:0:0:
229,327,141605,1,8,0:0:0:0:
256,192,142019,12,6,143674,0:0:0:0:
321,112,150295,6,0,P|280:97|235:97,1,90,6|2,0:0|0:3,0:0:0:0:
153,136,151123,2,0,L|97:223,1,90,2|2,0:0|0:3,0:0:0:0:
146,290,151950,2,0,B|214:263|249:318|322:288,2,180,2|2|2,0:0|0:0|0:0,0:0:0:0:
56,278,154019,5,2,0:3:0:0:
27,192,154433,2,0,P|66:138|131:125,1,135,2|6,0:0|0:0,0:0:0:0:
433,67,156709,6,0,B|402:90|402:90|305:90,1,135,6|8,0:0|0:0,0:0:0:0:
220,60,157743,1,2,0:0:0:0:
130,48,158157,1,8,0:0:0:0:
61,107,158571,2,0,P|19:183|43:268,1,180,2|2,0:0|0:0,0:0:0:0:
118,317,159812,1,8,0:0:0:0:
207,326,160226,6,0,L|301:302,1,90,2|8,0:0|0:0,0:0:0:0:
369,253,161054,2,0,L|395:159,1,90,2|8,0:0|0:0,0:0:0:0:
340,93,161881,2,0,B|314:51|314:51|254:85|187:57,1,180,2|2,0:0|0:0,0:0:0:0:
98,52,163123,1,8,0:0:0:0:
44,124,163536,6,0,P|19:168|20:216,2,90,2|8|2,0:0|0:0|0:0,0:0:0:0:
133,131,164778,1,8,0:0:0:0:
164,216,165192,2,0,B|214:281|178:341|178:341|260:314|308:346,1,270,2|8,0:0|0:0,0:0:0:0:
369,279,166847,6,0,P|329:253|286:244,1,90,8|8,0:0|0:0,0:0:0:0:
268,156,167674,2,0,P|305:131|348:121,1,90,8|8,0:0|0:0,0:0:0:0:
394,123,168295,2,0,B|448:136|488:104|488:104|524:132,1,135,6|8,0:0|0:0,0:0:0:0:
492,212,169330,2,0,L|445:288,1,90,8|8,0:3|0:3,0:0:0:0:
414,321,169950,6,0,P|354:350|287:348,1,135,6|8,0:0|0:0,0:0:0:0:
204,312,170985,1,2,0:0:0:0:
140,248,171398,1,8,0:0:0:0:
50,233,171812,2,0,P|101:164|187:171,1,180,2|2,0:0|0:0,0:0:0:0:
276,192,173054,1,8,0:0:0:0:
306,106,173467,6,0,B|337:87|337:87|401:112|478:90,1,180,2|2,0:0|0:0,0:0:0:0:
494,179,174709,1,8,0:0:0:0:
478,268,175123,2,0,B|400:246|336:271|336:271|305:252,1,180,2|2,0:0|0:0,0:0:0:0:
223,216,176364,1,8,0:0:0:0:
159,280,176778,6,0,L|63:307,2,90,6|8|8,0:0|0:0|0:0,0:0:0:0:
223,216,178019,1,8,0:0:0:0:
265,136,178433,2,0,L|351:111,2,90,8|8|8,0:0|0:0|0:0,0:0:0:0:
175,125,179674,1,8,0:0:0:0:
94,164,180088,6,0,P|61:198|51:252,1,90,8|8,0:0|0:0,0:0:0:0:
125,288,180916,2,0,P|158:254|168:200,1,90,8|8,0:0|0:0,0:0:0:0:
175,125,181743,2,0,P|260:127|298:204,1,180,2|8,0:0|0:3,0:0:0:0:
256,332,183192,1,6,0:0:0:0:
256,192,183398,12,2,185881,0:0:0:0:
132,186,187536,6,0,P|123:243|146:276,1,90,2|8,0:0|0:0,0:0:0:0:
214,317,188364,2,0,L|316:335,1,90,2|8,0:0|0:0,0:0:0:0:
389,308,189192,2,0,P|419:249|398:187,1,135,8|6,0:0|0:0,0:0:0:0:
312,83,190433,5,8,0:0:0:0:
222,77,190847,2,0,L|113:79,1,90,2|8,0:0|0:0,0:0:0:0:
89,158,191674,2,0,L|-19:160,2,90,2|8|2,0:0|0:0|0:0,0:0:0:0:
161,212,192916,1,8,0:0:0:0:
246,186,193330,6,0,P|290:177|333:190,1,90,2|8,0:0|0:0,0:0:0:0:
369,272,194157,2,0,P|402:252|423:207,1,90,2|8,0:0|0:0,0:0:0:0:
396,120,194985,1,2,0:0:0:0:
334,54,195398,1,8,0:0:0:0:
247,27,195812,2,0,B|195:48|152:36|152:36|127:69,1,135,8|6,0:0|0:0,0:0:0:0:
89,195,197054,6,0,L|85:294,1,90,8|2,0:0|0:0,0:0:0:0:
146,351,197881,1,8,0:0:0:0:
199,278,198295,2,0,P|223:260|286:266,1,90,2|8,0:0|0:0,0:0:0:0:
360,304,199123,2,0,L|450:270,1,90,2|8,0:0|0:0,0:0:0:0:
439,182,199950,5,2,0:0:0:0:
375,117,200364,2,0,P|336:99|274:104,1,90,8|2,0:0|0:0,0:0:0:0:
229,166,201192,1,8,0:0:0:0:
183,243,201605,2,0,P|139:265|90:266,1,90,2|8,0:0|0:0,0:0:0:0:
20,223,202433,2,0,L|46:89,1,135,8|6,0:0|0:0,0:0:0:0:
170,37,203674,6,0,P|213:27|257:37,2,90,8|2|8,0:0|0:0|0:0,0:0:0:0:
133,119,204916,2,0,L|147:214,1,90,2|8,0:0|0:0,0:0:0:0:
236,211,205743,2,0,L|249:300,1,90,2|8,0:0|0:0,0:0:0:0:
334,329,206571,6,0,P|371:305|415:302,1,90,8|8,0:0|0:0,0:0:0:0:
466,227,207398,2,0,L|418:132,1,90,8|8,0:0|0:0,0:0:0:0:
374,71,208226,2,0,P|336:47|292:53,1,90,8|8,0:0|0:0,0:0:0:0:
198,257,209674,5,6,0:0:0:0:
