osu file format v12

[General]
AudioFilename: Born to Be.mp3
AudioLeadIn: 1000
PreviewTime: 61778
Countdown: 0
SampleSet: Soft
StackLeniency: 0.7
Mode: 0
LetterboxInBreaks: 0
WidescreenStoryboard: 0

[Editor]
Bookmarks: 674,86690
DistanceSpacing: 1
BeatDivisor: 2
GridSize: 4

[Metadata]
Title:Born to be (TV Size)
TitleUnicode:Born to be (TV Size)
Artist:nano
ArtistUnicode:ナノ
Creator:AllStar12
Version:Normal
Source:魔法戦争
Tags:Mahou Sensou Magical Warfare WEST GROUND ending Karia
BeatmapID:353296
BeatmapSetID:141505

[Difficulty]
HPDrainRate:3
CircleSize:3
OverallDifficulty:4
ApproachRate:5
SliderMultiplier:1.1
SliderTickRate:1

[Events]
//Background and Video events
0,0,"Background Image 2.jpg",0,0
Video,0,"video.avi"
//Break Periods
//Storyboard Layer 0 (Background)
//Storyboard Layer 1 (Fail)
//Storyboard Layer 2 (Pass)
//Storyboard Layer 3 (Foreground)
//Storyboard Sound Samples
//Background Colour Transformations
3,100,163,162,255

[TimingPoints]
685,312.5,4,2,1,40,1,0
685,-100,4,2,1,40,0,0
4747,-100,4,1,1,50,0,0
5060,-100,4,1,1,60,0,0
5372,-100,4,1,1,70,0,0
5685,-100,4,1,2,75,0,0
18185,-100,4,1,2,55,0,0
20685,-100,4,1,1,60,0,0
30685,-100,4,1,1,60,0,0
35685,-100,4,1,1,60,0,0
38185,-100,4,1,1,65,0,0
40060,-100,4,1,1,50,0,0
40685,-100,4,1,2,60,0,0
50685,-100,4,1,1,50,0,0
55685,-100,4,1,1,50,0,0
55997,-100,4,1,1,35,0,0
56935,-100,4,1,1,45,0,0
58185,-100,4,1,1,55,0,0
59435,-100,4,1,1,60,0,0
60685,-100,4,1,2,40,0,0
61935,-100,4,2,1,35,0,0
63185,-100,4,1,2,75,0,1
81310,-100,4,1,2,40,0,1
81935,-100,4,1,2,75,0,1
83185,-100,4,1,2,60,0,0

[Colours]
Combo1 : 202,0,202
Combo2 : 0,174,0
Combo3 : 0,112,249
Combo4 : 193,11,38
Combo5 : 217,163,0

[HitObjects]
55,68,685,2,0,P|85:185|205:224,1,220,0|2,0:0|0:0,0:0:0:0:
250,153,1622,1,0,0:0:0:0:
250,153,1778,2,0,P|343:139|412:175,1,165,2|2,0:0|0:0,0:0:0:0:
448,269,2560,2,0,L|369:358,1,110,2|0,0:0|0:0,0:0:0:0:
365,242,3185,6,0,L|286:331,1,110,2|0,0:0|0:0,0:0:0:0:
236,230,3810,2,0,L|125:252,1,110,2|2,0:0|0:0,0:0:0:0:
75,237,4278,2,0,P|32:157|58:74,1,165,2|8,0:0|0:0,0:0:0:0:
146,37,5060,1,8,0:0:0:0:
251,66,5372,1,8,0:0:0:0:
252,175,5685,5,4,0:0:0:0:
348,232,5997,2,0,P|401:242|453:228,2,110,8|0|8,0:0|0:0|0:0,0:0:0:0:
252,175,6935,2,0,P|192:159|140:170,1,110,0|8,0:0|0:0,0:0:0:0:
57,233,7560,2,0,P|44:304|61:351,1,110,0|8,0:0|0:0,0:0:0:0:
164,335,8185,5,4,0:0:0:0:
215,239,8497,1,8,0:0:0:0:
179,134,8810,2,0,P|229:94|286:99,1,110,0|8,0:0|0:0,0:0:0:0:
381,109,9435,2,0,P|376:55|345:10,2,110,0|8|0,0:0|0:0|0:0,0:0:0:0:
273,94,10372,2,0,P|269:149|292:198,1,110,8|4,0:0|0:0,0:0:0:0:
346,293,10997,6,0,P|301:338|253:355,1,110,8|0,0:0|0:0,0:0:0:0:
150,334,11622,1,8,0:0:0:0:
110,231,11935,1,0,0:0:0:0:
177,144,12247,1,8,0:0:0:0:
287,125,12560,2,0,P|348:136|412:163,1,110,0|8,0:0|0:0,0:0:0:0:
466,235,13185,6,0,P|408:261|345:279,1,110,4|8,0:0|0:0,0:0:0:0:
265,224,13810,2,0,P|201:164|188:133,1,110,0|8,0:0|0:0,0:0:0:0:
280,79,14435,6,0,P|320:116|342:165,1,110,0|8,0:0|0:0,0:0:0:0:
362,274,15060,2,0,L|411:299,2,55,0|0|8,0:0|0:0|0:0,0:0:0:0:
265,224,15685,1,4,0:0:0:0:
256,192,15841,12,4,18185,0:0:0:0:
256,192,18810,5,4,0:0:0:0:
256,192,19435,1,4,0:0:0:0:
173,119,19747,2,0,P|163:58|189:-2,2,110,8|8|8,0:0|0:0|0:0,0:0:0:0:
271,71,20685,5,4,0:0:0:0:
271,71,21310,2,0,L|253:18,2,55,12|0|0,0:0|0:0|0:0,0:0:0:0:
320,94,21778,2,0,P|373:160|361:249,1,165,0|8,0:0|0:0,0:0:0:0:
269,191,22560,2,0,L|153:211,1,110,8|8,0:0|0:0,0:0:0:0:
78,283,23185,5,8,0:0:0:0:
167,346,23497,1,0,0:0:0:0:
275,324,23810,2,0,L|294:377,2,55,12|0|0,0:0|0:0|0:0,0:0:0:0:
298,274,24278,2,0,P|355:209|338:117,1,165
244,98,25060,2,0,P|200:138|189:189,1,110,12|0,0:0|0:0,0:0:0:0:
178,295,25685,6,0,P|131:334|71:345,1,110,4|0,0:0|0:0,0:0:0:0:
32,247,26310,2,0,P|13:270|2:295,2,55,12|0|0,0:0|0:0|0:0,0:0:0:0:
82,225,26778,2,0,P|157:202|174:125,1,165,0|8,0:0|0:0,0:0:0:0:
105,40,27560,2,0,P|157:17|220:26,1,110,8|8,0:0|0:0,0:0:0:0:
317,43,28185,5,8,0:0:0:0:
342,149,28497,1,0,0:0:0:0:
255,217,28810,2,0,L|181:249,2,55,4|0|0,0:0|0:0|0:0,0:0:0:0:
309,217,29278,2,0,P|348:254|351:329,1,110
328,354,29747,2,0,P|275:369|209:334,1,110,0|8,0:0|0:0,0:0:0:0:
191,246,30372,6,0,L|232:184,2,55,8|8|12,0:0|0:0|0:0,0:0:0:0:
119,330,30997,1,8,0:0:0:0:
64,234,31310,2,0,P|44:178|44:117,1,110,0|8,0:0|0:0,0:0:0:0:
149,99,31935,2,0,L|196:49,1,55
237,37,32247,2,0,P|294:28|355:59,2,110,8|8|8,0:0|0:0|0:0,0:0:0:0:
149,99,33185,6,0,P|138:173|174:224,1,110,4|8,0:0|0:0,0:0:0:0:
262,210,33810,2,0,P|279:255|259:317,1,110,0|8,0:0|0:0,0:0:0:0:
161,329,34435,2,0,L|93:301,1,55
61,283,34747,2,0,P|41:200|51:162,1,110,8|0,0:0|0:0,0:0:0:0:
106,86,35372,1,8,0:0:0:0:
106,86,35685,6,0,P|181:70|236:92,1,110,4|8,0:0|0:0,0:0:0:0:
305,154,36310,2,0,P|356:170|410:161,1,110,0|8,0:0|0:0,0:0:0:0:
400,41,36935,2,0,L|326:16,1,55
301,53,37247,2,0,P|247:64|174:33,1,110,8|8,0:0|0:0,0:0:0:0:
87,49,37872,1,8,0:0:0:0:
87,49,38185,6,0,P|61:106|74:163,1,110,4|0,0:0|0:0,0:0:0:0:
177,123,38810,2,0,P|206:177|190:237,1,110,8|0,0:0|0:0,0:0:0:0:
102,276,39435,1,8,0:0:0:0:
189,342,39747,2,8,L|245:343,1,55,8|8,0:0|0:0,0:0:0:0:
294,321,40060,2,0,P|375:255|354:152,1,220,8|4,0:0|0:0,0:0:0:0:
256,104,40997,5,8,0:0:0:0:
157,153,41310,2,0,P|165:209|215:250,1,110,0|8,0:0|0:0,0:0:0:0:
309,244,41935,2,0,P|348:205|354:152,1,110,0|8,0:0|0:0,0:0:0:0:
311,51,42560,1,0,0:0:0:0:
201,51,42872,1,8,0:0:0:0:
111,114,43185,6,0,P|101:215|127:250,1,110,4|8,0:0|0:0,0:0:0:0:
153,238,43653,2,0,P|220:239|281:299,1,110,0|0,0:0|0:0,0:0:0:0:
299,293,44122,2,0,P|377:228|383:185,1,110,8|0,0:0|0:0,0:0:0:0:
441,134,44747,2,0,L|480:31,2,110,8|0|8,0:0|0:0|0:0,0:0:0:0:
379,225,45685,5,4,0:0:0:0:
274,189,45997,1,8,0:0:0:0:
242,294,46310,2,0,P|188:306|136:291,1,110,0|8,0:0|0:0,0:0:0:0:
124,237,46778,2,0,P|128:183|97:138,1,110,0|0,0:0|0:0,0:0:0:0:
82,86,47247,2,0,P|118:46|170:30,1,110,8|0,0:0|0:0,0:0:0:0:
256,101,47872,1,8,0:0:0:0:
347,162,48185,6,0,P|350:241|313:279,1,110,4|8,0:0|0:0,0:0:0:0:
308,311,48653,2,0,B|256:336|256:336|209:311,1,110,0|0,0:0|0:0,0:0:0:0:
177,263,49122,2,0,P|153:214|165:162,1,110,8|0,0:0|0:0,0:0:0:0:
256,101,49747,1,8,0:0:0:0:
364,82,50060,2,0,L|400:20,2,55,0|0|8,0:0|0:0|0:0,0:0:0:0:
256,101,50685,6,0,B|200:139|145:83|94:124,1,165,4|0,0:0|0:0,0:0:0:0:
57,159,51310,2,0,P|58:246|145:306,1,165,12|0,0:0|0:0,0:0:0:0:
219,304,52091,2,0,L|212:358,2,55
269,280,52560,2,0,P|328:264|359:216,1,110,12|8,0:0|0:0,0:0:0:0:
354,116,53185,5,4,0:0:0:0:
255,67,53497,2,0,P|174:84|137:138,1,110,0|8,0:0|0:0,0:0:0:0:
157,156,53966,2,0,P|201:186|255:189,1,110,0|0,0:0|0:0,0:0:0:0:
362,161,54591,2,0,P|443:178|480:232,1,110,0|0,0:0|0:0,0:0:0:0:
460,250,55060,2,0,P|415:280|361:283,1,110,12|8,0:0|0:0,0:0:0:0:
310,262,55528,1,8,0:0:0:0:
257,243,55685,6,0,P|196:230|116:243,1,110,4|0,0:0|0:0,0:0:0:0:
55,175,56310,1,0,0:0:0:0:
99,74,56622,1,0,0:0:0:0:
203,39,56935,6,0,P|246:82|257:133,1,110,4|0,0:0|0:0,0:0:0:0:
180,207,57560,2,0,P|194:261|235:302,1,110
290,206,58185,5,4,0:0:0:0:
398,204,58497,2,0,P|384:151|348:112,1,110
290,206,59122,2,0,P|250:243|197:256,1,110,0|4,0:0|0:0,0:0:0:0:
198,146,59747,6,0,L|119:113,1,55
92,119,60060,2,0,P|28:181|33:238,1,110
42,249,60528,1,0,0:0:0:0:
152,245,60841,6,0,L|167:320,2,55,2|2|2,0:2|0:0|0:2,0:0:0:0:
167,192,61310,2,0,L|198:146,1,55,2|2,0:0|0:0,0:0:0:0:
358,103,61935,6,0,P|413:191|357:280,2,220,0|0|4,0:0|0:0|0:0,0:0:0:0:
256,145,63497,5,8,0:0:0:0:
154,103,63810,1,0,0:0:0:0:
66,168,64122,2,0,P|54:242|69:276,2,110,8|0|8,0:0|0:0|0:0,0:0:0:0:
154,103,65060,2,0,L|241:79,1,55,0|0,0:0|0:0,0:0:0:0:
261,90,65372,2,0,P|327:112|385:84,1,110,8|4,0:0|0:0,0:0:0:0:
473,101,65997,5,8,0:0:0:0:
488,210,66310,2,0,L|450:323,1,110,0|8,0:0|0:0,0:0:0:0:
345,338,66935,2,0,L|380:233,1,110,0|8,0:0|0:0,0:0:0:0:
299,158,67560,1,0,0:0:0:0:
200,205,67872,2,0,P|108:204|70:179,1,110,8|4,0:0|0:0,0:0:0:0:
62,91,68497,6,0,P|154:50|244:88,1,165,8|0,0:0|0:0,0:0:0:0:
254,101,69122,1,8,0:0:0:0:
285,146,69278,2,0,P|336:208|442:208,1,165,0|8,0:0|0:0,0:0:0:0:
474,124,70060,1,0,0:0:0:0:
373,79,70372,1,8,0:0:0:0:
285,146,70685,1,0,0:0:0:0:
180,113,70997,1,8,0:0:0:0:
106,195,71310,6,0,P|90:268|121:316,1,110,0|8,0:0|0:0,0:0:0:0:
157,307,71778,2,0,B|218:307|234:372|334:357,1,165,4|8,0:0|0:0,0:0:0:0:
362,343,72403,2,0,P|401:275|401:201,1,110,4|0,0:0|0:0,0:0:0:0:
360,212,72872,2,0,P|321:144|321:70,1,110,8|4,0:0|0:0,0:0:0:0:
402,45,73497,5,8,0:0:0:0:
487,114,73810,2,0,P|474:167|443:212,1,110,0|8,0:0|0:0,0:0:0:0:
358,281,74435,1,0,0:0:0:0:
256,324,74747,1,8,0:0:0:0:
154,281,75060,1,0,0:0:0:0:
256,242,75372,1,8,0:0:0:0:
344,176,75685,6,0,P|363:126|352:71,1,110,4|8,0:0|0:0,0:0:0:0:
256,19,76310,1,0,0:0:0:0:
159,72,76622,2,0,P|148:125|168:176,1,110,8|0,0:0|0:0,0:0:0:0:
255,242,77247,1,8,0:0:0:0:
344,175,77560,2,0,P|396:189|432:229,1,110,0|8,0:0|0:0,0:0:0:0:
348,301,78185,6,0,P|391:332|446:335,2,110,4|8|0,0:0|0:0|0:0,0:0:0:0:
256,242,79122,1,8,0:0:0:0:
310,146,79435,2,0,P|352:96|356:29,1,110,0|8,0:0|0:0,0:0:0:0:
256,15,80060,1,0,0:0:0:0:
152,53,80372,6,0,P|164:106|202:146,1,110,8|4,0:0|0:0,0:0:0:0:
256,242,80997,2,0,L|256:370,2,110,8|0|8,0:0|0:0|0:0,0:0:0:0:
310,146,81935,1,4,0:0:0:0:
310,146,83185,6,0,P|365:191|294:274,1,165,4|0,0:0|0:0,0:0:0:0:
278,250,83810,2,0,P|196:255|172:317,1,110,8|0,0:0|0:0,0:0:0:0:
157,322,84278,2,0,P|55:323|40:283,1,110
29,284,84747,2,0,P|20:200|64:146,1,110,0|8,0:0|0:0,0:0:0:0:
134,145,85372,1,0,0:0:0:0:
214,67,85685,6,0,P|328:82|354:148,1,165,4|0,0:0|0:0,0:0:0:0:
330,167,86310,2,0,P|327:240|386:284,1,110,8|0,0:0|0:0,0:0:0:0:
367,317,86778,2,0,P|322:361|248:335,1,110
231,329,87247,1,8,0:0:0:0:
206,222,87560,6,0,L|224:146,3,55,8|8|8|12,0:0|0:0|0:0|0:0,0:0:0:0:
