osu file format v12

[General]
AudioFilename: Born to Be.mp3
AudioLeadIn: 1000
PreviewTime: 61778
Countdown: 0
SampleSet: Soft
StackLeniency: 0.7
Mode: 0
LetterboxInBreaks: 0
WidescreenStoryboard: 0

[Editor]
Bookmarks: 674,86690
DistanceSpacing: 2
BeatDivisor: 4
GridSize: 4

[Metadata]
Title:Born to be (TV Size)
TitleUnicode:Born to be (TV Size)
Artist:nano
ArtistUnicode:ナノ
Creator:AllStar12
Version:Insane
Source:魔法戦争
Tags:Mahou Sensou Magical Warfare WEST GROUND ending Karia
BeatmapID:352892
BeatmapSetID:141505

[Difficulty]
HPDrainRate:7
CircleSize:4
OverallDifficulty:7
ApproachRate:9
SliderMultiplier:1.92
SliderTickRate:1

[Events]
//Background and Video events
0,0,"Background Image 2.jpg",0,0
Video,0,"video.avi"
//Break Periods
//Storyboard Layer 0 (Background)
//Storyboard Layer 1 (Fail)
//Storyboard Layer 2 (Pass)
//Storyboard Layer 3 (Foreground)
//Storyboard Sound Samples
//Background Colour Transformations
3,100,163,162,255

[TimingPoints]
685,312.5,4,2,1,40,1,0
685,-133.333333333333,4,2,1,40,0,0
4747,-133.333333333333,4,1,1,50,0,0
5060,-133.333333333333,4,1,1,60,0,0
5372,-133.333333333333,4,1,1,70,0,0
5685,-111.111111111111,4,1,2,75,0,0
18185,-111.111111111111,4,1,2,55,0,0
20685,-133.333333333333,4,1,1,60,0,0
30685,-111.111111111111,4,1,1,60,0,0
35685,-99.9999999999999,4,1,1,60,0,0
38185,-90.9090909090908,4,1,1,65,0,0
40060,-99.9999999999999,4,1,1,50,0,0
40685,-111.111111111111,4,1,2,60,0,0
50685,-133.333333333333,4,1,1,50,0,0
55685,-111.111111111111,4,1,1,50,0,0
55997,-111.111111111111,4,1,1,35,0,0
56935,-111.111111111111,4,1,1,45,0,0
58185,-111.111111111111,4,1,1,55,0,0
59435,-111.111111111111,4,1,1,60,0,0
60685,-111.111111111111,4,1,2,40,0,0
61935,-166.666666666667,4,2,1,35,0,0
63185,-100,4,1,2,75,0,1
81310,-100,4,1,2,40,0,1
81935,-100,4,1,2,75,0,1
83185,-111.111111111111,4,1,2,60,0,0

[Colours]
Combo1 : 202,0,202
Combo2 : 0,174,0
Combo3 : 0,112,249
Combo4 : 193,11,38
Combo5 : 217,163,0

[HitObjects]
72,135,685,2,0,P|142:149|212:134,1,144.000005493164,0|2,0:0|0:0,0:0:0:0:
271,62,1153,1,0,0:0:0:0:
212,135,1310,2,0,P|204:185|221:221,1,72.0000027465821,0|0,0:0|0:0,0:0:0:0:
271,62,1622,1,0,0:0:0:0:
139,135,1778,2,0,P|139:211|193:288,1,144.000005493164,2|0,0:0|0:0,0:0:0:0:
303,195,2247,2,0,P|304:124|271:62,1,144.000005493164,2|2,0:0|0:0,0:0:0:0:
139,135,2716,1,0,0:0:0:0:
303,195,2872,2,0,P|334:246|337:282,1,72.0000027465821,0|0,0:0|0:0,0:0:0:0:
215,278,3185,6,0,P|166:211|168:121,1,144.000005493164,2|0,0:0|0:0,0:0:0:0:
256,33,3653,1,0,0:0:0:0:
351,152,3810,2,0,P|341:222|297:278,1,144.000005493164,2|2,0:0|0:0,0:0:0:0:
195,65,4278,2,0,P|255:32|316:65,1,144.000005493164,2|2,0:0|0:0,0:0:0:0:
272,194,4747,2,0,P|258:160|255:125,1,72.0000027465821,8|0,0:0|0:0,0:0:0:0:
335,236,5060,6,0,L|357:290,1,36.0000013732911,8|0,0:0|0:0,0:0:0:0:
311,374,5216,2,0,L|347:326,1,36.0000013732911
442,325,5372,2,0,L|343:311,1,72.0000027465821,8|0,0:0|0:0,0:0:0:0:
181,293,5685,6,0,P|138:260|122:208,1,86.3999973632813,4|0,0:0|0:0,0:0:0:0:
335,236,5997,1,8,0:0:0:0:
125,232,6153,2,0,P|120:194|130:141,1,86.3999973632813,0|0,0:0|0:0,0:0:0:0:
256,214,6466,1,0,0:0:0:0:
134,69,6622,1,8,0:0:0:0:
328,107,6778,1,0,0:0:0:0:
256,214,6935,5,0,0:0:0:0:
134,69,7091,1,0,0:0:0:0:
328,107,7247,2,0,P|371:201|356:278,1,172.799994726563,8|0,0:0|0:0,0:0:0:0:
256,344,7716,1,0,0:0:0:0:
151,266,7872,2,0,P|143:182|184:106,1,172.799994726563,8|4,0:0|0:0,0:0:0:0:
328,107,8341,2,0,L|362:213,1,86.3999973632813,0|8,0:0|0:0,0:0:0:0:
184,107,8653,2,0,L|150:1,1,86.3999973632813,0|0,0:0|0:0,0:0:0:0:
274,48,8966,2,0,L|372:12,1,86.3999973632813,0|8,0:0|0:0,0:0:0:0:
238,166,9278,2,0,L|140:202,1,86.3999973632813,0|0,0:0|0:0,0:0:0:0:
69,125,9591,5,0,0:0:0:0:
69,5,9747,1,8,0:0:0:0:
173,65,9903,1,0,0:0:0:0:
34,65,10060,1,0,0:0:0:0:
138,3,10216,1,0,0:0:0:0:
138,123,10372,1,8,0:0:0:0:
52,209,10528,1,0,0:0:0:0:
33,227,10606,1,0,0:0:0:0:
14,245,10685,6,0,L|44:325,1,86.3999973632813,4|0,0:0|0:0,0:0:0:0:
69,125,10997,1,8,0:0:0:0:
44,326,11153,2,0,L|122:361,1,86.3999973632813
52,209,11466,1,0,0:0:0:0:
208,335,11622,1,8,0:0:0:0:
267,220,11778,1,0,0:0:0:0:
146,172,11935,2,0,P|146:215|153:257,1,86.3999973632813,0|0,0:0|0:0,0:0:0:0:
334,257,12247,2,0,P|329:143|295:65,1,172.799994726563,8|0,0:0|0:0,0:0:0:0:
141,197,12716,6,0,P|140:240|148:283,1,86.3999973632813,0|8,0:0|0:0,0:0:0:0:
268,238,13028,2,0,P|269:194|261:152,1,86.3999973632813,0|4,0:0|0:0,0:0:0:0:
76,75,13341,1,0,0:0:0:0:
141,197,13497,1,8,0:0:0:0:
239,77,13653,2,0,P|281:53|326:49,1,86.3999973632813,0|0,0:0|0:0,0:0:0:0:
268,238,13966,1,0,0:0:0:0:
318,48,14122,1,8,0:0:0:0:
370,192,14278,6,0,P|383:254|386:286,1,86.3999973632813,0|0,0:0|0:0,0:0:0:0:
231,217,14591,1,0,0:0:0:0:
328,116,14747,1,8,0:0:0:0:
308,254,14903,1,0,0:0:0:0:
243,131,15060,2,0,P|236:57|240:41,1,86.3999973632813,0|0,0:0|0:0,0:0:0:0:
250,23,15294,1,0,0:0:0:0:
250,23,15372,2,0,P|300:63|335:170,1,172.799994726563,8|4,0:0|0:0,0:0:0:0:
256,192,15763,12,4,18185,0:0:0:0:
256,189,18810,5,4,0:0:0:0:
256,189,19435,1,4,0:0:0:0:
256,189,19747,6,0,P|206:156|172:117,1,86.3999973632813,8|8,0:0|0:0,0:0:0:0:
170,116,19981,1,0,0:0:0:0:
156,93,20060,1,8,0:0:0:0:
344,65,20216,1,0,0:0:0:0:
451,185,20372,2,0,P|440:227|419:265,1,86.3999973632813
305,280,20685,6,0,P|212:269|155:307,1,144.000005493164,4|0,0:0|0:0,0:0:0:0:
228,364,21153,1,0,0:0:0:0:
174,188,21310,2,0,P|173:152|177:117,1,72.0000027465821,12|0,0:0|0:0,0:0:0:0:
225,37,21622,1,0,0:0:0:0:
284,156,21778,2,0,P|337:101|327:8,1,144.000005493164
176,117,22247,2,0,P|173:152|174:188,1,72.0000027465821,8|0,0:0|0:0,0:0:0:0:
260,280,22560,2,0,P|271:246|276:211,1,72.0000027465821,8|0,0:0|0:0,0:0:0:0:
375,258,22872,2,0,P|389:290|408:321,1,72.0000027465821,8|0,0:0|0:0,0:0:0:0:
372,185,23185,6,0,P|357:152|338:121,1,72.0000027465821,8|0,0:0|0:0,0:0:0:0:
261,68,23497,1,0,0:0:0:0:
177,117,23653,1,0,0:0:0:0:
162,133,23731,1,0,0:0:0:0:
146,148,23810,2,0,P|135:199|131:229,1,72.0000027465821,12|0,0:0|0:0,0:0:0:0:
166,306,24122,1,0,0:0:0:0:
250,265,24278,2,0,P|331:282|345:362,1,144.000005493164
166,306,24747,1,0,0:0:0:0:
93,247,24903,5,0,0:0:0:0:
85,226,24981,1,0,0:0:0:0:
77,205,25060,2,0,L|77:108,1,72.0000027465821,12|0,0:0|0:0,0:0:0:0:
238,51,25372,2,0,P|304:54|353:99,1,108.000004119873
339,83,25685,2,0,P|311:154|278:219,1,144.000005493164,4|0,0:0|0:0,0:0:0:0:
201,166,26153,1,0,0:0:0:0:
181,174,26231,1,0,0:0:0:0:
160,182,26310,2,0,P|108:132|100:121,1,72.0000027465821,12|0,0:0|0:0,0:0:0:0:
88,40,26622,1,0,0:0:0:0:
238,51,26778,6,0,P|272:123|264:213,1,144.000005493164,0|0,0:0|0:0,0:0:0:0:
254,278,27247,2,0,P|224:334|219:342,1,72.0000027465821,8|0,0:0|0:0,0:0:0:0:
299,216,27560,2,0,P|362:211|371:212,1,72.0000027465821,8|0,0:0|0:0,0:0:0:0:
223,207,27872,2,0,P|196:180|177:151,1,72.0000027465821,8|0,0:0|0:0,0:0:0:0:
88,39,28185,2,0,P|97:73|99:108,1,72.0000027465821,8|0,0:0|0:0,0:0:0:0:
75,199,28497,1,0,0:0:0:0:
143,263,28653,1,0,0:0:0:0:
161,275,28731,1,0,0:0:0:0:
180,286,28810,6,0,P|233:308|263:315,1,72.0000027465821,12|0,0:0|0:0,0:0:0:0:
326,261,29122,1,0,0:0:0:0:
302,104,29278,2,0,P|246:147|224:214,1,144.000005493164
326,261,29747,1,0,0:0:0:0:
404,209,29903,1,0,0:0:0:0:
404,209,29981,1,0,0:0:0:0:
404,209,30060,1,8,0:0:0:0:
320,167,30216,5,8,0:0:0:0:
418,299,30372,1,8,0:0:0:0:
469,142,30528,1,8,0:0:0:0:
326,260,30685,6,0,P|244:289|153:255,1,172.799994726563,4|8,0:0|0:0,0:0:0:0:
73,130,31153,1,0,0:0:0:0:
179,73,31310,2,0,P|247:117|253:174,1,129.599996044922
252,168,31622,2,0,L|158:220,1,86.3999973632813,8|0,0:0|0:0,0:0:0:0:
73,162,31935,2,0,L|71:54,1,86.3999973632813,0|0,0:0|0:0,0:0:0:0:
172,26,32247,2,0,P|206:54|265:78,1,86.3999973632813,8|0,0:0|0:0,0:0:0:0:
176,209,32560,2,0,P|167:286|267:335,1,172.799994726563,8|8,0:0|0:0,0:0:0:0:
329,235,33028,5,0,0:0:0:0:
347,217,33106,1,0,0:0:0:0:
364,197,33185,2,0,P|376:118|295:49,1,172.799994726563,4|8,0:0|0:0,0:0:0:0:
187,56,33653,1,0,0:0:0:0:
111,182,33810,2,0,P|193:202|272:170,1,172.799994726563,0|8,0:0|0:0,0:0:0:0:
348,34,34278,1,0,0:0:0:0:
413,156,34435,1,0,0:0:0:0:
272,170,34591,5,0,0:0:0:0:
450,237,34747,1,8,0:0:0:0:
309,250,34903,1,0,0:0:0:0:
413,156,35060,1,0,0:0:0:0:
384,292,35216,1,0,0:0:0:0:
328,165,35372,1,8,0:0:0:0:
228,114,35528,1,0,0:0:0:0:
197,111,35606,1,0,0:0:0:0:
163,110,35685,6,0,P|117:160|155:285,1,192,4|8,0:0|0:0,0:0:0:0:
257,190,36153,1,0,0:0:0:0:
323,83,36310,2,0,P|410:52|486:105,1,192,0|8,0:0|0:0,0:0:0:0:
501,229,36778,1,0,0:0:0:0:
327,175,36935,2,0,P|313:129|322:83,1,96,0|0,0:0|0:0,0:0:0:0:
497,137,37247,2,0,P|510:182|501:229,1,96,8|0,0:0|0:0,0:0:0:0:
358,255,37560,2,0,P|381:213|421:187,1,96,8|0,0:0|0:0,0:0:0:0:
282,255,37872,2,0,P|241:280|194:282,1,96,8|0,0:0|0:0,0:0:0:0:
161,277,38106,1,0,0:0:0:0:
126,262,38185,1,4,0:0:0:0:
45,114,38341,5,0,0:0:0:0:
256,110,38497,2,0,P|323:173|333:186,1,105.600003222656,8|0,0:0|0:0,0:0:0:0:
256,274,38810,2,0,P|189:211|179:198,1,105.600003222656,8|0,0:0|0:0,0:0:0:0:
331,184,39122,2,0,P|357:272|359:288,1,105.600003222656,8|0,0:0|0:0,0:0:0:0:
181,200,39435,2,0,P|154:111|152:95,1,105.600003222656,8|8,0:0|0:0,0:0:0:0:
260,14,39747,1,8,0:0:0:0:
392,80,39903,1,8,0:0:0:0:
424,221,40060,5,8,0:0:0:0:
422,254,40138,1,0,0:0:0:0:
411,286,40216,1,0,0:0:0:0:
392,313,40294,1,0,0:0:0:0:
365,333,40372,1,0,0:0:0:0:
334,345,40450,1,0,0:0:0:0:
300,347,40528,1,0,0:0:0:0:
268,339,40606,1,0,0:0:0:0:
237,326,40685,6,0,B|186:274|212:209|212:209|169:159,1,172.799994726563,4|8,0:0|0:0,0:0:0:0:
88,235,41153,1,0,0:0:0:0:
300,251,41310,2,0,P|383:180|386:103,1,172.799994726563,0|8,0:0|0:0,0:0:0:0:
300,41,41778,1,0,0:0:0:0:
203,116,41935,2,0,P|108:136|66:65,1,172.799994726563,0|8,0:0|0:0,0:0:0:0:
241,32,42403,1,0,0:0:0:0:
270,36,42481,1,0,0:0:0:0:
300,41,42560,2,0,L|330:130,1,86.3999973632813,0|0,0:0|0:0,0:0:0:0:
244,248,42872,1,8,0:0:0:0:
109,171,43028,1,0,0:0:0:0:
321,204,43185,6,0,P|317:298|243:337,1,172.799994726563,4|8,0:0|0:0,0:0:0:0:
141,298,43653,1,0,0:0:0:0:
209,170,43810,2,0,P|232:206|244:248,1,86.3999973632813,0|0,0:0|0:0,0:0:0:0:
109,171,44122,2,0,B|63:112|144:66|98:8,2,172.799994726563,8|0|8,0:0|0:0|0:0,0:0:0:0:
194,244,44903,1,0,0:0:0:0:
282,174,45060,2,0,P|368:185|413:281,1,172.799994726563,0|8,0:0|0:0,0:0:0:0:
370,356,45528,1,0,0:0:0:0:
194,244,45685,6,0,P|131:167|151:75,1,172.799994726563,4|8,0:0|0:0,0:0:0:0:
234,26,46153,1,0,0:0:0:0:
273,131,46310,2,0,P|332:192|363:203,1,86.3999973632813,0|0,0:0|0:0,0:0:0:0:
363,205,46544,1,0,0:0:0:0:
396,211,46622,2,0,P|439:208|477:191,1,86.3999973632813,8|0,0:0|0:0,0:0:0:0:
414,58,46935,2,0,P|378:82|353:116,1,86.3999973632813,0|0,0:0|0:0,0:0:0:0:
301,263,47247,2,0,P|336:239|362:205,1,86.3999973632813,8|0,0:0|0:0,0:0:0:0:
273,131,47560,1,0,0:0:0:0:
251,152,47638,1,0,0:0:0:0:
231,174,47716,2,0,L|203:263,1,86.3999973632813,0|8,0:0|0:0,0:0:0:0:
109,314,48028,1,0,0:0:0:0:
84,151,48185,6,0,L|137:64,1,86.3999973632813,4|0,0:0|0:0,0:0:0:0:
318,63,48497,1,8,0:0:0:0:
276,216,48653,1,0,0:0:0:0:
218,68,48810,1,0,0:0:0:0:
345,155,48966,1,0,0:0:0:0:
192,161,49122,1,8,0:0:0:0:
318,63,49278,2,0,L|404:63,1,86.3999973632813
470,185,49591,1,0,0:0:0:0:
408,308,49747,2,0,P|327:284|276:215,1,172.799994726563,8|8,0:0|0:0,0:0:0:0:
213,25,50216,5,8,0:0:0:0:
373,159,50372,1,8,0:0:0:0:
373,159,50450,1,0,0:0:0:0:
373,159,50528,1,0,0:0:0:0:
373,159,50606,1,0,0:0:0:0:
373,159,50685,6,0,P|300:208|238:203,1,144.000005493164,4|0,0:0|0:0,0:0:0:0:
158,176,51153,1,0,0:0:0:0:
75,221,51310,1,12,0:0:0:0:
67,314,51466,2,0,P|138:351|217:328,1,144.000005493164
274,285,51935,2,0,P|291:206|286:190,1,72.0000027465821
226,151,52247,1,0,0:0:0:0:
170,104,52403,1,0,0:0:0:0:
158,176,52560,1,12,0:0:0:0:
249,154,52716,1,0,0:0:0:0:
165,83,52872,1,8,0:0:0:0:
147,193,53028,1,8,0:0:0:0:
228,274,53185,6,0,P|291:301|380:256,1,144.000005493164,4|0,0:0|0:0,0:0:0:0:
421,207,53653,1,0,0:0:0:0:
380,122,53810,2,0,P|327:88|310:82,1,72.0000027465821,12|0,0:0|0:0,0:0:0:0:
232,118,54122,2,0,P|197:128|162:125,1,72.0000027465821,0|0,0:0|0:0,0:0:0:0:
72,95,54435,2,0,P|58:57|57:21,1,72.0000027465821
162,125,54747,2,0,P|179:179|181:203,2,72.0000027465821,0|0|12,0:0|0:0|0:0,0:0:0:0:
311,125,55216,2,0,P|298:158|293:194,2,72.0000027465821,0|8|8,0:0|0:0|0:0,0:0:0:0:
253,57,55685,6,0,P|344:38|407:103,1,172.799994726563,4|0,0:0|0:0,0:0:0:0:
396,197,56153,1,0,0:0:0:0:
284,204,56310,2,0,P|290:161|313:125,1,86.3999973632813
201,278,56622,2,0,P|185:238|186:195,1,86.3999973632813
166,383,56935,2,0,P|132:356|112:318,1,86.3999973632813,4|0,0:0|0:0,0:0:0:0:
37,207,57247,5,0,0:0:0:0:
33,199,57403,1,0,0:0:0:0:
119,130,57559,5,0,0:0:0:0:
116,121,57716,1,0,0:0:0:0:
228,123,57872,5,0,0:0:0:0:
231,114,58028,1,0,0:0:0:0:
314,192,58185,6,0,P|343:116|284:33,1,172.799994726563,4|0,0:0|0:0,0:0:0:0:
189,22,58653,1,0,0:0:0:0:
166,176,58810,2,0,P|179:231|204:269,1,86.3999973632813
314,192,59122,2,0,P|301:137|276:99,1,86.3999973632813
189,21,59435,5,4,0:0:0:0:
166,176,59591,2,0,P|182:135|192:94,1,86.3999973632813
194,256,59903,2,0,P|177:296|167:337,1,86.3999973632813
319,271,60216,1,0,0:0:0:0:
166,175,60372,1,0,0:0:0:0:
167,338,60528,1,0,0:0:0:0:
369,201,60841,5,2,0:2:0:0:
236,244,60997,1,2,0:0:0:0:
319,131,61153,1,2,0:2:0:0:
319,271,61310,1,2,0:0:0:0:
237,158,61466,1,2,0:0:0:0:
237,158,61935,6,0,P|171:101|178:6,1,172.799994726563
236,225,62560,2,0,P|221:308|150:351,1,172.799994726563
294,192,63185,6,0,P|344:166|401:169,1,96,4|0,0:0|0:0,0:0:0:0:
488,230,63497,1,8,0:0:0:0:
421,334,63653,2,0,P|384:304|365:261,1,96,0|0,0:0|0:0,0:0:0:0:
239,119,63966,2,0,P|276:149|295:193,1,96,0|8,0:0|0:0,0:0:0:0:
109,140,64278,1,0,0:0:0:0:
192,293,64435,1,0,0:0:0:0:
295,193,64591,1,0,0:0:0:0:
107,230,64747,1,8,0:0:0:0:
239,120,64903,5,0,0:0:0:0:
259,100,64981,1,0,0:0:0:0:
280,79,65060,2,0,L|191:26,1,96,0|0,0:0|0:0,0:0:0:0:
109,139,65372,1,8,0:0:0:0:
295,192,65528,1,0,0:0:0:0:
318,207,65606,1,0,0:0:0:0:
341,224,65685,2,0,P|337:305|333:320,1,96,4|0,0:0|0:0,0:0:0:0:
376,152,65997,2,0,P|392:106|417:65,1,96,8|0,0:0|0:0,0:0:0:0:
451,186,66310,5,0,0:0:0:0:
295,192,66466,1,0,0:0:0:0:
344,32,66622,1,8,0:0:0:0:
451,186,66778,2,0,P|394:265|276:265,1,192,0|0,0:0|0:0,0:0:0:0:
201,165,67247,2,0,P|130:104|125:10,1,192,8|0,0:0|0:0,0:0:0:0:
289,91,67716,1,0,0:0:0:0:
256,241,67872,2,0,P|316:311|410:316,1,192,8|4,0:0|0:0,0:0:0:0:
374,196,68341,1,0,0:0:0:0:
273,118,68497,6,0,P|185:150|97:117,1,192,8|0,0:0|0:0,0:0:0:0:
31,11,68966,1,0,0:0:0:0:
153,34,69122,1,8,0:0:0:0:
72,186,69278,2,0,P|60:271|144:338,1,192,0|0,0:0|0:0,0:0:0:0:
302,303,69747,2,0,P|244:232|153:241,1,192,8|0,0:0|0:0,0:0:0:0:
350,362,70216,2,0,P|429:330|446:306,1,96,0|8,0:0|0:0,0:0:0:0:
274,171,70528,1,0,0:0:0:0:
258,201,70606,1,0,0:0:0:0:
244,232,70685,6,0,P|264:275|303:304,1,96,4|0,0:0|0:0,0:0:0:0:
376,190,70997,2,0,P|317:118|226:127,1,192,8|0,0:0|0:0,0:0:0:0:
242,299,71466,1,0,0:0:0:0:
376,190,71622,1,8,0:0:0:0:
168,208,71778,2,0,P|102:228|16:145,1,192,4|0,0:0|0:0,0:0:0:0:
126,18,72247,1,8,0:0:0:0:
300,134,72403,2,0,P|366:154|452:71,1,192,4|0,0:0|0:0,0:0:0:0:
342,14,72872,1,8,0:0:0:0:
177,116,73028,5,0,0:0:0:0:
173,149,73106,1,0,0:0:0:0:
170,182,73185,2,0,P|250:166|265:158,1,96,4|0,0:0|0:0,0:0:0:0:
183,63,73497,2,0,P|103:79|88:87,1,96,8|0,0:0|0:0,0:0:0:0:
155,242,73810,1,0,0:0:0:0:
64,325,73966,1,0,0:0:0:0:
129,125,74122,1,8,0:0:0:0:
273,279,74278,1,0,0:0:0:0:
155,242,74435,5,0,0:0:0:0:
300,134,74591,2,0,P|304:60|301:36,1,96,0|8,0:0|0:0,0:0:0:0:
198,201,74903,1,0,0:0:0:0:
301,38,75060,1,0,0:0:0:0:
129,125,75216,1,0,0:0:0:0:
312,238,75372,2,0,P|399:222|426:112,1,192,8|4,0:0|0:0,0:0:0:0:
246,269,75841,2,0,P|233:322|251:368,1,96,0|8,0:0|0:0,0:0:0:0:
312,238,76153,5,0,0:0:0:0:
307,204,76231,1,0,0:0:0:0:
302,170,76310,2,0,P|233:118|223:114,1,96,0|0,0:0|0:0,0:0:0:0:
33,115,76622,1,8,0:0:0:0:
140,238,76778,1,0,0:0:0:0:
83,63,76935,1,0,0:0:0:0:
52,213,77091,1,0,0:0:0:0:
219,140,77247,2,0,P|304:116|376:198,1,192,8|0,0:0|0:0,0:0:0:0:
328,309,77716,5,0,0:0:0:0:
140,238,77872,1,8,0:0:0:0:
209,341,78028,1,0,0:0:0:0:
219,140,78185,2,0,P|158:53|60:86,1,192,4|8,0:0|0:0,0:0:0:0:
214,216,78653,2,0,P|266:235|310:226,1,96,0|0,0:0|0:0,0:0:0:0:
355,113,78966,1,0,0:0:0:0:
326,95,79044,1,0,0:0:0:0:
295,81,79122,2,0,P|255:108|219:140,1,96,8|0,0:0|0:0,0:0:0:0:
209,341,79435,5,0,0:0:0:0:
140,238,79591,1,0,0:0:0:0:
296,162,79747,2,0,P|393:152|475:234,1,192,8|0,0:0|0:0,0:0:0:0:
447,332,80216,1,0,0:0:0:0:
302,258,80372,2,0,P|296:168|297:155,1,96,8|0,0:0|0:0,0:0:0:0:
458,112,80685,2,0,P|464:202|463:215,1,96,4|0,0:0|0:0,0:0:0:0:
281,338,80997,2,0,P|171:335|121:239,1,192,8|0,0:0|0:0,0:0:0:0:
118,242,81388,5,8,0:0:0:0:
116,208,81466,1,8,0:0:0:0:
125,175,81544,1,8,0:0:0:0:
141,145,81622,1,8,0:0:0:0:
165,121,81700,1,8,0:0:0:0:
195,106,81778,1,8,0:0:0:0:
256,237,81935,5,4,0:0:0:0:
125,175,82091,2,0,B|108:142|106:96|106:96|121:35|168:7,1,192,0|0,0:0|0:0,0:0:0:0:
256,95,82560,1,0,0:0:0:0:
387,175,82716,2,0,B|404:142|406:96|406:96|391:35|345:7,1,192,0|0,0:0|0:0,0:0:0:0:
181,130,83185,6,0,P|256:166|332:130,1,172.799994726563,4|0,0:0|0:0,0:0:0:0:
412,32,83653,1,0,0:0:0:0:
412,32,83731,1,0,0:0:0:0:
412,32,83810,2,0,L|326:13,1,86.3999973632813,8|0,0:0|0:0,0:0:0:0:
221,48,84122,1,4,0:0:0:0:
303,124,84278,1,0,0:0:0:0:
327,13,84435,1,0,0:0:0:0:
221,48,84591,1,0,0:0:0:0:
197,157,84747,6,0,P|209:237|213:248,1,86.3999973632813,0|0,0:0|0:0,0:0:0:0:
219,266,84981,1,0,0:0:0:0:
232,288,85060,1,12,0:0:0:0:
320,366,85216,2,0,B|356:331|357:277|357:277|317:215,1,172.799994726563
195,215,85685,2,0,B|155:277|155:277|156:331|191:366,1,172.799994726563,4|0,0:0|0:0,0:0:0:0:
280,288,86153,1,0,0:0:0:0:
293,266,86231,1,0,0:0:0:0:
301,241,86310,2,0,P|312:200|315:157,1,86.3999973632813,12|0,0:0|0:0,0:0:0:0:
296,25,86622,5,0,0:0:0:0:
194,99,86778,1,0,0:0:0:0:
320,98,86935,1,0,0:0:0:0:
218,25,87091,1,0,0:0:0:0:
256,144,87247,1,8,0:0:0:0:
137,230,87403,5,0,0:0:0:0:
137,230,87481,1,0,0:0:0:0:
137,230,87560,1,12,0:0:0:0:
243,246,87716,5,8,0:0:0:0:
97,129,87872,1,8,0:0:0:0:
70,314,88028,1,12,0:0:0:0:
