osu file format v12

[General]
AudioFilename: Born to Be.mp3
AudioLeadIn: 1000
PreviewTime: 61778
Countdown: 0
SampleSet: Soft
StackLeniency: 0.7
Mode: 0
LetterboxInBreaks: 0
WidescreenStoryboard: 0

[Editor]
Bookmarks: 674,86690
DistanceSpacing: 1.1
BeatDivisor: 4
GridSize: 4

[Metadata]
Title:Born to be (TV Size)
TitleUnicode:Born to be (TV Size)
Artist:nano
ArtistUnicode:ナノ
Creator:AllStar12
Version:Hard
Source:魔法戦争
Tags:Mahou Sensou Magical Warfare WEST GROUND ending Karia
BeatmapID:353177
BeatmapSetID:141505

[Difficulty]
HPDrainRate:5
CircleSize:4
OverallDifficulty:6
ApproachRate:8
SliderMultiplier:1.5
SliderTickRate:1

[Events]
//Background and Video events
0,0,"Background Image 2.jpg",0,0
Video,0,"video.avi"
//Break Periods
//Storyboard Layer 0 (Background)
//Storyboard Layer 1 (Fail)
//Storyboard Layer 2 (Pass)
//Storyboard Layer 3 (Foreground)
//Storyboard Sound Samples
//Background Colour Transformations
3,100,163,162,255

[TimingPoints]
685,312.5,4,2,1,40,1,0
685,-133.333333333333,4,2,1,40,0,0
4747,-133.333333333333,4,1,1,50,0,0
5060,-133.333333333333,4,1,1,60,0,0
5372,-133.333333333333,4,1,1,70,0,0
5685,-111.111111111111,4,1,2,75,0,0
18185,-111.111111111111,4,1,2,55,0,0
20685,-133.333333333333,4,1,1,60,0,0
30685,-111.111111111111,4,1,1,60,0,0
35685,-99.9999999999999,4,1,1,60,0,0
38185,-90.9090909090908,4,1,1,65,0,0
40060,-99.9999999999999,4,1,1,50,0,0
40685,-111.111111111111,4,1,2,60,0,0
50685,-133.333333333333,4,1,1,50,0,0
55685,-111.111111111111,4,1,1,50,0,0
55997,-111.111111111111,4,1,1,35,0,0
56935,-111.111111111111,4,1,1,45,0,0
58185,-111.111111111111,4,1,1,55,0,0
59435,-111.111111111111,4,1,1,60,0,0
60685,-111.111111111111,4,1,2,40,0,0
61935,-166.666666666667,4,2,1,35,0,0
63185,-100,4,1,2,75,0,1
81310,-100,4,1,2,40,0,1
81935,-100,4,1,2,75,0,1
83185,-111.111111111111,4,1,2,60,0,0

[Colours]
Combo1 : 202,0,202
Combo2 : 0,174,0
Combo3 : 0,112,249
Combo4 : 193,11,38
Combo5 : 217,163,0

[HitObjects]
74,23,685,2,0,P|135:59|187:66,1,112.500004291535,0|2,0:0|0:0,0:0:0:0:
236,65,1153,1,0,0:0:0:0:
257,123,1310,2,0,P|223:151|190:164,1,56.2500021457673,2|0,0:0|0:0,0:0:0:0:
153,136,1622,1,0,0:0:0:0:
153,136,1778,2,0,P|122:240|129:260,1,112.500004291535,2|0,0:0|0:0,0:0:0:0:
179,262,2247,2,0,P|255:297|273:333,1,112.500004291535,2|2,0:0|0:0,0:0:0:0:
320,352,2716,2,0,L|388:362,1,56.2500021457673,2|0,0:0|0:0,0:0:0:0:
433,338,3028,5,0,0:0:0:0:
433,338,3185,2,0,P|458:270|452:208,1,112.500004291535,2|0,0:0|0:0,0:0:0:0:
432,174,3653,1,0,0:0:0:0:
369,169,3810,2,0,P|299:131|283:97,1,112.500004291535,2|2,0:0|0:0,0:0:0:0:
245,56,4278,2,0,P|183:14|137:16,1,112.500004291535,2|2,0:0|0:0,0:0:0:0:
85,19,4747,1,8,0:0:0:0:
34,54,4903,1,0,0:0:0:0:
18,114,5060,2,0,L|21:165,4,28.1250010728836,8|0|0|0|8,0:0|0:0|0:0|0:0|0:0,0:0:0:0:
164,90,5685,6,4,P|203:153|205:166,1,67.4999979400635,4|0,0:0|0:0,0:0:0:0:
176,215,5997,1,8,0:0:0:0:
132,275,6153,2,4,P|148:347|156:357,1,67.4999979400635,0|0,0:0|0:0,0:0:0:0:
217,358,6466,1,0,0:0:0:0:
276,313,6622,6,0,L|298:249,1,67.4999979400635,8|0,0:0|0:0,0:0:0:0:
282,176,6935,2,0,L|239:125,1,67.4999979400635,0|0,0:0|0:0,0:0:0:0:
353,199,7247,2,0,P|421:172|455:105,1,134.999995880127,8|0,0:0|0:0,0:0:0:0:
433,48,7716,1,0,0:0:0:0:
358,45,7872,2,0,P|307:88|292:152,1,134.999995880127,8|4,0:0|0:0,0:0:0:0:
353,199,8341,5,0,0:0:0:0:
352,273,8497,2,0,L|302:359,1,67.4999979400635,8|0,0:0|0:0,0:0:0:0:
277,259,8810,2,0,L|244:318,1,67.4999979400635,0|0,0:0|0:0,0:0:0:0:
203,246,9122,2,0,L|169:304,1,67.4999979400635,8|0,0:0|0:0,0:0:0:0:
95,315,9435,1,0,0:0:0:0:
34,272,9591,5,0,0:0:0:0:
61,203,9747,2,0,L|37:117,2,67.4999979400635,8|0|0,0:0|0:0|0:0,0:0:0:0:
120,157,10216,2,0,L|138:91,1,67.4999979400635,0|8,0:0|0:0,0:0:0:0:
211,100,10528,1,0,0:0:0:0:
223,94,10606,1,0,0:0:0:0:
235,89,10685,6,4,L|318:95,1,67.4999979400635,4|0,0:0|0:0,0:0:0:0:
328,163,10997,1,8,0:0:0:0:
398,187,11153,2,4,L|467:139,1,67.4999979400635,0|0,0:0|0:0,0:0:0:0:
494,210,11466,1,0,0:0:0:0:
450,270,11622,2,0,L|394:308,1,67.4999979400635,8|0,0:0|0:0,0:0:0:0:
326,340,11935,5,0,0:0:0:0:
276,284,12091,1,0,0:0:0:0:
210,318,12247,2,0,P|140:295|105:242,1,134.999995880127,8|0,0:0|0:0,0:0:0:0:
140,180,12716,1,0,0:0:0:0:
213,189,12872,2,0,P|271:182|335:114,1,134.999995880127,8|4,0:0|0:0,0:0:0:0:
293,66,13341,5,0,0:0:0:0:
219,66,13497,2,0,L|172:134,1,67.4999979400635,8|0,0:0|0:0,0:0:0:0:
213,189,13810,2,0,L|221:263,1,67.4999979400635,0|0,0:0|0:0,0:0:0:0:
273,307,14122,1,8,0:0:0:0:
273,307,14278,2,0,L|345:296,1,67.4999979400635,0|0,0:0|0:0,0:0:0:0:
403,258,14591,6,0,L|471:208,2,67.4999979400635,0|8|0,0:0|0:0|0:0,0:0:0:0:
335,225,15060,1,0,0:0:0:0:
312,154,15216,1,0,0:0:0:0:
310,140,15294,1,0,0:0:0:0:
307,127,15372,2,0,P|316:67|389:7,1,134.999995880127,8|4,0:0|0:0,0:0:0:0:
256,192,15763,12,4,18185,0:0:0:0:
145,331,18810,5,4,0:0:0:0:
145,331,19435,1,4,0:0:0:0:
145,331,19747,5,8,0:0:0:0:
145,331,19903,2,0,L|131:264,1,67.4999979400635,0|8,0:0|0:0,0:0:0:0:
183,211,20216,2,0,L|211:127,1,67.4999979400635,0|8,0:0|0:0,0:0:0:0:
269,112,20528,1,0,0:0:0:0:
341,129,20685,6,0,P|391:162|408:230,1,112.500004291535,4|0,0:0|0:0,0:0:0:0:
399,270,21153,1,0,0:0:0:0:
361,319,21310,2,0,L|302:338,1,56.2500021457673,12|0,0:0|0:0,0:0:0:0:
247,320,21622,1,0,0:0:0:0:
198,279,21778,2,0,P|144:266|90:279,1,112.500004291535,0|0,0:0|0:0,0:0:0:0:
53,329,22247,6,0,L|20:379,1,56.2500021457673,8|0,0:0|0:0,0:0:0:0:
90,279,22560,2,0,L|93:219,1,56.2500021457673,8|0,0:0|0:0,0:0:0:0:
151,119,22872,2,0,L|147:175,1,56.2500021457673,8|0,0:0|0:0,0:0:0:0:
198,279,23185,2,0,L|201:222,2,56.2500021457673,8|0|0,0:0|0:0|0:0,0:0:0:0:
248,314,23653,1,0,0:0:0:0:
256,321,23731,1,0,0:0:0:0:
264,328,23810,6,0,L|329:345,1,56.2500021457673,12|0,0:0|0:0,0:0:0:0:
378,328,24122,1,0,0:0:0:0:
414,278,24278,2,0,P|436:231|428:159,1,112.500004291535
384,132,24747,1,0,0:0:0:0:
328,158,24903,1,0,0:0:0:0:
317,162,24981,1,0,0:0:0:0:
306,166,25060,2,0,P|252:137|244:130,1,56.2500021457673,12|0,0:0|0:0,0:0:0:0:
212,96,25372,6,0,P|133:82|93:98,2,112.500004291535,0|4|0,0:0|0:0|0:0,0:0:0:0:
246,147,26153,2,0,L|251:188,2,28.1250010728836,0|0|12,0:0|0:0|0:0,0:0:0:0:
272,90,26466,2,0,L|311:41,1,56.2500021457673
365,66,26778,2,0,P|415:84|485:54,1,112.500004291535
488,129,27247,6,0,L|473:190,1,56.2500021457673,8|0,0:0|0:0,0:0:0:0:
452,300,27560,2,0,L|438:245,1,56.2500021457673,8|0,0:0|0:0,0:0:0:0:
409,132,27872,2,0,L|394:193,1,56.2500021457673,8|0,0:0|0:0,0:0:0:0:
373,303,28185,2,0,L|359:248,2,56.2500021457673,8|0|0,0:0|0:0|0:0,0:0:0:0:
319,334,28653,1,0,0:0:0:0:
309,339,28731,1,0,0:0:0:0:
299,345,28810,6,0,L|245:328,1,56.2500021457673,12|0,0:0|0:0,0:0:0:0:
190,357,29122,1,0,0:0:0:0:
135,328,29278,2,0,P|90:282|82:213,1,112.500004291535
106,180,29747,1,0,0:0:0:0:
163,157,29903,2,0,L|195:167,2,28.1250010728836,0|0|8,0:0|0:0|0:0,0:0:0:0:
115,117,30216,1,8,0:0:0:0:
115,55,30372,2,0,L|174:8,1,56.2500021457673,8|8,0:0|0:0,0:0:0:0:
230,40,30685,6,0,P|301:51|376:25,1,134.999995880127,4|8,0:0|0:0,0:0:0:0:
434,29,31153,1,0,0:0:0:0:
486,81,31310,2,0,P|506:138|459:213,1,134.999995880127,0|8,0:0|0:0,0:0:0:0:
407,232,31778,1,0,0:0:0:0:
339,200,31935,1,0,0:0:0:0:
266,214,32091,1,0,0:0:0:0:
213,266,32247,6,0,P|197:336|197:350,1,67.4999979400635,8|0,0:0|0:0,0:0:0:0:
266,214,32560,2,0,P|255:138|219:86,1,134.999995880127,8|8,0:0|0:0,0:0:0:0:
149,91,33028,1,0,0:0:0:0:
138,99,33106,1,0,0:0:0:0:
129,109,33185,6,0,P|122:175|144:238,1,134.999995880127,4|8,0:0|0:0,0:0:0:0:
213,266,33653,1,0,0:0:0:0:
267,214,33810,2,0,P|357:248|382:307,1,134.999995880127,0|8,0:0|0:0,0:0:0:0:
432,324,34278,1,0,0:0:0:0:
496,286,34435,6,0,L|501:203,1,67.4999979400635
421,167,34747,2,0,L|432:246,1,67.4999979400635,8|0,0:0|0:0,0:0:0:0:
493,148,35060,2,0,L|511:66,2,67.4999979400635,0|0|8,0:0|0:0|0:0,0:0:0:0:
421,167,35528,1,0,0:0:0:0:
408,170,35606,1,0,0:0:0:0:
393,174,35685,6,0,P|298:160|254:193,1,150,4|8,0:0|0:0,0:0:0:0:
201,248,36153,1,0,0:0:0:0:
118,237,36310,2,0,P|60:209|22:117,1,150,0|8,0:0|0:0,0:0:0:0:
59,61,36778,1,0,0:0:0:0:
117,2,36935,1,0,0:0:0:0:
175,60,37091,1,0,0:0:0:0:
116,118,37247,6,0,P|107:176|120:213,1,75,8|0,0:0|0:0,0:0:0:0:
223,196,37560,2,0,P|232:138|219:101,1,75,8|0,0:0|0:0,0:0:0:0:
175,60,37872,1,8,0:0:0:0:
246,18,38028,1,0,0:0:0:0:
260,14,38106,1,0,0:0:0:0:
276,10,38185,6,0,P|359:18|366:20,1,82.5000025177003,4|0,0:0|0:0,0:0:0:0:
441,52,38497,2,0,P|454:133|454:140,1,82.5000025177003,8|0,0:0|0:0,0:0:0:0:
453,224,38810,2,0,P|404:291|399:296,1,82.5000025177003,8|0,0:0|0:0,0:0:0:0:
326,335,39122,2,0,P|244:347|236:347,1,82.5000025177003,8|0,0:0|0:0,0:0:0:0:
181,283,39435,2,0,P|146:229|138:194,1,82.5000025177003,8|8,0:0|0:0,0:0:0:0:
219,166,39747,2,0,P|254:220|262:255,1,82.5000025177003,8|8,0:0|0:0,0:0:0:0:
181,283,40060,2,0,L|132:294,7,37.5,8|0|0|0|0|0|0|0,0:0|0:0|0:0|0:0|0:0|0:0|0:0|0:0,0:0:0:0:
107,295,40685,6,0,P|48:237|52:167,1,134.999995880127,4|8,0:0|0:0,0:0:0:0:
107,146,41153,1,0,0:0:0:0:
177,171,41310,1,0,0:0:0:0:
233,122,41466,2,0,P|238:79|221:38,1,67.4999979400635,0|8,0:0|0:0,0:0:0:0:
167,23,41778,1,0,0:0:0:0:
93,33,41935,6,0,B|55:73|64:130|64:130|28:163,1,134.999995880127,0|8,0:0|0:0,0:0:0:0:
35,223,42403,1,0,0:0:0:0:
35,223,42560,2,0,P|85:287|95:292,1,67.4999979400635,0|0,0:0|0:0,0:0:0:0:
136,314,42872,1,8,0:0:0:0:
209,326,43028,1,0,0:0:0:0:
283,315,43185,6,0,P|329:276|346:176,1,134.999995880127,4|8,0:0|0:0,0:0:0:0:
336,133,43653,1,0,0:0:0:0:
263,116,43810,2,0,P|250:63|258:28,1,67.4999979400635,0|0,0:0|0:0,0:0:0:0:
321,26,44122,2,0,B|363:-1|422:59|479:23,2,134.999995880127,8|0|8,0:0|0:0|0:0,0:0:0:0:
251,51,44903,1,0,0:0:0:0:
180,26,45060,2,0,P|107:72|95:134,1,134.999995880127,0|8,0:0|0:0,0:0:0:0:
134,177,45528,1,0,0:0:0:0:
208,184,45685,6,0,P|245:237|238:303,1,134.999995880127,4|8,0:0|0:0,0:0:0:0:
164,311,46153,2,0,P|125:358|116:393,1,67.4999979400635,0|0,0:0|0:0,0:0:0:0:
238,304,46466,1,0,0:0:0:0:
238,304,46622,2,0,P|251:273|256:239,1,67.4999979400635,8|0,0:0|0:0,0:0:0:0:
208,184,46935,6,0,P|220:152|241:126,2,67.4999979400635,0|0|8,0:0|0:0|0:0,0:0:0:0:
183,254,47403,1,0,0:0:0:0:
238,304,47560,1,0,0:0:0:0:
312,299,47716,2,0,P|363:315|392:338,1,67.4999979400635,0|8,0:0|0:0,0:0:0:0:
438,359,48028,1,0,0:0:0:0:
508,333,48185,5,4,0:0:0:0:
504,259,48341,1,0,0:0:0:0:
448,210,48497,2,0,P|412:198|386:178,1,67.4999979400635,8|0,0:0|0:0,0:0:0:0:
332,131,48810,1,0,0:0:0:0:
353,60,48966,1,0,0:0:0:0:
424,78,49122,2,0,P|444:105|456:136,1,67.4999979400635,8|0,0:0|0:0,0:0:0:0:
448,210,49435,5,0,0:0:0:0:
396,264,49591,1,0,0:0:0:0:
325,285,49747,2,0,P|253:289|180:238,1,134.999995880127,8|8,0:0|0:0,0:0:0:0:
154,201,50216,1,8,0:0:0:0:
200,143,50372,2,0,L|235:114,3,33.7499989700318,8|0|0|0,0:0|0:0|0:0|0:0,0:0:0:0:
241,115,50685,6,0,P|297:111|341:71,1,112.500004291535,4|0,0:0|0:0,0:0:0:0:
390,42,51153,1,0,0:0:0:0:
448,61,51310,1,12,0:0:0:0:
479,114,51466,2,0,B|486:158|486:158|475:200|475:200|475:244,1,112.500004291535
484,285,51935,2,0,L|422:331,1,56.2500021457673
384,348,52247,2,0,L|327:341,1,56.2500021457673
268,322,52560,1,12,0:0:0:0:
236,269,52716,1,0,0:0:0:0:
269,216,52872,1,8,0:0:0:0:
330,219,53028,1,8,0:0:0:0:
376,178,53185,6,0,P|365:107|325:63,1,112.500004291535,4|0,0:0|0:0,0:0:0:0:
284,99,53653,2,0,P|256:104|228:99,1,56.2500021457673,0|12,0:0|0:0,0:0:0:0:
170,75,53966,2,0,P|140:122|136:178,1,112.500004291535
185,215,54435,2,0,P|205:265|207:281,1,56.2500021457673
228,324,54747,2,0,P|255:328|283:323,1,56.2500021457673
306,266,55060,2,0,P|314:239|327:215,1,56.2500021457673,12|0,0:0|0:0,0:0:0:0:
383,189,55372,1,8,0:0:0:0:
383,189,55528,1,8,0:0:0:0:
383,189,55685,6,0,P|396:106|365:63,1,134.999995880127,4|0,0:0|0:0,0:0:0:0:
313,115,56153,2,0,P|279:78|258:69,1,67.4999979400635
209,121,56466,2,0,P|161:105|138:108,1,67.4999979400635
121,178,56778,2,0,P|71:188|53:202,1,67.4999979400635,0|4,0:0|0:0,0:0:0:0:
176,231,57091,6,0,P|225:220|243:206,1,67.4999979400635
256,138,57403,1,0,0:0:0:0:
201,87,57560,2,0,P|211:36|223:17,1,67.4999979400635
310,86,57872,2,0,P|307:53|293:23,1,67.4999979400635
255,137,58185,6,0,P|316:161|372:128,1,134.999995880127,4|0,0:0|0:0,0:0:0:0:
425,76,58653,1,0,0:0:0:0:
477,128,58810,1,0,0:0:0:0:
424,180,58966,1,0,0:0:0:0:
476,232,59122,1,0,0:0:0:0:
423,284,59278,1,0,0:0:0:0:
418,288,59356,1,0,0:0:0:0:
413,293,59435,6,0,L|343:297,1,67.4999979400635,4|0,0:0|0:0,0:0:0:0:
325,225,59747,2,0,P|276:175|254:161,1,67.4999979400635
173,174,60060,2,0,P|194:200|220:223,1,67.4999979400635
271,274,60372,2,0,P|274:307|272:341,1,67.4999979400635
215,123,60841,6,0,P|191:146|173:174,1,67.4999979400635,2|2,0:2|0:0,0:0:0:0:
338,174,61153,2,0,P|320:146|296:123,1,67.4999979400635,2|2,0:2|0:0,0:0:0:0:
256,194,61466,1,2,0:0:0:0:
193,344,61935,6,0,P|256:366|318:343,1,134.999995880127
318,294,62560,2,0,P|255:271|193:294,1,134.999995880127
128,345,63185,6,0,P|91:352|54:345,1,75,4|0,0:0|0:0,0:0:0:0:
84,236,63497,2,0,P|119:247|147:272,1,75,8|0,0:0|0:0,0:0:0:0:
210,326,63810,1,0,0:0:0:0:
285,358,63966,1,0,0:0:0:0:
352,311,64122,1,8,0:0:0:0:
316,236,64278,5,0,0:0:0:0:
347,159,64435,2,0,P|385:149|432:157,1,75
389,230,64747,2,0,P|351:240|304:232,1,75,8|0,0:0|0:0,0:0:0:0:
235,214,65060,2,0,P|194:213|160:220,1,75,0|0,0:0|0:0,0:0:0:0:
88,258,65372,1,8,0:0:0:0:
39,191,65528,6,0,L|6:172,2,37.5,0|0|4,0:0|0:0|0:0,0:0:0:0:
111,150,65841,1,0,0:0:0:0:
194,150,65997,2,0,L|268:143,1,75,8|0,0:0|0:0,0:0:0:0:
346,171,66310,2,0,L|393:113,1,75,0|0,0:0|0:0,0:0:0:0:
364,36,66622,1,8,0:0:0:0:
291,74,66778,2,0,P|254:114|146:138,1,150,0|0,0:0|0:0,0:0:0:0:
119,70,67247,6,0,P|156:30|264:6,1,150,8|0,0:0|0:0,0:0:0:0:
291,74,67716,1,0,0:0:0:0:
233,132,67872,2,0,P|232:210|316:255,1,150,8|4,0:0|0:0,0:0:0:0:
306,172,68341,1,0,0:0:0:0:
326,90,68497,2,0,P|381:137|379:210,1,150,8|0,0:0|0:0,0:0:0:0:
336,280,68966,5,0,0:0:0:0:
376,351,69122,1,8,0:0:0:0:
454,332,69278,2,0,P|408:276|336:280,1,150,0|0,0:0|0:0,0:0:0:0:
267,325,69747,2,0,P|197:351|128:325,1,150,8|0,0:0|0:0,0:0:0:0:
92,251,70216,1,0,0:0:0:0:
135,181,70372,1,8,0:0:0:0:
217,187,70528,6,0,L|260:212,2,37.5,0|0|0,0:0|0:0|0:0,0:0:0:0:
135,181,70841,1,0,0:0:0:0:
96,107,70997,2,0,P|128:46|211:24,1,150,8|0,0:0|0:0,0:0:0:0:
290,102,71466,2,0,P|256:112|216:100,1,75,0|8,0:0|0:0,0:0:0:0:
310,22,71778,6,0,P|380:43|416:107,1,150,4|0,0:0|0:0,0:0:0:0:
365,172,72247,1,8,0:0:0:0:
287,202,72403,2,0,P|340:251|412:239,1,150,4|0,0:0|0:0,0:0:0:0:
365,172,72872,1,8,0:0:0:0:
288,203,73028,1,0,0:0:0:0:
272,212,73106,1,0,0:0:0:0:
255,221,73185,6,0,L|152:202,1,75,4|0,0:0|0:0,0:0:0:0:
120,151,73497,1,8,0:0:0:0:
41,188,73653,1,0,0:0:0:0:
42,267,73810,1,0,0:0:0:0:
112,310,73966,2,0,L|191:310,1,75,0|8,0:0|0:0,0:0:0:0:
256,265,74278,1,0,0:0:0:0:
317,320,74435,6,0,L|355:354,2,37.5,0|0|0,0:0|0:0|0:0,0:0:0:0:
256,265,74747,2,0,P|236:219|239:175,1,75,8|0,0:0|0:0,0:0:0:0:
318,197,75060,2,0,P|338:151|335:107,1,75,0|0,0:0|0:0,0:0:0:0:
304,52,75372,2,0,P|235:28|176:69,1,150,8|4,0:0|0:0,0:0:0:0:
169,152,75841,6,0,P|182:186|207:214,1,75,0|8,0:0|0:0,0:0:0:0:
283,245,76153,1,0,0:0:0:0:
293,255,76231,1,0,0:0:0:0:
303,265,76310,2,0,P|312:325|311:341,1,75,0|0,0:0|0:0,0:0:0:0:
318,198,76622,2,0,P|340:141|349:128,1,75,8|0,0:0|0:0,0:0:0:0:
414,80,76935,5,0,0:0:0:0:
424,161,77091,1,0,0:0:0:0:
347,129,77247,2,0,B|298:102|246:121|246:121|201:95,1,150,8|0,0:0|0:0,0:0:0:0:
137,52,77716,2,0,P|123:87|128:124,2,75,0|8|0,0:0|0:0|0:0,0:0:0:0:
53,162,78185,6,0,P|112:206|182:187,1,150,4|8,0:0|0:0,0:0:0:0:
210,110,78653,1,0,0:0:0:0:
292,110,78810,1,0,0:0:0:0:
314,189,78966,2,0,L|365:215,2,37.5,0|0|8,0:0|0:0|0:0,0:0:0:0:
248,238,79278,1,0,0:0:0:0:
182,188,79435,6,0,P|146:228|138:251,1,75,0|0,0:0|0:0,0:0:0:0:
248,238,79747,2,0,P|260:183|210:110,1,150,8|0,0:0|0:0,0:0:0:0:
182,188,80216,1,0,0:0:0:0:
117,136,80372,2,0,P|70:118|14:117,1,75,8|0,0:0|0:0,0:0:0:0:
94,12,80685,6,0,P|141:30|197:31,1,75,4|0,0:0|0:0,0:0:0:0:
246,18,80997,2,0,P|317:51|321:143,1,150,8|0,0:0|0:0,0:0:0:0:
310,151,81388,2,8,L|273:197,5,37.5
212,217,81935,5,4,0:0:0:0:
212,217,82091,2,0,P|176:288|209:358,1,150,0|0,0:0|0:0,0:0:0:0:
256,288,82560,1,0,0:0:0:0:
310,349,82716,2,0,P|333:280|297:216,1,150,0|0,0:0|0:0,0:0:0:0:
247,161,83185,6,0,P|223:92|256:30,1,134.999995880127,4|0,0:0|0:0,0:0:0:0:
317,61,83653,1,0,0:0:0:0:
325,71,83731,1,0,0:0:0:0:
333,81,83810,2,0,P|334:140|332:153,1,67.4999979400635,8|0,0:0|0:0,0:0:0:0:
303,216,84122,1,4,0:0:0:0:
232,237,84278,1,0,0:0:0:0:
176,187,84435,2,0,P|175:126|182:102,2,67.4999979400635,0|0|0,0:0|0:0|0:0,0:0:0:0:
175,261,84903,2,0,L|142:285,2,33.7499989700318,0|0|12,0:0|0:0|0:0,0:0:0:0:
303,216,85216,2,0,P|320:150|286:84,1,134.999995880127
218,91,85685,6,0,P|191:152|209:216,1,134.999995880127,4|0,0:0|0:0,0:0:0:0:
256,272,86153,2,0,L|256:310,2,33.7499989700318,0|0|12,0:0|0:0|0:0,0:0:0:0:
303,217,86466,1,0,0:0:0:0:
294,143,86622,2,0,L|310:73,1,67.4999979400635,0|0,0:0|0:0,0:0:0:0:
202,77,86935,2,0,L|218:143,1,67.4999979400635
209,217,87247,1,8,0:0:0:0:
256,272,87403,2,0,L|256:310,2,33.7499989700318,0|0|12,0:0|0:0|0:0,0:0:0:0:
209,217,87716,5,8,0:0:0:0:
256,160,87872,1,8,0:0:0:0:
303,217,88028,1,12,0:0:0:0:
