osu file format v12

[General]
AudioFilename: Born to Be.mp3
AudioLeadIn: 1000
PreviewTime: 61778
Countdown: 0
SampleSet: Soft
StackLeniency: 0.7
Mode: 0
LetterboxInBreaks: 0
WidescreenStoryboard: 0

[Editor]
Bookmarks: 674,86690
DistanceSpacing: 1
BeatDivisor: 2
GridSize: 4

[Metadata]
Title:Born to be (TV Size)
TitleUnicode:Born to be (TV Size)
Artist:nano
ArtistUnicode:ナノ
Creator:AllStar12
Version:Easy
Source:魔法戦争
Tags:Mahou Sensou Magical Warfare WEST GROUND ending Karia
BeatmapID:353470
BeatmapSetID:141505

[Difficulty]
HPDrainRate:2
CircleSize:3
OverallDifficulty:2
ApproachRate:3
SliderMultiplier:0.8
SliderTickRate:1

[Events]
//Background and Video events
0,0,"Background Image 2.jpg",0,0
Video,0,"video.avi"
//Break Periods
//Storyboard Layer 0 (Background)
//Storyboard Layer 1 (Fail)
//Storyboard Layer 2 (Pass)
//Storyboard Layer 3 (Foreground)
//Storyboard Sound Samples
//Background Colour Transformations
3,100,163,162,255

[TimingPoints]
685,312.5,4,2,1,40,1,0
685,-100,4,2,1,40,0,0
4747,-100,4,1,1,50,0,0
5060,-100,4,1,1,60,0,0
5372,-100,4,1,1,70,0,0
5685,-100,4,1,2,75,0,0
18185,-100,4,1,2,55,0,0
20685,-100,4,1,1,60,0,0
30685,-100,4,1,1,60,0,0
35685,-100,4,1,1,60,0,0
38185,-100,4,1,1,65,0,0
40060,-100,4,1,1,50,0,0
40685,-100,4,1,2,60,0,0
50685,-100,4,1,1,50,0,0
55685,-100,4,1,1,50,0,0
55997,-100,4,1,1,35,0,0
56935,-100,4,1,1,45,0,0
58185,-100,4,1,1,55,0,0
59435,-100,4,1,1,60,0,0
60685,-100,4,1,1,50,0,0
61935,-100,4,2,1,35,0,0
63185,-100,4,1,2,75,0,1
81310,-100,4,1,2,40,0,1
81935,-100,4,1,2,75,0,1
83185,-100,4,1,2,60,0,0

[Colours]
Combo1 : 202,0,202
Combo2 : 0,174,0
Combo3 : 0,112,249
Combo4 : 193,11,38
Combo5 : 217,163,0

[HitObjects]
256,192,685,1,0,0:0:0:0:
312,42,1310,2,0,P|255:24|199:42,2,120,2|0|2,0:0|0:0|0:0,0:0:0:0:
363,103,2560,1,2,0:0:0:0:
336,178,2872,1,0,0:0:0:0:
256,192,3185,6,0,P|174:209|126:273,1,160,2|2,0:0|0:0,0:0:0:0:
144,344,4122,2,0,P|223:370|313:343,1,160,2|8,0:0|0:0,0:0:0:0:
364,311,5060,2,0,P|386:277|396:238,1,80,8|8,0:0|0:0,0:0:0:0:
393,159,5685,5,4,0:0:0:0:
329,112,5997,2,8,P|256:83|183:112,1,160,8|8,0:0|0:0,0:0:0:0:
183,272,7247,6,8,P|256:301|329:272,1,160,8|8,0:0|0:0,0:0:0:0:
388,219,8185,1,4,0:0:0:0:
418,145,8497,2,8,P|398:63|306:30,1,160
176,29,9747,6,8,P|109:68|94:145,1,160
122,220,10685,1,4,0:0:0:0:
184,270,10997,2,0,P|314:253|362:237,1,160,8|8,0:0|0:0,0:0:0:0:
390,117,12247,6,0,P|260:134|212:150,1,160,8|8,0:0|0:0,0:0:0:0:
170,192,13185,1,4,0:0:0:0:
184,270,13497,2,8,P|256:298|329:269,1,160
329,108,14747,6,8,P|256:79|183:108,1,160,8|8,0:0|0:0,0:0:0:0:
131,168,15685,1,4,0:0:0:0:
256,192,15841,12,4,18185,0:0:0:0:
256,192,18810,5,4,0:0:0:0:
256,192,19435,1,4,0:0:0:0:
256,192,20060,1,8,0:0:0:0:
326,126,20685,6,0,B|256:88|256:88|185:126,2,160,4|12|0,0:0|0:0|0:0,0:0:0:0:
367,194,22247,2,0,P|349:284|289:323,1,160,8|8,0:0|0:0,0:0:0:0:
215,320,23185,2,0,P|154:271|145:194,2,160,8|12|0,0:0|0:0|0:0,0:0:0:0:
374,302,25060,1,12,0:0:0:0:
291,165,25685,6,0,P|241:104|249:21,2,160,4|12|0,0:0|0:0|0:0,0:0:0:0:
354,116,27247,2,0,P|408:66|505:104,1,160,8|8,0:0|0:0,0:0:0:0:
432,145,28185,2,0,B|389:210|454:241|402:313,2,160,8|12|0,0:0|0:0|0:0,0:0:0:0:
486,82,29747,2,0,P|411:64|354:116,1,160,0|8,0:0|0:0,0:0:0:0:
321,189,30685,5,4,0:0:0:0:
328,268,30997,2,0,P|276:324|199:316,1,160,8|8,0:0|0:0,0:0:0:0:
237,160,32247,2,0,P|288:103|365:111,1,160,8|8,0:0|0:0,0:0:0:0:
435,151,33185,5,4,0:0:0:0:
435,230,33497,2,0,P|397:299|317:304,1,160,8|8,0:0|0:0,0:0:0:0:
197,206,34747,2,8,B|277:206|277:206|353:229,1,160
435,230,35685,5,4,0:0:0:0:
486,168,35997,2,0,P|487:89|397:40,1,160,8|8,0:0|0:0,0:0:0:0:
332,171,37247,2,0,P|256:192|150:150,1,160,8|8,0:0|0:0,0:0:0:0:
180,91,38185,6,0,P|256:70|362:112,2,160,4|8|8,0:0|0:0|0:0,0:0:0:0:
117,141,39747,1,8,0:0:0:0:
105,220,40060,2,0,P|146:291|241:314,1,160,8|4,0:0|0:0,0:0:0:0:
295,316,40997,6,0,P|368:288|407:220,1,160,8|8,0:0|0:0,0:0:0:0:
409,59,42247,2,0,P|336:87|297:154,1,160,8|8,0:0|0:0,0:0:0:0:
256,224,43185,1,4,0:0:0:0:
215,155,43497,6,0,P|176:87|103:59,1,160,8|8,0:0|0:0,0:0:0:0:
64,213,44747,2,0,P|102:281|176:309,1,160,8|8,0:0|0:0,0:0:0:0:
256,313,45685,1,4,0:0:0:0:
336,308,45997,2,0,P|409:281|448:213,1,160,8|8,0:0|0:0,0:0:0:0:
394,62,47247,6,0,P|321:90|282:158,1,160,8|8,0:0|0:0,0:0:0:0:
256,235,48185,1,4,0:0:0:0:
323,278,48497,2,0,P|256:315|189:278,2,160,8|8|8,0:0|0:0|0:0,0:0:0:0:
256,235,50060,1,0,0:0:0:0:
118,153,50685,6,0,B|58:114|86:62|12:25,2,160,4|12|0,0:0|0:0|0:0,0:0:0:0:
197,140,52247,1,0,0:0:0:0:
209,219,52560,2,0,B|241:254|256:283|256:283|271:254|303:219,1,160,12|4,0:0|0:0,0:0:0:0:
442,139,53810,6,0,B|395:74|395:74|296:43,1,160,12|0,0:0|0:0,0:0:0:0:
256,100,54747,1,0,0:0:0:0:
193,50,55060,2,0,B|117:74|117:74|70:139,1,160,12|4,0:0|0:0,0:0:0:0:
118,202,55997,5,0,0:0:0:0:
187,241,56310,2,0,B|222:257|232:283|256:291|280:283|290:257|325:241,1,160,0|4,0:0|0:0,0:0:0:0:
325,161,57247,2,0,B|290:145|280:119|256:111|232:119|222:145|187:161,1,160
118,202,58185,6,0,P|123:287|204:338,1,160,4|0,0:0|0:0,0:0:0:0:
256,341,59122,1,0,0:0:0:0:
335,332,59435,2,0,P|400:241|325:161,1,240,4|0,0:0|0:0,0:0:0:0:
256,192,60685,12,0,61935,0:0:0:0:
29,173,63185,5,4,0:0:0:0:
82,113,63497,2,8,P|168:87|242:139,1,160
285,266,64747,2,8,P|356:298|429:271,1,160
414,192,65685,5,4,0:0:0:0:
344,153,65997,2,8,P|261:140|185:187,1,160
147,325,67247,2,8,P|75:294|47:222,1,160
108,169,68185,1,4,0:0:0:0:
174,123,68497,6,8,P|107:87|40:124,1,160
180,201,69747,2,8,P|256:221|332:200,1,160
404,169,70685,1,4,0:0:0:0:
472,124,70997,6,8,P|405:87|338:123,1,160
416,262,72247,2,0,P|420:339|462:367,2,120,8|0|4,0:0|0:0|0:0,0:0:0:0:
459,193,73497,6,8,P|386:185|333:263,1,160
177,247,74747,2,8,P|129:187|53:193,1,160
98,259,75685,5,4,0:0:0:0:
148,320,75997,2,8,P|232:340|317:297,1,160
367,172,77247,2,8,P|283:152|198:195,1,160
177,247,78185,1,4,0:0:0:0:
148,320,78497,6,0,P|205:320|254:258,2,120,8|0|0,0:0|0:0|0:0,0:0:0:0:
92,262,79747,2,8,P|114:188|203:164,1,160
256,200,80685,5,4,0:0:0:0:
335,188,80997,1,8,0:0:0:0:
363,114,81310,2,0,P|310:50|214:55,1,160,0|4,0:0|0:0,0:0:0:0:
237,44,83185,6,0,P|230:126|157:188,1,160,4|8,0:0|0:0,0:0:0:0:
105,214,84122,2,0,P|112:295|185:357,1,160,4|0,0:0|0:0,0:0:0:0:
224,295,85060,2,0,P|297:268|371:295,1,160,12|4,0:0|0:0,0:0:0:0:
450,287,85997,1,0,0:0:0:0:
477,211,86310,6,0,P|484:133|407:86,1,160,12|0,0:0|0:0,0:0:0:0:
412,166,87247,1,8,0:0:0:0:
348,118,87560,2,0,P|333:175|361:227,1,120,12|12,0:0|0:0,0:0:0:0:
