osu file format v14

[General]
AudioFilename: Born To Be.mp3
AudioLeadIn: 0
PreviewTime: 61933
Countdown: 0
SampleSet: Soft
StackLeniency: 0.5
Mode: 0
LetterboxInBreaks: 0
EpilepsyWarning: 1
WidescreenStoryboard: 1

[Editor]
Bookmarks: 20685,40997,63185,83185
DistanceSpacing: 1.4
BeatDivisor: 4
GridSize: 4
TimelineZoom: 1.2

[Metadata]
Title:Born to be
TitleUnicode:Born to be
Artist:nano
ArtistUnicode:ナノ
Creator:Cilvery
Version:Easy
Source:魔法戦争
Tags:Mahou Sensou Masato Kouda WEST GROUND TV Size Ending Kloyd EvilElvis Kiiwa Beren KSHR
BeatmapID:490437
BeatmapSetID:208245

[Difficulty]
HPDrainRate:3
CircleSize:2
OverallDifficulty:2
ApproachRate:3
SliderMultiplier:0.799999999999999
SliderTickRate:1

[Events]
//Background and Video events
0,0,"BG.jpg",0,0
//Break Periods
//Storyboard Layer 0 (Background)
//Storyboard Layer 1 (Fail)
//Storyboard Layer 2 (Pass)
//Storyboard Layer 3 (Foreground)
//Storyboard Sound Samples

[TimingPoints]
685,312.5,4,2,1,30,1,0
685,-125,4,2,1,30,0,0
2872,-125,4,2,1,50,0,0
5685,-100,4,2,1,70,0,0
50997,-100,4,2,1,30,0,0
56935,-100,4,2,1,50,0,0
58185,-100,4,2,1,70,0,0
59435,-100,4,2,1,80,0,0
61935,-100,4,2,1,30,0,0
63185,-100,4,2,1,70,0,1
65919,-100,4,2,2,60,0,1
66075,-100,4,2,1,70,0,1
68419,-100,4,2,2,60,0,1
68575,-100,4,2,1,70,0,1
75919,-100,4,2,2,60,0,1
76075,-100,4,2,1,70,0,1
81935,-100,4,2,1,50,0,1
83185,-100,4,2,1,70,0,0
84591,-100,4,1,3,40,0,0
84903,-100,4,2,1,70,0,0

[Colours]
Combo1 : 123,123,123
Combo2 : 194,143,86
Combo3 : 140,165,249
Combo4 : 255,102,102
Combo5 : 83,240,189
Combo6 : 192,192,192

[HitObjects]
340,76,685,70,0,P|408:80|452:124,1,128,4|0,0:3|0:0,0:0:0:0:
352,208,1778,2,0,B|252:212|292:176|196:184,1,160,4|0,0:3|0:0,0:0:0:0:
28,252,3185,6,0,P|40:288|68:308,2,63.9999999999999,2|2|2,3:1|3:1|3:1,0:0:0:0:
116,232,4122,1,2,3:1:0:0:
192,280,4435,1,2,3:1:0:0:
192,280,4747,2,0,B|236:272|272:288|272:288|292:272|320:264,1,128,6|8,3:2|3:0,0:0:0:0:
424,248,5685,5,4,0:0:0:0:
284,76,6310,1,0,0:0:0:0:
192,280,6935,2,0,P|176:320|176:356,2,79.9999999999999,0|2|2,0:0|0:0|0:0,0:0:0:0:
372,144,8185,5,6,0:0:0:0:
400,368,8810,1,0,0:0:0:0:
192,280,9435,2,0,P|156:268|112:268,2,79.9999999999999,0|2|2,0:0|0:0|0:0,0:0:0:0:
296,324,10372,1,2,0:0:0:0:
400,368,10685,6,0,B|460:356|476:288|476:288|444:260,1,160,4|0,0:0|0:0,0:0:0:0:
236,172,11935,2,0,B|176:184|160:252|160:252|192:280,1,160,0|2,0:0|0:0,0:0:0:0:
296,324,12872,1,2,0:0:0:0:
336,220,13185,6,0,P|340:132|296:76,1,160,4|0,0:0|0:0,0:0:0:0:
236,172,14122,1,0,0:0:0:0:
124,164,14435,2,0,P|128:208|152:244,1,79.9999999999999,0|2,0:0|0:0,0:0:0:0:
248,284,15060,1,2,0:0:0:0:
248,284,15372,1,2,0:0:0:0:
256,192,15685,12,4,19435,0:0:0:0:
320,136,20685,37,4,0:0:0:0:
180,308,21310,2,0,P|136:272|124:208,1,120,8|0,0:0|0:0,0:0:0:0:
224,80,22247,1,0,0:0:0:0:
320,136,22560,2,0,P|292:176|248:188,2,79.9999999999999,8|0|0,0:0|0:0|0:0,0:0:0:0:
320,24,23497,1,0,0:0:0:0:
224,80,23810,6,0,L|88:72,1,120,8|0,0:0|0:0,0:0:0:0:
4,124,24591,1,0,0:0:0:0:
88,268,25060,2,0,B|103:228|103:228|96:192,1,79.9999999999999,8|0,0:0|0:0,0:0:0:0:
4,124,25685,1,4,0:0:0:0:
216,192,26310,6,0,P|276:180|316:140,2,120,8|0|0,0:0|0:0|0:0,0:0:0:0:
224,80,27560,1,8,0:0:0:0:
324,28,27872,2,0,P|364:36|400:72,1,79.9999999999999,0|0,0:0|0:0,0:0:0:0:
420,168,28497,1,0,0:0:0:0:
420,168,28810,2,0,B|408:224|408:224|392:248|392:248|384:292,1,120,8|0,0:0|0:0,0:0:0:0:
228,340,29747,6,0,L|244:256,1,79.9999999999999,0|8,0:0|0:0,0:0:0:0:
308,172,30372,1,8,0:0:0:0:
420,168,30685,2,0,L|404:4,1,160,4|0,0:0|0:0,0:0:0:0:
300,52,31622,38,0,P|264:64|216:60,1,79.9999999999999
116,32,32247,1,0,0:0:0:0:
60,128,32560,2,0,P|32:164|0:180,2,79.9999999999999,0|0|2,0:0|0:0|0:0,0:0:0:0:
116,32,33497,1,0,0:0:0:0:
222,61,33810,6,0,P|262:64|300:52,1,79.9999999999999,0|0,0:0|0:0,0:0:0:0:
404,12,34435,1,0,0:0:0:0:
384,124,34747,1,0,0:0:0:0:
492,88,35060,2,0,P|500:136|484:176,1,79.9999999999999
404,240,35685,6,0,B|344:244|344:244|316:264|316:264|244:268,1,160,6|0,0:0|0:0,0:0:0:0:
164,336,36622,1,0,0:0:0:0:
60,292,36935,2,0,P|40:252|44:200,1,79.9999999999999,0|0,0:0|0:0,0:0:0:0:
128,152,37560,2,0,P|146:186|148:226,2,79.9999999999999,0|0|2,0:0|0:0|0:0,0:0:0:0:
28,104,38497,5,0,0:0:0:0:
116,36,38810,2,0,L|240:40,1,120
368,144,39747,1,4,3:0:0:0:
288,224,40060,2,0,P|260:184|256:148,2,79.9999999999999,8|0|4,3:0|0:0|0:1,0:0:0:0:
396,256,40997,38,0,P|440:236|464:200,1,79.9999999999999,0|0,1:0|0:0,0:0:0:0:
472,100,41622,2,0,P|452:64|412:40,1,79.9999999999999,0|0,1:0|0:0,0:0:0:0:
308,48,42247,1,0,1:0:0:0:
196,52,42560,2,0,L|104:56,1,79.9999999999999,0|0,0:0|1:0,0:0:0:0:
32,128,43185,6,0,B|28:208|88:256|88:256|112:208|160:192,1,240,4|2,0:1|0:0,0:0:0:0:
264,216,44435,1,0,0:0:0:0:
192,304,44747,1,2,0:0:0:0:
304,324,45060,2,0,B|360:332|360:332|392:320,1,79.9999999999999,2|2,0:0|0:0,0:0:0:0:
484,276,45685,1,4,0:0:0:0:
392,208,45997,5,0,1:0:0:0:
496,164,46310,2,0,P|472:124|436:108,1,79.9999999999999,0|0,0:0|1:0,0:0:0:0:
332,112,46935,2,0,P|300:136|284:184,1,79.9999999999999,0|0,0:0|1:0,0:0:0:0:
392,208,47560,2,0,L|392:292,2,79.9999999999999,0|0|4,0:0|1:0|0:0,0:0:0:0:
332,112,48497,1,0,1:0:0:0:
240,48,48810,2,0,B|192:48|192:48|164:60|164:60|108:60,1,120,2|2,0:0|0:0,0:0:0:0:
8,184,49747,6,0,P|72:288|184:264,1,240,2|4,0:0|0:0,0:0:0:0:
332,112,51310,21,8,0:0:0:0:
396,328,51935,2,0,P|360:344|316:340,2,79.9999999999999,0|0|8,0:0|0:0|0:0,0:0:0:0:
492,268,52872,1,0,0:0:0:0:
392,212,53185,1,4,0:0:0:0:
176,272,53810,69,8,0:0:0:0:
236,56,54435,2,0,P|252:104|248:140,1,79.9999999999999,0|0,0:0|0:0,0:0:0:0:
140,116,55060,1,8,0:0:0:0:
44,176,55372,2,0,P|29:139|30:99,1,79.9999999999999,0|4,0:0|0:0,0:0:0:0:
140,116,55997,53,0,0:0:0:0:
144,228,56310,2,0,P|120:268|88:284,2,79.9999999999999,0|0|4,0:0|0:0|0:0,0:0:0:0:
140,116,57247,1,0,0:0:0:0:
240,164,57560,1,0,0:0:0:0:
352,155,57872,2,0,P|336:96|312:76,2,79.9999999999999,0|4|0,0:0|0:0|0:0,0:0:0:0:
448,212,58810,70,0,B|444:280|444:280|428:300,1,79.9999999999999
340,232,59435,2,0,B|344:164|344:164|356:152,1,79.9999999999999,4|0,0:0|0:0,0:0:0:0:
444,92,60060,1,0,0:0:0:0:
444,92,60372,1,0,0:0:0:0:
184,212,61935,38,0,B|268:204|248:244|340:232,2,160,2|2|4,0:0|0:0|0:2,0:0:0:0:
76,240,63497,21,0,1:0:0:0:
100,132,63810,2,0,P|92:88|68:56,2,79.9999999999999,0|0|0,0:0|1:0|0:0,0:0:0:0:
76,240,64747,2,0,P|60:272|60:324,1,79.9999999999999,0|0,1:0|0:0,0:0:0:0:
152,376,65372,1,0,1:0:0:0:
256,332,65685,6,0,B|316:328|316:328|352:336|352:336|428:332,1,160,4|0,0:0|0:0,0:0:0:0:
448,224,66622,2,0,L|360:228,1,79.9999999999999,0|0,1:0|0:0,0:0:0:0:
268,176,67247,2,0,P|248:140|252:92,1,79.9999999999999,0|0,1:0|0:0,0:0:0:0:
360,112,67872,1,0,1:0:0:0:
452,44,68185,6,0,P|463:152|364:228,1,240,4|0,0:0|1:0,0:0:0:0:
268,176,69435,1,0,0:0:0:0:
220,76,69747,2,0,P|287:63|362:114,1,160,0|0,1:0|1:0,0:0:0:0:
268,176,70685,6,0,P|252:216|256:264,2,79.9999999999999,0|0|8,0:0|1:0|0:3,0:0:0:0:
332,332,71778,2,0,B|388:332|428:364|428:364|460:344|492:348,1,160,4|4,0:0|0:0,0:0:0:0:
436,244,72716,2,0,P|440:176|472:136,1,120,4|4,0:0|0:0,0:0:0:0:
360,112,73497,38,0,P|328:80|292:68,1,79.9999999999999,0|0,1:0|0:0,0:0:0:0:
268,176,74122,1,0,1:0:0:0:
180,244,74435,2,0,P|212:276|248:288,2,79.9999999999999,0|0|0,0:0|1:0|0:0,0:0:0:0:
164,132,75372,1,0,1:0:0:0:
268,176,75685,6,0,L|432:172,1,160,4|0,0:0|0:0,0:0:0:0:
508,248,76622,1,0,1:0:0:0:
508,248,76935,2,0,P|476:276|440:284,1,79.9999999999999,0|0,0:0|1:0,0:0:0:0:
328,272,77560,1,0,0:0:0:0:
268,176,77872,2,0,P|260:128|272:92,2,79.9999999999999,0|4|0,1:0|0:0|1:0,0:0:0:0:
328,272,78810,5,0,0:0:0:0:
216,276,79122,2,0,L|120:280,1,79.9999999999999,0|0,1:0|0:0,0:0:0:0:
36,224,79747,2,0,P|60:188|96:172,2,79.9999999999999,0|0|0,1:0|0:0|1:0,0:0:0:0:
40,336,80685,5,4,3:1:0:0:
252,260,81310,1,0,0:0:0:0:
132,72,81935,2,0,B|176:88|192:132|192:132|224:100|268:100|268:100|316:124|316:124|376:120|376:120|348:160,1,320,4|4,3:2|3:2,0:0:0:0:
180,288,83810,5,8,0:0:0:0:
400,332,84435,2,0,P|484:308|512:236,2,160,8|8|4,0:0|0:0|0:0,0:0:0:0:
328,120,86310,5,8,0:0:0:0:
180,288,86935,1,4,0:0:0:0:
400,332,87560,2,0,B|376:308|376:308|424:304|452:264,1,120,12|4,0:0|0:0,0:0:0:0:
