osu file format v13

[General]
AudioFilename: Born To Be.mp3
AudioLeadIn: 1500
PreviewTime: 61700
Countdown: 0
SampleSet: Soft
StackLeniency: 0.3
Mode: 0
LetterboxInBreaks: 0
WidescreenStoryboard: 0

[Editor]
DistanceSpacing: 1
BeatDivisor: 2
GridSize: 4
TimelineZoom: 1

[Metadata]
Title:Born to be
TitleUnicode:Born to be
Artist:nano
ArtistUnicode:ナノ
Creator:Chewin
Version:Normal
Source:魔法戦争
Tags:ending yales mahou sensou WEST GROUND Masato Kouda TV Size
BeatmapID:458254
BeatmapSetID:192083

[Difficulty]
HPDrainRate:3
CircleSize:3
OverallDifficulty:3
ApproachRate:5
SliderMultiplier:1.1
SliderTickRate:1

[Events]
//Background and Video events
0,0,"Mahou.Sensou.full_.png",0,0
Video,-2209,"mahou sensou.avi"
//Break Periods
2,15885,18547
//Storyboard Layer 0 (Background)
//Storyboard Layer 1 (Fail)
//Storyboard Layer 2 (Pass)
//Storyboard Layer 3 (Foreground)
//Storyboard Sound Samples
//Background Colour Transformations
3,100,163,162,255

[TimingPoints]
685,312.5,4,2,1,40,1,0
4278,-100,4,2,1,30,0,0
4356,-100,4,2,1,40,0,0
5060,-100,4,1,1,40,0,0
15685,-133.333333333333,4,1,1,40,0,0
15763,-133.333333333333,4,1,1,60,0,0
19747,-100,4,1,1,60,0,0
21153,-100,4,1,1,40,0,0
33185,-100,4,1,1,50,0,0
33263,-100,4,1,1,40,0,0
35685,-100,4,1,1,60,0,0
35763,-100,4,1,1,40,0,0
38185,-100,4,1,1,70,0,0
38263,-100,4,1,1,40,0,0
40685,-100,4,1,1,50,0,0
40763,-100,4,1,1,50,0,0
63185,-100,4,1,1,70,0,1
73106,-100,4,1,1,40,0,0
73185,-100,4,1,1,70,0,1
83185,-100,4,1,1,40,0,0

[Colours]
Combo1 : 255,159,255
Combo2 : 255,255,0
Combo3 : 255,128,0
Combo4 : 247,247,247

[HitObjects]
64,132,685,6,0,P|108:140|184:96,1,110,2|0,0:0|3:0,0:0:0:0:
196,68,1153,1,0,0:0:0:0:
196,68,1310,2,0,P|260:56|352:108,1,165,2|2,0:0|0:0,0:0:0:0:
420,248,2247,5,0,3:0:0:0:
332,312,2560,2,0,L|340:380,2,55,2|0|0,0:0|0:0|3:0,0:0:0:0:
232,268,3185,5,2,0:0:0:0:
180,364,3497,1,0,3:0:0:0:
72,356,3810,1,2,0:0:0:0:
32,256,4122,1,0,3:0:0:0:
32,256,4278,6,0,L|40:76,1,165,4|0,0:0|3:0,0:0:0:0:
136,36,5060,1,8,0:0:0:0:
184,136,5372,1,8,0:0:0:0:
264,60,5685,5,6,0:0:0:0:
264,60,5841,2,0,L|384:52,1,110,0|2,0:0|0:0,0:0:0:0:
428,48,6310,2,0,P|444:104|428:168,1,110,0|10,0:0|0:0,0:0:0:0:
388,184,6778,2,0,P|380:244|404:304,1,110,0|2,0:0|0:0,0:0:0:0:
436,328,7247,1,8,0:0:0:0:
336,372,7560,5,2,0:0:0:0:
248,304,7872,1,10,0:0:0:0:
152,356,8185,2,0,L|72:364,1,55,2|0,0:0|0:0,0:0:0:0:
28,276,8653,1,2,0:0:0:0:
124,220,8966,1,2,0:0:0:0:
48,140,9278,6,0,P|104:116|164:120,1,110,2|2,0:0|0:0,0:0:0:0:
196,152,9747,2,0,P|256:176|376:92,1,220,10|10,0:0|0:0,0:0:0:0:
268,64,10685,5,6,0:0:0:0:
268,64,10841,2,0,P|196:40|120:68,1,110,0|2,0:0|0:0,0:0:0:0:
116,76,11310,2,0,P|88:124|96:188,1,110,0|10,0:0|0:0,0:0:0:0:
140,200,11778,2,0,P|156:248|136:312,1,110,0|2,0:0|0:0,0:0:0:0:
104,344,12247,1,8,0:0:0:0:
40,256,12560,5,2,0:0:0:0:
140,200,12872,1,10,0:0:0:0:
236,256,13185,2,0,L|308:244,1,55,2|0,0:0|0:0,0:0:0:0:
360,332,13653,2,0,L|476:344,1,110,2|2,0:0|0:0,0:0:0:0:
508,240,14278,6,0,P|448:224|392:248,1,110,2|2,0:0|0:0,0:0:0:0:
348,248,14747,2,0,P|296:256|232:212,1,110,10|2,0:0|0:0,0:0:0:0:
220,184,15216,2,0,L|224:120,1,55,0|10,0:0|0:0,0:0:0:0:
228,76,15528,1,2,0:0:0:0:
228,76,15685,1,4,0:0:0:0:
80,76,19747,6,0,P|148:68|208:108,1,110,2|2,0:0|0:0,0:0:0:0:
276,148,20372,2,0,P|332:152|400:112,1,110,2|4,0:0|0:0,0:0:0:0:
420,92,20841,1,4,0:0:0:0:
488,176,21153,5,0,0:0:0:0:
488,176,21310,2,0,L|480:304,1,110,2|0,0:0|0:0,0:0:0:0:
460,336,21778,2,0,P|404:360|312:312,1,165,2|2,0:0|0:0,0:0:0:0:
256,224,22560,2,0,L|256:136,2,55,2|0|2,0:0|0:0|0:0,0:0:0:0:
196,317,23185,6,0,P|128:359|52:340,1,110,2|0,0:0|0:0,0:0:0:0:
108,248,23810,2,0,L|116:132,1,110,2|0,0:0|0:0,0:0:0:0:
88,92,24278,2,0,P|148:104|212:72,1,110,2|2,0:0|0:0,0:0:0:0:
280,20,24903,1,0,0:0:0:0:
280,20,25060,2,0,P|344:12|400:52,2,110,2|0|4,0:0|0:0|0:0,0:0:0:0:
264,184,26153,5,0,0:0:0:0:
264,184,26310,2,0,L|256:320,1,110,2|0,0:0|0:0,0:0:0:0:
232,344,26778,2,0,P|296:332|364:360,1,110,2|0,0:0|0:0,0:0:0:0:
388,368,27247,2,0,L|456:352,1,55,2|2,0:0|0:0,0:0:0:0:
496,340,27560,1,0,0:0:0:0:
416,264,27872,1,2,0:0:0:0:
480,172,28185,6,0,L|484:52,1,110,2|0,0:0|0:0,0:0:0:0:
384,20,28810,2,0,L|380:129,1,110,2|0,0:0|0:0,0:0:0:0:
364,184,29278,2,0,P|304:196|228:144,1,110,2|0,0:0|0:0,0:0:0:0:
228,136,29747,1,2,0:0:0:0:
144,64,30060,2,0,L|156:8,2,55,8|8|8,0:0|0:0|0:0,0:0:0:0:
60,132,30685,6,0,P|36:180|48:300,1,165,4|0,0:0|0:0,0:0:0:0:
84,324,31310,2,0,P|148:332|192:308,1,110,2|0,0:0|0:0,0:0:0:0:
236,288,31778,2,0,P|300:296|352:336,1,110,2|0,0:0|0:0,0:0:0:0:
380,356,32247,2,0,L|448:352,1,55,0|2,0:0|0:0,0:0:0:0:
480,320,32560,2,0,P|492:264|480:208,1,110,0|2,0:0|0:0,0:0:0:0:
436,112,33185,5,4,0:0:0:0:
292,28,33653,1,0,0:0:0:0:
292,28,33810,2,0,P|276:96|300:156,1,110,2|0,0:0|0:0,0:0:0:0:
336,160,34278,2,0,P|356:212|352:272,1,110,2|0,0:0|0:0,0:0:0:0:
320,308,34747,2,0,L|240:332,1,55,0|0,0:0|0:0,0:0:0:0:
216,348,35060,2,0,P|164:352|104:312,1,110,2|2,0:0|0:0,0:0:0:0:
52,232,35685,5,4,0:0:0:0:
104,76,36153,1,0,0:0:0:0:
104,76,36310,2,0,P|164:64|228:104,1,110,2|0,0:0|0:0,0:0:0:0:
248,116,36778,2,0,P|316:128|372:84,1,110,2|0,0:0|0:0,0:0:0:0:
384,68,37247,2,0,L|448:80,1,55,0|0,0:0|0:0,0:0:0:0:
492,88,37560,2,0,P|508:148|496:200,1,110,0|2,0:0|0:0,0:0:0:0:
432,280,38185,5,4,0:0:0:0:
292,192,38653,1,0,0:0:0:0:
292,192,38810,2,0,L|300:304,1,110,2|0,0:0|0:0,0:0:0:0:
276,352,39278,2,0,P|224:368|152:340,1,110,0|8,0:0|0:0,0:0:0:0:
136,312,39747,2,0,L|48:324,1,55,8|8,0:0|0:0,0:0:0:0:
40,356,40060,6,0,P|20:288|112:184,1,220,10|4,0:0|0:0,0:0:0:0:
200,248,40997,1,8,0:0:0:0:
296,192,41310,1,0,0:0:0:0:
332,296,41622,1,8,0:0:0:0:
424,356,41935,1,0,0:0:0:0:
496,272,42247,1,8,0:0:0:0:
424,188,42560,2,0,L|436:112,1,55,0|0,0:0|0:0,0:0:0:0:
444,80,42872,1,8,0:0:0:0:
348,24,43185,6,0,P|296:28|252:104,1,110,0|8,0:0|0:0,0:0:0:0:
236,120,43653,2,0,P|180:120|128:76,1,110,0|0,0:0|0:0,0:0:0:0:
108,44,44122,1,8,0:0:0:0:
80,152,44435,1,0,0:0:0:0:
56,260,44747,1,8,0:0:0:0:
120,352,45060,6,0,L|192:360,1,55,0|0,0:0|0:0,0:0:0:0:
224,332,45372,2,0,P|248:268|240:216,1,110,8|4,0:0|0:0,0:0:0:0:
184,136,45997,1,8,0:0:0:0:
252,48,46310,2,0,P|324:44|368:84,1,110,0|8,0:0|0:0,0:0:0:0:
392,104,46778,2,0,P|452:108|504:56,2,110,0|0|0,0:0|0:0|0:0,0:0:0:0:
340,124,47560,2,0,L|348:192,1,55,0|0,0:0|0:0,0:0:0:0:
412,268,48028,5,0,0:0:0:0:
412,268,48185,2,0,P|356:292|296:276,1,110,0|8,0:0|0:0,0:0:0:0:
268,248,48653,2,0,P|208:240|136:288,2,110,0|0|0,0:0|0:0|0:0,0:0:0:0:
224,352,49591,2,0,L|152:368,1,55
60,364,50060,6,0,P|56:316|64:280,1,55,8|8,0:0|0:0,0:0:0:0:
96,272,50372,2,0,P|104:236|100:196,1,55,8|0,0:0|0:0,0:0:0:0:
92,164,50685,1,0,0:0:0:0:
32,72,50997,6,0,P|76:52|152:76,1,110,0|8,0:0|0:0,0:0:0:0:
168,108,51466,2,0,P|236:112|280:84,1,110,0|0,0:0|0:0,0:0:0:0:
372,36,52091,2,0,P|436:32|504:96,1,110,0|0,0:0|0:0,0:0:0:0:
488,108,52560,2,0,L|484:168,1,55,8|0,0:0|0:0,0:0:0:0:
432,184,52872,2,0,L|444:256,1,55,0|0,0:0|0:0,0:0:0:0:
480,280,53185,5,4,0:0:0:0:
400,356,53497,2,0,B|340:372|296:328,1,110,0|8,0:0|0:0,0:0:0:0:
264,288,53966,2,0,P|208:288|152:328,1,110,0|0,0:0|0:0,0:0:0:0:
64,360,54591,2,0,P|56:296|76:244,1,110,0|0,0:0|0:0,0:0:0:0:
116,220,55060,2,0,L|104:148,1,55,8|0,0:0|0:0,0:0:0:0:
60,136,55372,2,0,L|80:80,1,55,0|0,0:0|0:0,0:0:0:0:
128,60,55685,5,4,0:0:0:0:
216,128,55997,1,8,0:0:0:0:
288,44,56310,1,0,0:0:0:0:
360,128,56622,1,8,0:0:0:0:
456,72,56935,5,4,0:0:0:0:
504,172,57247,1,8,0:0:0:0:
416,240,57560,1,0,0:0:0:0:
480,328,57872,1,8,0:0:0:0:
372,340,58185,6,0,P|304:328|224:360,1,110,4|8,0:0|0:0,0:0:0:0:
212,352,58653,2,0,P|152:360|84:324,1,110,0|0,0:0|0:0,0:0:0:0:
60,316,59122,2,0,L|64:248,1,55,8|0,0:0|0:0,0:0:0:0:
68,208,59435,5,4,0:0:0:0:
168,76,59903,2,0,L|176:156,1,55,8|8,0:0|0:0,0:0:0:0:
256,204,60372,2,0,L|268:136,1,55,8|8,0:0|0:0,0:0:0:0:
440,248,61935,5,0,2:0:0:0:
232,372,62560,1,0,2:0:0:0:
100,172,63185,6,0,L|88:100,2,55,4|0|8,0:0|0:0|0:0,0:0:0:0:
200,248,63810,2,0,P|256:240|340:284,1,110,0|8,0:0|0:0,0:0:0:0:
320,308,64278,1,0,0:0:0:0:
320,308,64435,2,0,P|384:328|452:284,1,110,0|8,0:0|0:0,0:0:0:0:
476,220,65060,1,0,0:0:0:0:
392,152,65372,1,8,0:0:0:0:
464,68,65685,6,0,L|472:4,2,55,0|0|8,0:0|0:0|0:0,0:0:0:0:
392,152,66310,2,0,P|320:148|288:116,1,110,0|8,0:0|0:0,0:0:0:0:
272,76,66778,1,0,0:0:0:0:
272,76,66935,2,0,P|208:84|168:136,1,110,0|8,0:0|0:0,0:0:0:0:
100,192,67560,1,0,0:0:0:0:
180,268,67872,1,8,0:0:0:0:
104,348,68185,6,0,P|176:372|288:280,1,220,4|0,0:0|0:0,0:0:0:0:
284,240,68966,2,0,L|276:124,1,110,0|0,0:0|0:0,0:0:0:0:
272,76,69435,1,0,0:0:0:0:
372,32,69747,1,8,0:0:0:0:
460,96,70060,1,0,0:0:0:0:
460,96,70216,6,0,P|440:148|448:216,1,110,0|0,0:0|0:0,0:0:0:0:
484,236,70685,2,0,P|500:292|476:352,1,110,0|8,0:0|0:0,0:0:0:0:
376,356,71310,2,0,L|280:344,1,55,0|0,0:0|0:0,0:0:0:0:
268,340,71622,2,0,L|172:328,1,55,8|4,0:0|0:0,0:0:0:0:
108,368,72091,5,4,0:0:0:0:
40,280,72403,2,0,L|56:148,1,110,4|0,0:0|0:0,0:0:0:0:
60,116,72872,1,0,0:0:0:0:
164,76,73185,6,0,L|160:16,2,55,4|0|8,0:0|0:0|0:0,0:0:0:0:
236,160,73810,2,0,P|296:152|332:108,1,110,0|8,0:0|0:0,0:0:0:0:
336,64,74278,1,0,0:0:0:0:
336,64,74435,2,0,P|396:64|448:100,1,110,0|8,0:0|0:0,0:0:0:0:
476,192,75060,2,0,L|468:260,1,55,0|0,0:0|0:0,0:0:0:0:
460,300,75372,1,8,0:0:0:0:
352,316,75685,6,0,L|360:372,2,55,0|0|8,0:0|0:0|0:0,0:0:0:0:
260,260,76310,2,0,P|204:256|160:292,1,110,0|8,0:0|0:0,0:0:0:0:
132,332,76778,1,0,0:0:0:0:
132,332,76935,2,0,P|56:336|16:308,2,110,0|8|0,0:0|0:0|0:0,0:0:0:0:
96,228,77872,2,0,L|104:160,1,55,8|0,0:0|0:0,0:0:0:0:
112,120,78185,5,4,0:0:0:0:
192,44,78497,1,8,0:0:0:0:
236,204,78966,2,0,P|296:236|360:224,1,110,0|0,0:0|0:0,0:0:0:0:
380,196,79435,2,0,L|376:80,1,110,0|8,0:0|0:0,0:0:0:0:
372,32,79903,1,0,0:0:0:0:
284,100,80216,2,0,P|244:84|168:112,1,110
152,148,80685,6,0,L|160:268,2,110,0|8|0,0:0|0:0|0:0,0:0:0:0:
152,220,83185,5,2,0:0:0:0:
152,220,83341,2,0,P|216:216|264:256,1,110,0|0,0:0|0:0,0:0:0:0:
296,276,83810,2,0,P|352:272|396:220,1,110,2|0,0:0|0:0,0:0:0:0:
416,188,84278,1,0,0:0:0:0:
284,92,84591,5,0,0:0:0:0:
284,92,84747,2,0,P|240:112|168:88,1,110,2|2,0:0|0:0,0:0:0:0:
144,60,85216,2,0,P|88:48|32:88,1,110,0|0,0:0|0:0,0:0:0:0:
32,124,85685,6,0,L|36:196,1,55,2|0,0:0|0:0,0:0:0:0:
92,272,86153,1,0,0:0:0:0:
92,272,86310,2,0,L|68:344,2,55,2|0|0,0:0|0:0|0:0,0:0:0:0:
140,244,86778,2,0,P|196:252|248:308,1,110,0|0,0:0|0:0,0:0:0:0:
264,332,87247,2,0,P|312:348|372:320,1,110,0|2,0:0|0:0,0:0:0:0:
388,276,87716,6,0,L|384:204,2,55,4|4|4,0:0|0:0|0:0,0:0:0:0:
