osu file format v14

[General]
AudioFilename: audio.mp3
AudioLeadIn: 0
PreviewTime: 61935
Countdown: 0
SampleSet: Normal
StackLeniency: 0.7
Mode: 1
LetterboxInBreaks: 0
WidescreenStoryboard: 0

[Editor]
Bookmarks: 5685,10685,20685,30685,40685,45685,73185
DistanceSpacing: 1.7
BeatDivisor: 1
GridSize: 32
TimelineZoom: 0.5999998

[Metadata]
Title:Born to be
TitleUnicode:Born to be
Artist:nano
ArtistUnicode:ナノ
Creator:-Sh1n1-
Version:Volta's Kantan
Source:魔法戦争
Tags:Magical Warfare ending mahou sensou WEST GROUND Masato Kouda TV Size shini Volta Flying_Pan xtrem3x
BeatmapID:1459080
BeatmapSetID:689184

[Difficulty]
HPDrainRate:7
CircleSize:4
OverallDifficulty:3
ApproachRate:5
SliderMultiplier:1.4
SliderTickRate:1

[Events]
//Background and Video events
0,0,"BG.jpg",0,35
//Break Periods
//Storyboard Layer 0 (Background)
//Storyboard Layer 1 (Fail)
//Storyboard Layer 2 (Pass)
//Storyboard Layer 3 (Foreground)
//Storyboard Sound Samples

[TimingPoints]
685,312.5,4,1,0,50,1,0
5685,-100,4,1,0,95,0,0
63185,-100,4,1,0,95,0,1
83185,-100,4,1,0,95,0,0

[HitObjects]
256,192,3185,12,0,5060,0:0:0:0:
0,32,5685,5,12,0:0:0:0:
64,32,6310,1,0,0:0:0:0:
128,32,6935,1,8,0:0:0:0:
192,32,7560,1,0,0:0:0:0:
224,32,7872,1,8,0:0:0:0:
256,32,8185,1,0,0:0:0:0:
320,32,8810,1,8,0:0:0:0:
384,32,9435,1,0,0:0:0:0:
0,96,10685,1,12,0:0:0:0:
64,96,11310,1,0,0:0:0:0:
128,96,11935,1,8,0:0:0:0:
192,96,12560,1,0,0:0:0:0:
224,96,12872,1,8,0:0:0:0:
256,96,13185,1,0,0:0:0:0:
320,96,13810,1,8,0:0:0:0:
384,96,14435,1,0,0:0:0:0:
416,96,14747,1,0,0:0:0:0:
448,96,15060,1,8,0:0:0:0:
512,96,15685,1,12,0:0:0:0:
256,192,18185,5,8,0:0:0:0:
256,192,19435,5,8,0:0:0:0:
256,192,20060,5,8,0:0:0:0:
96,192,20685,1,4,0:0:0:0:
416,192,21310,1,8,0:0:0:0:
416,192,22560,1,0,0:0:0:0:
96,192,23185,1,0,0:0:0:0:
416,192,23810,1,8,0:0:0:0:
416,192,25060,1,8,0:0:0:0:
64,192,25685,1,0,0:0:0:0:
416,192,26310,1,8,0:0:0:0:
416,192,27560,1,0,0:0:0:0:
96,192,28185,1,0,0:0:0:0:
416,192,28810,1,8,0:0:0:0:
416,192,30060,1,8,0:0:0:0:
256,352,30685,1,4,0:0:0:0:
256,288,31935,1,0,0:0:0:0:
256,224,32560,1,0,0:0:0:0:
256,192,32872,1,0,0:0:0:0:
256,32,33185,1,8,0:0:0:0:
256,96,34435,1,8,0:0:0:0:
256,160,35060,1,8,0:0:0:0:
256,192,35372,1,8,0:0:0:0:
256,352,35685,1,0,0:0:0:0:
256,288,36935,1,0,0:0:0:0:
256,224,37560,1,0,0:0:0:0:
256,192,37872,1,0,0:0:0:0:
256,32,38185,1,8,0:0:0:0:
448,192,38810,1,8,0:0:0:0:
96,192,39435,1,8,0:0:0:0:
256,320,39747,1,8,0:0:0:0:
256,64,40060,1,8,0:0:0:0:
256,192,40685,5,4,0:0:0:0:
256,192,41935,1,0,0:0:0:0:
256,192,42560,1,0,0:0:0:0:
256,192,43185,1,8,0:0:0:0:
256,192,43810,1,0,0:0:0:0:
256,192,44122,1,8,0:0:0:0:
256,192,44435,1,0,0:0:0:0:
96,192,45060,1,8,0:0:0:0:
256,192,45685,1,4,0:0:0:0:
256,192,46935,1,0,0:0:0:0:
256,192,47560,1,0,0:0:0:0:
256,192,48185,1,8,0:0:0:0:
256,192,48497,1,0,0:0:0:0:
256,192,48810,1,8,0:0:0:0:
256,192,49435,1,0,0:0:0:0:
448,192,50060,1,8,0:0:0:0:
256,192,50685,1,4,0:0:0:0:
256,192,51935,1,0,0:0:0:0:
256,32,52560,1,8,0:0:0:0:
256,192,53185,1,0,0:0:0:0:
448,192,54435,1,8,0:0:0:0:
256,320,55060,1,8,0:0:0:0:
256,192,55685,1,4,0:0:0:0:
256,192,56935,1,0,0:0:0:0:
256,192,58185,1,0,0:0:0:0:
256,192,58810,1,0,0:0:0:0:
448,192,59435,1,8,0:0:0:0:
64,192,60060,1,8,0:0:0:0:
256,192,60372,1,8,0:0:0:0:
448,192,60685,1,8,0:0:0:0:
512,352,63185,5,4,0:0:0:0:
448,352,63810,1,8,0:0:0:0:
384,352,64435,1,0,0:0:0:0:
352,352,64747,1,8,0:0:0:0:
320,352,65060,1,0,0:0:0:0:
256,352,65685,1,8,0:0:0:0:
192,352,66310,1,8,0:0:0:0:
128,352,66935,1,0,0:0:0:0:
96,352,67247,1,0,0:0:0:0:
64,352,67560,1,8,0:0:0:0:
0,352,68185,1,0,0:0:0:0:
32,288,69122,1,8,0:0:0:0:
64,288,69435,1,0,0:0:0:0:
128,288,70060,1,8,0:0:0:0:
192,288,70685,1,8,0:0:0:0:
224,288,70997,1,0,0:0:0:0:
256,288,71310,1,0,0:0:0:0:
512,288,71935,1,8,0:0:0:0:
0,192,73185,1,4,0:0:0:0:
64,192,73810,1,8,0:0:0:0:
128,192,74435,1,0,0:0:0:0:
160,192,74747,1,8,0:0:0:0:
192,192,75060,1,0,0:0:0:0:
256,192,75685,1,8,0:0:0:0:
320,192,76310,1,8,0:0:0:0:
384,192,76935,1,0,0:0:0:0:
416,192,77247,1,8,0:0:0:0:
448,192,77560,1,8,0:0:0:0:
512,192,78185,1,0,0:0:0:0:
320,192,79122,1,8,0:0:0:0:
192,192,79435,1,0,0:0:0:0:
32,192,80060,1,8,0:0:0:0:
160,192,80685,1,8,0:0:0:0:
256,192,80997,1,8,0:0:0:0:
352,192,81310,1,0,0:0:0:0:
480,192,81935,1,8,0:0:0:0:
96,192,83185,1,4,0:0:0:0:
416,192,83810,1,8,0:0:0:0:
416,192,85060,1,8,0:0:0:0:
96,192,85685,1,0,0:0:0:0:
416,192,86310,1,8,0:0:0:0:
416,192,87560,1,8,0:0:0:0:
256,192,88028,1,4,0:0:0:0:
